osu file format v9

[General]
AudioFilename: rengoku.mp3
AudioLeadIn: 2000
PreviewTime: 13651
Countdown: 0
SampleSet: Normal
StackLeniency: 0.3
Mode: 0
LetterboxInBreaks: 1

[Editor]
Bookmarks: 13642,28369,54551,82369
DistanceSpacing: 0.7
BeatDivisor: 2
GridSize: 8

[Metadata]
Title:Umineko no Naku Koro ni ~Rengoku~
Artist:Akiko Shikata
Creator:qinche
Version:Easy
Source:Umineko no Naku Koro ni
Tags:EP1 EP2 beatrice 07-expansion Harmonia ice coffee AngelHoney ignorethis

[Difficulty]
HPDrainRate:4
CircleSize:4
OverallDifficulty:2
ApproachRate:2
SliderMultiplier:0.6
SliderTickRate:1

[Events]
//Background and Video events
0,0,"Umineko.jpg"
//Break Periods
2,17115,18627
//Storyboard Layer 0 (Background)
//Storyboard Layer 1 (Fail)
//Storyboard Layer 2 (Pass)
//Storyboard Layer 3 (Foreground)
//Storyboard Sound Samples
//Background Colour Transformations
3,100,255,255,53

[TimingPoints]
551.57162993708,272.727272727273,3,1,1,70,1,0
13642,-100,3,1,0,0,0,0
25097,-100,3,1,0,49,0,0
28369,-100,3,2,0,74,0,0
41460,-100,3,2,0,80,0,0
54551,-100,3,1,1,74,0,0

[Colours]
Combo1 : 236,0,6
Combo2 : 255,244,25
Combo3 : 232,232,232
Combo4 : 0,96,255

[HitObjects]
256,64,551,1,2
256,192,1369,1,0
256,320,2187,2,0,B|152:320,2,90
256,320,3551,5,0
256,320,3824,1,2
256,192,4642,1,0
256,64,5460,2,0,B|368:64,1,90
360,128,6278,2,0,B|288:128,1,60
256,128,6824,1,0
216,128,7097,6,0,B|160:152|144:192|160:232|224:256,1,180,2|0
328,192,8733,2,0,B|144:192|144:192,1,180
256,128,10369,2,0,B|312:152|328:192|312:232|248:256,1,180,2|0
256,128,12006,6,0,B|328:128,2,60
256,168,12824,2,0,B|186:168,2,60
256,192,13642,12,0,16915
256,192,20187,12,0,23460
256,192,25097,5,0
128,192,25915,1,0
256,192,26733,1,0
384,192,27551,1,0
256,64,28369,6,0,B|200:16|144:64,1,120
147,61,29187,2,0,B|147:186,1,120
147,181,30006,1,2
147,306,30824,1,2
272,304,31642,6,0,B|328:352|384:304,1,120
380,306,32460,2,0,B|380:169,1,120
380,186,33278,1,2
380,46,34097,1,2
256,48,34915,6,0,B|136:48,1,120
112,80,35733,2,0,B|232:80,1,120
256,112,36551,2,0,B|368:112|384:112|416:136|416:192,1,180,2|2
352,224,37915,5,0
352,224,38187,2,0,B|232:224,1,120
200,200,39006,2,0,B|328:200,1,120
352,168,39824,2,0,B|464:168|480:168|504:136|504:80,1,180,2|2
376,80,41460,6,0,B|312:80,2,60
416,80,42278,1,2
416,208,43097,2,0,B|416:288,2,60
416,168,43915,1,2
288,168,44733,2,0,B|152:168,1,120
128,168,45551,1,2
128,296,46369,2,0,B|256:296,1,120
288,296,47187,1,2
288,208,47733,6,0,B|368:208|368:120,1,120
368,96,48551,2,0,B|304:96,1,60,0|2
264,96,49097,2,0,B|176:96,1,60
160,96,49642,2,0,B|96:128|96:200|160:240,1,180,0|2
200,240,50733,1,0
240,240,51006,5,0
280,240,51278,2,0,B|368:240|368:328,1,120
368,344,52097,1,2
256,192,52642,12,0,54551
256,192,55369,5,0
128,192,56187,2,0,B|80:136|128:80,1,120,4|0
167,84,57006,2,0,B|212:136|164:192,1,120,4|0
163,234,57824,5,4
37,235,58642,1,0
162,235,59460,2,0,B|216:288|264:232,1,120,4|0
288,200,60278,2,0,B|344:136|400:216,1,120,4|0
432,200,61097,5,4
432,72,61915,1,0
304,72,62733,2,0,B|200:72,1,90,4|0
215,92,63278,2,0,B|95:92,1,120
52,92,64097,1,0
51,133,64369,5,4
136,136,64915,1,0
136,176,65187,2,0,B|136:312,1,120,4|0
176,296,66006,2,0,B|176:96,1,180,4|0
301,116,67642,5,4
403,189,68460,1,0
300,262,69278,2,0,B|224:264|224:160,1,120,4|0
224,144,70097,2,0,B|312:144|312:56,1,120,4|0
312,40,70915,5,4
192,88,71733,1,0
80,144,72551,2,0,B|200:144,1,120,4|0
240,144,73369,2,0,B|240:280,1,120,4|0
240,304,74187,6,0,B|304:248|376:304|376:304|432:304|432:304,1,180,4|0
440,280,75278,1,0
440,240,75551,1,0
408,208,75824,2,0,B|344:152|272:208|272:208|216:208|216:208,1,180,4|0
160,208,77187,6,0,B|160:120,2,60,0|4|0
160,240,78006,2,0,B|160:328,2,60,0|4|0
160,240,78824,1,0
256,192,79097,12,0,81551
