osu file format v9

[General]
AudioFilename: rengoku.mp3
AudioLeadIn: 2000
PreviewTime: 13651
Countdown: 0
SampleSet: Normal
StackLeniency: 0.3
Mode: 0
LetterboxInBreaks: 1

[Editor]
DistanceSpacing: 1
BeatDivisor: 4
GridSize: 8

[Metadata]
Title:Umineko no Naku Koro ni ~Rengoku~
Artist:Akiko Shikata
Creator:qinche
Version:Coffee
Source:Umineko no Naku Koro ni
Tags:EP1 EP2 beatrice 07-expansion Harmonia ice coffee AngelHoney ignorethis

[Difficulty]
HPDrainRate:3
CircleSize:4
OverallDifficulty:3
ApproachRate:6
SliderMultiplier:0.8
SliderTickRate:1

[Events]
//Background and Video events
0,0,"Umineko.jpg"
//Break Periods
//Storyboard Layer 0 (Background)
//Storyboard Layer 1 (Fail)
//Storyboard Layer 2 (Pass)
//Storyboard Layer 3 (Foreground)
//Storyboard Sound Samples
//Background Colour Transformations
3,100,163,162,255

[TimingPoints]
551.57162993708,272.727272727273,4,1,0,75,1,0
5452,-100,4,1,0,75,0,0
14185,-100,4,1,0,75,0,0
28369,-100,4,2,0,60,0,0
41460,-100,4,1,0,70,0,0
53869,-100,4,1,1,75,0,0
54536,-100,4,1,0,75,0,1
82369,-100,4,1,1,100,0,0
84006,-100,4,1,0,85,0,0
88915,-100,4,1,1,100,0,0
90552,-100,4,1,1,85,0,0
95460,-100,4,1,0,85,0,0

[Colours]
Combo1 : 236,0,6
Combo2 : 255,244,25
Combo3 : 232,232,232
Combo4 : 0,96,255

[HitObjects]
256,192,550,1,0
256,192,824,8,0,3551
256,192,3824,5,0
256,192,4097,8,0,6824
192,200,7097,6,0,B|288:200,1,80,0|0
224,264,7642,2,0,B|312:264,1,80
256,328,8187,2,0,B|352:328,1,80
416,328,8733,1,2
416,248,9006,6,0,B|416:152,1,80
352,216,9551,2,0,B|352:120,1,80
288,184,10097,2,0,B|288:88,1,80,0|2
224,152,10642,6,0,B|224:240,1,80,0|0
160,184,11187,2,0,B|160:280|160:272,1,80
96,216,11733,2,0,B|96:296,1,80
176,304,12278,2,0,B|216:304,4,40
256,304,13097,5,0
336,304,13369,1,0
400,256,13642,2,0,B|400:160|304:144,1,160
224,144,14460,1,0
176,208,14733,1,0
200,288,15006,1,0
280,288,15278,2,0,B|336:344|432:320,1,160
392,248,16097,5,0
320,216,16369,1,0
280,144,16642,1,0
256,192,16915,8,0,19915
360,296,20187,6,2,B|440:272|480:176,1,160,2|0
400,168,21006,2,0,B|352:184|320:144,1,80
328,232,21551,2,0,B|272:240|264:184,1,80
224,264,22097,1,0
192,240,22233,1,0
176,208,22369,1,0
176,128,22642,5,0
256,128,22915,1,0
336,128,23187,1,0
336,208,23460,2,0,B|168:208,1,160
224,272,24278,2,0,B|392:272,1,160
336,336,25097,2,0,B|176:336,1,160
144,264,25915,2,0,B|216:208,1,80
128,192,26460,2,0,B|192:144,1,80
216,288,28369,6,0,B|168:288|136:264,1,80,0|8
136,184,28915,1,0
136,184,29187,1,0
136,104,29460,1,0
136,104,29733,1,0
208,144,30006,2,0,B|208:192|256:200,1,80,0|0
336,208,30551,1,0
336,208,30687,1,0
336,208,30824,1,4
416,224,31097,6,0,B|424:144,2,80
376,296,31915,2,0,B|344:320|288:296,1,80
224,280,32460,1,0
224,280,32733,1,0
152,240,33006,1,0
152,240,33278,2,0,B|80:192,3,80,0|0|0|8
88,112,34369,6,0,B|184:112,1,80
248,128,34915,6,0,B|408:192,1,160
360,264,35733,1,0
320,336,36006,1,0
256,280,36278,2,0,B|296:240|264:192,4,80,0|0|0|0|8
200,224,37642,1,0
224,152,37915,1,0
304,144,38187,5,0
352,208,38460,1,0
352,208,38597,1,0
352,208,38733,2,0,B|400:200|408:152,1,80,0|8
360,88,39278,1,0
304,144,39551,1,0
248,88,39824,2,0,B|208:72|160:64,3,80,0|0|0|8
248,296,41460,6,0,B|336:248|352:168,1,160
352,96,42278,1,2
272,96,42551,1,2
112,96,43097,2,0,B|80:176|160:248,1,160
232,240,43915,1,2
312,240,44187,1,2
256,88,44733,5,0
192,136,45006,1,0
264,168,45278,2,0,B|344:128,3,80
328,208,46369,2,0,B|424:216|424:104,1,160
423,109,47187,1,0
264,112,47733,6,0,B|168:112,1,80
112,144,48278,2,0,B|72:216,1,80
144,256,48824,1,2
88,312,49097,1,2
248,312,49642,2,0,B|336:312,1,80
280,248,50187,2,0,B|376:248,1,80,0|4
392,176,50733,1,2
424,104,51006,1,0
344,88,51278,6,0,B|288:48|232:48|176:48|112:96,1,240
168,160,52369,2,0,B|240:96|320:168,1,160
272,232,53187,2,0,B|240:200|200:232,3,80
240,304,54278,1,0
240,304,54551,6,0,B|240:136,1,160
240,64,55369,2,0,B|160:64,1,80
112,128,55915,2,0,B|200:128,1,80,0|2
272,128,56460,1,0
312,128,56597,1,0
352,128,56733,1,0
432,128,57006,1,0
432,208,57278,6,0,B|400:232|352:224,1,80
360,304,57824,1,2
296,264,58097,1,0
248,328,58369,1,0
184,280,58642,1,2
128,336,58915,2,0,B|88:304|80:264,1,80
80,168,59460,2,0,B|160:136,3,80
392,96,61097,6,2,B|384:232|224:240,1,240
232,160,62187,2,0,B|280:176|312:128,1,80
328,64,62733,1,0
248,88,63006,2,0,B|192:96,8,40
216,184,64369,1,0
424,64,65187,1,2
256,240,66006,1,0
256,192,66142,8,0,67097
256,192,67369,6,2,B|344:192,1,80
416,192,67915,1,0
416,192,68051,1,0
416,192,68187,1,0
416,112,68460,2,0,B|392:72|344:72,1,80
272,72,69006,5,0
272,72,69142,1,0
272,72,69278,1,4
232,144,69551,1,0
232,144,69687,1,0
232,144,69824,1,0
160,104,70097,2,0,B|144:152|168:192,2,80
80,104,70915,1,4
72,184,71187,6,0,B|120:176|152:208,1,80
146,203,71733,1,0
384,200,72551,5,2
296,120,72960,1,2
264,248,73369,1,2
224,176,73642,2,0,B|136:144,3,80,0|0|2|0
168,72,74733,1,0
168,72,74869,1,0
168,72,75006,1,0
256,72,75278,1,0
256,72,75415,1,0
256,72,75551,1,0
336,72,75824,6,0,B|416:112|416:208,1,160,2|0
360,256,76642,1,0
360,256,76778,1,0
360,256,76915,1,0
320,320,77187,1,2
256,272,77460,6,0,B|256:192,1,80
192,240,78006,2,2,B|192:144,1,80,2|6
128,208,78551,2,2,B|128:120,1,80
128,48,79097,1,0
256,192,79369,8,0,82097
200,128,82369,5,4
320,128,82778,1,4
256,232,83187,2,0,B|256:312,2,80
336,232,84006,1,4
440,176,84415,1,4
336,112,84824,2,0,B|312:80|264:104,2,80
336,192,85642,5,0
336,192,85778,1,0
336,192,85915,1,0
336,192,86051,1,0
336,192,86460,1,0
336,192,86733,1,0
336,272,87006,6,0,B|240:272,1,80
136,272,87687,1,0
136,152,88097,2,0,B|136:200,4,40
136,72,88915,1,4
256,72,89324,1,4
336,72,89597,2,0,B|336:120,3,40
336,192,90278,1,2
336,272,90551,1,2
416,272,90824,2,4,B|416:328,6,40,0|0|0|0|0|0|0
304,200,92187,5,0
208,272,92597,1,0
144,320,92869,2,0,B|120:312|104:280,5,40
96,216,93824,2,0,B|96:128,1,80
160,184,94369,2,0,B|160:96,1,80
224,144,94915,2,0,B|224:104|224:88,4,40
