osu file format v9

[General]
AudioFilename: rengoku.mp3
AudioLeadIn: 2000
PreviewTime: 13651
Countdown: 0
SampleSet: Normal
StackLeniency: 0.3
Mode: 0
LetterboxInBreaks: 1

[Editor]
Bookmarks: 13642,28369,54551,82369,106915,131460,157642,170733,195278,208369,244369
DistanceSpacing: 1
BeatDivisor: 2
GridSize: 8

[Metadata]
Title:Umineko no Naku Koro ni ~Rengoku~
Artist:Akiko Shikata
Creator:qinche
Version:AHO
Source:Umineko no Naku Koro ni
Tags:EP1 EP2 beatrice 07-expansion Harmonia ice coffee AngelHoney ignorethis

[Difficulty]
HPDrainRate:4
CircleSize:4
OverallDifficulty:6
ApproachRate:8
SliderMultiplier:1.9
SliderTickRate:0.5

[Events]
//Background and Video events
0,0,"Umineko.jpg"
//Break Periods
//Storyboard Layer 0 (Background)
//Storyboard Layer 1 (Fail)
//Storyboard Layer 2 (Pass)
//Storyboard Layer 3 (Foreground)
//Storyboard Sound Samples
//Background Colour Transformations
3,100,255,255,53

[TimingPoints]
551.57162993708,272.727272727273,3,1,0,50,1,0
6960,-100,4,1,0,55,0,0
13574,-100,4,1,0,60,0,0
13642,-100,4,1,0,60,0,1
13710,-100,4,1,0,60,0,0
25028,-100,4,1,0,50,0,0
26597,-100,4,1,0,40,0,0
41392,-100,4,1,0,45,0,0
43778,-100,4,1,0,55,0,0
44051,-100,4,1,0,46,0,0
44324,-100,4,1,0,55,0,0
44597,-100,4,1,0,46,0,0
50937,-100,4,1,0,40,0,0
51551,-100,4,1,0,30,0,0
52369,-100,4,1,0,50,0,0
53187,-100,4,1,0,60,0,0
53869,-100,4,1,0,62,0,0
54074,-100,4,1,0,64,0,0
54210,-100,4,1,0,66,0,0
54347,-100,4,1,0,68,0,0
54483,-100,4,1,0,70,0,0
54551,-100,4,1,0,70,0,1
54585,-100,4,1,0,70,0,0
57960,-100,4,1,0,65,0,0
61028,-100,4,1,0,70,0,0
64301,-100,4,1,0,65,0,0
67233,-100,4,1,0,70,0,0
70506,-100,4,1,0,65,0,0
74051,-100,4,1,0,70,0,0
76915,-100,4,1,0,60,0,0
82301,-100,4,1,0,80,0,0
82437,-100,4,1,0,70,0,0
93756,-100,4,1,0,65,0,0
94778,-100,4,1,0,60,0,0
95051,-100,4,1,0,51,0,0
95324,-100,4,1,0,60,0,0
98597,-100,4,1,0,65,0,0
99006,-100,4,1,0,60,0,0
101869,-100,4,1,0,65,0,0
103574,-100,4,1,0,70,0,0
105210,-100,4,1,0,75,0,0
106028,-100,4,1,0,80,0,0
106233,-100,4,1,0,90,0,0
106506,-100,4,1,0,100,0,0
106915,-100,4,1,0,10,0,1
107460,-100,4,1,0,20,0,1
108006,-100,4,1,0,30,0,1
108551,-100,4,1,0,40,0,1
109097,-100,4,1,0,50,0,1
109642,-100,4,1,0,60,0,1
110187,-100,4,1,0,70,0,1
110733,-100,4,1,0,80,0,1
111278,-100,4,1,0,90,0,1
111756,-100,4,1,0,90,0,0
111824,-100,4,1,0,100,0,1
111960,-100,4,1,0,60,0,0
124778,-100,4,1,0,70,0,0
125324,-100,4,1,0,60,0,0
125869,-100,4,1,0,70,0,0
126347,-100,4,1,0,66,0,0
126483,-100,4,1,0,60,0,0
127574,-100,4,1,0,63,0,0
127710,-100,4,1,0,66,0,0
127847,-100,4,1,0,70,0,0
128324,-100,4,1,0,65,0,0
128597,-100,4,1,0,70,0,0
128869,-100,4,1,0,75,0,0
129142,-100,4,1,0,70,0,0
129756,-100,4,1,0,75,0,0
130506,-100,4,1,0,70,0,0
130710,-100,4,1,0,68,0,0
130847,-100,4,1,0,66,0,0
130983,-100,4,1,0,63,0,0
131119,-100,4,1,0,60,0,0
131324,-125,4,1,0,60,0,0
131597,-125,4,1,0,56,0,0
134597,-125,4,1,0,65,0,0
137869,-125,4,1,0,55,0,0
151028,-125,4,1,0,60,0,0
157506,-111.111111111111,4,1,0,55,0,0
168142,-111.111111111111,4,1,0,45,0,0
168551,-111.111111111111,4,1,0,50,0,0
168960,-111.111111111111,4,1,0,55,0,0
169778,-111.111111111111,4,1,0,60,0,0
170256,-111.111111111111,4,1,0,65,0,0
170665,-100,4,1,0,70,0,0
170733,-100,4,1,0,70,0,1
170801,-100,4,1,0,70,0,0
193506,-100,4,1,0,65,0,0
194324,-100,4,1,0,90,0,0
195142,-100,4,1,0,70,0,0
195278,-100,4,1,0,70,0,1
197665,-100,4,1,0,70,0,0
197733,-100,4,1,0,70,0,1
197801,-100,4,1,0,70,0,0

[Colours]
Combo1 : 236,0,6
Combo2 : 255,244,25
Combo3 : 232,232,232
Combo4 : 0,96,255

[HitObjects]
64,88,551,6,0,B|0:192|88:280,1,190,4|0
176,352,960,2,0,B|248:264|168:168,1,190
176,40,1369,2,0,B|280:88|384:8,1,190
504,112,1915,1,0
360,216,2187,2,0,B|256:184|184:296,1,190
304,328,2597,2,0,B|240:424|120:376,1,190
40,304,3006,2,0,B|-40:224|48:88,1,190
144,32,3551,1,0
296,40,3824,6,0,B|296:152|160:192,1,190,4|0
88,192,4233,2,0,B|192:192|224:304,1,190
288,376,4642,2,0,B|232:280|304:184,1,190
416,56,5187,1,0
416,56,5460,2,0,B|480:160|376:264,1,190
312,160,5869,2,0,B|240:80|112:136,1,190
32,176,6278,1,0
168,352,6551,1,0
432,272,6824,1,0
376,80,7097,6,0,B|336:280,1,190,4|0
232,304,7506,2,0,B|272:112,1,190
184,48,7915,2,0,B|136:248,2,190
16,128,8733,6,0,B|96:312,1,190
200,328,9142,2,0,B|152:120,1,190
264,64,9551,2,0,B|280:264,2,190
88,88,10369,6,2,B|296:-16|440:184,1,380,4|0
456,280,11051,1,0
456,280,11187,2,2,B|256:384|112:200,1,380
88,88,11869,1,0
88,88,12006,2,0,B|208:40|272:168,2,190,2|0|0
0,168,12687,1,0
16,272,12824,2,0,B|72:360|208:312,2,190,2|2|2
104,192,13506,1,0
72,64,13642,6,2,B|168:96|232:192,1,190,6|0
128,208,14051,2,0,B|176:120|296:88,1,190,2|0
336,16,14460,2,0,B|392:96|392:232,2,190,2|2|0
456,64,15142,1,2
480,192,15278,2,0,B|448:304|320:328,1,190,2|0
264,344,15687,1,2
176,336,15824,1,0
112,280,15960,1,2
72,208,16097,2,0,B|216:160|248:32,1,190,2|0
288,24,16506,1,2
288,24,16642,2,0,B|288:152|400:216,1,190,0|2
280,376,17187,5,2
208,328,17324,1,0
120,336,17460,1,2
40,288,17597,1,0
64,192,17733,2,0,B|112:96|64:0,1,190,2|0
168,48,18142,1,2
248,96,18278,2,0,B|192:208|280:304,1,190,2|0
336,328,18687,1,2
488,136,18960,1,2
488,136,19097,2,0,B|424:56|296:80,2,190,0|2|2
440,224,19778,1,0
352,272,19915,1,2
248,296,20051,1,0
144,280,20187,6,0,B|40:240|16:136,1,190,6|0
48,56,20597,2,0,B|128:152|272:120,1,190,2|0
304,72,21006,2,0,B|264:184|376:272,2,190,2|2|0
400,32,21687,1,2
304,32,21824,2,0,B|256:128|120:152,1,190,2|0
64,168,22233,1,2
0,248,22369,2,0,B|128:216|192:328,2,190,2|2|2
32,336,23051,1,0
120,376,23187,1,2
216,376,23324,1,0
312,328,23460,5,6
312,328,23733,2,0,B|408:264|384:144,1,190,2|2
344,80,24142,1,0
264,32,24278,2,0,B|240:136|120:160,1,190,2|0
40,168,24687,2,0,B|152:176|200:280,1,190,2|0
232,352,25097,5,6
440,144,25369,1,0
464,232,25506,1,2
272,192,25778,1,0
248,272,25915,2,0,B|320:48,2,190,2|2|2
176,88,26733,5,6
96,224,27006,1,0
64,304,27142,1,2
296,264,27415,1,0
312,344,27551,2,0,B|280:144,2,190,2|2|2
448,48,28369,6,0,B|288:72|232:216,1,285
184,296,28915,2,0,B|96:224|128:96,1,190
392,328,29460,2,0,B|360:288|376:208,1,95
480,248,29733,2,0,B|488:192|448:136,1,95
400,80,30006,2,0,B|328:184|192:144,1,190
160,96,30415,2,0,B|96:216|176:304,1,190
96,360,30824,2,0,B|224:392|288:312,1,190
72,80,31369,5,0
160,96,31506,1,0
248,128,31642,2,0,B|352:144|400:248,1,190
440,320,32051,1,0
496,232,32187,2,0,B|488:128|400:56,1,190
184,48,32733,1,0
96,80,32869,1,0
32,152,33006,2,0,B|160:152|208:264,1,190
120,312,33415,2,0,B|216:384|312:288,1,190
352,232,33824,1,0
224,88,34097,6,0,B|168:0,1,95
112,72,34369,2,0,B|80:200,1,95
72,256,34642,2,0,B|184:304|304:208,1,190
336,184,35051,1,0
336,184,35324,1,0
416,256,35460,2,0,B|400:136|504:72,2,190
440,344,36142,1,0
352,368,36278,1,0
272,336,36415,1,0
176,344,36551,2,0,B|120:128,1,190
104,64,36960,2,0,B|40:256,1,190
24,336,37369,2,0,B|200:376|288:248,1,285
320,176,37915,1,0
464,40,38187,5,0
376,72,38324,2,0,B|288:0|168:40,1,190
256,120,38733,2,0,B|144:120|80:224,1,190
48,288,39142,2,0,B|128:360|240:312,1,190
288,240,39551,2,0,B|328:344,1,95
416,360,39824,2,0,B|488:280|432:160,1,190
376,112,40233,1,0
288,64,40369,2,0,B|224:176|304:296,1,190
80,352,40915,1,0
152,304,41051,1,0
80,256,41187,1,0
144,200,41324,1,0
88,136,41460,6,0,B|176:0|368:24,1,285,4|0
416,40,42006,1,0
480,288,42278,2,0,B|384:152|200:240,1,285
144,280,42824,1,0
48,120,43097,2,0,B|160:72|272:136,1,190
320,176,43506,1,0
224,216,43642,2,0,B|112:248|64:376,3,190
256,128,44733,6,0,B|408:184|528:56,1,285,4|0
392,56,45278,2,0,B|400:176|272:232,2,190
192,32,46097,1,0
24,184,46369,1,0
96,256,46506,2,0,B|200:224|288:272,1,190
360,336,46915,2,0,B|272:384|168:344,1,190
248,96,47460,1,0
168,120,47597,1,0
96,168,47733,1,0
48,240,47869,1,0
8,320,48006,6,0,B|128:296|192:384,1,190,4|0
264,336,48415,1,0
352,352,48551,1,0
280,144,48824,2,0,B|368:104|480:120,1,190
416,208,49233,1,0
400,304,49369,2,0,B|312:248|184:264,1,190
64,200,49915,1,0
112,128,50051,1,0
176,72,50187,1,0
256,40,50324,1,0
344,32,50460,2,0,B|288:144|352:256,1,190
248,240,50869,1,0
320,296,51006,6,0,B|552:296,1,190,0|4
96,80,51824,2,0,B|296:80,1,190,0|4
240,240,52642,2,0,B|448:240,1,190,0|4
296,144,53460,2,0,B|88:144,1,190,0|4
216,360,54006,1,0
304,328,54142,1,0
376,264,54278,1,0
440,184,54415,1,0
480,96,54551,6,0,B|424:-8|304:0,1,190,6|0
352,96,54960,1,2
256,64,55097,2,0,B|112:32,1,95,0|2
80,96,55369,2,0,B|139:196,1,95,2|0
80,272,55642,2,0,B|200:256|256:344,1,190,2|2
445,161,56187,2,0,B|333:113|325:-15,1,190,6|0
240,32,56597,1,2
152,56,56733,1,0
72,112,56869,1,2
9,188,57006,2,0,B|161:188|249:284,1,190,2|0
96,304,57415,2,0,B|232:208|360:304,1,285,2|2
464,168,58097,6,0,B|504:56,1,95,0|2
400,96,58369,2,0,B|384:-16,1,95,0|2
304,32,58642,1,4
104,136,58915,1,0
104,136,59051,2,0,B|216:136|304:216,1,190,2|0
280,196,59460,2,0,B|168:184|88:272,1,190,6|0
64,336,59869,2,0,B|176:424|352:344,1,285,2|0
416,296,60415,1,2
464,208,60551,1,0
448,104,60687,1,2
376,40,60824,1,2
280,16,60960,1,0
176,32,61097,6,0,B|72:96|96:216,1,190,6|0
112,304,61506,2,0,B|296:256|312:80,1,285,2|2
96,80,62187,1,2
48,168,62324,1,0
144,160,62460,2,0,B|240:120|344:168,1,190,2|6
240,240,62869,2,0,B|128:232|56:328,1,190,0|2
144,368,63278,1,0
144,368,63415,1,2
144,368,63551,2,0,B|216:256|152:144,1,190,2|0
248,64,63960,2,0,B|256:184|352:240,1,190,2|0
408,336,64369,6,0,B|472:248|424:136,1,190,6|2
344,72,64778,1,0
224,48,64915,1,2
112,96,65051,1,0
32,192,65187,2,0,B|192:152|296:312,1,285,6|2
168,320,65733,2,0,B|200:216|288:152,1,190,2|6
446,40,66278,1,0
504,112,66415,1,2
512,208,66551,1,0
480,304,66687,1,2
384,264,66824,2,0,B|288:208|152:288,1,190,2|2
24,304,67369,5,6
24,304,67506,1,0
24,304,67642,1,6
88,232,67778,2,0,B|192:192|232:72,1,190,2|0
280,24,68187,2,0,B|328:136|456:152,1,190,2|2
504,160,68597,1,0
448,232,68733,1,2
360,272,68869,1,2
432,336,69006,2,0,B|432:216|312:160,1,190,2|6
249,145,69415,1,2
24,208,69687,1,2
64,296,69824,2,0,B|192:256,1,95,2|0
240,312,70097,2,0,B|216:208|312:128,1,190,2|2
416,32,70642,5,2
472,104,70778,1,0
480,200,70915,2,0,B|384:280|256:256,1,190,6|2
328,168,71324,2,0,B|224:168|136:72,1,190,0|2
72,64,71733,2,0,B|96:168|48:256,1,190,6|2
24,336,72142,2,0,B|136:296|232:360,1,190,2|0
304,368,72551,2,0,B|472:320|488:152,1,285,6|2
496,80,73097,1,0
432,16,73233,1,2
368,88,73369,2,0,B|288:24,1,95,0|2
232,104,73642,2,0,B|144:144,1,95,2|2
64,192,73915,6,0,B|136:312|304:272,1,190,6|6
208,192,74324,2,0,B|328:200|368:336,1,190,2|0
400,384,74733,1,2
472,312,74869,1,0
512,224,75006,2,0,B|552:104|488:8,1,190,2|2
400,32,75415,2,0,B|288:160|80:112,1,285,2|6
72,200,75960,2,0,B|192:208|232:312,1,190,2|2
272,384,76369,1,0
336,312,76506,1,2
280,232,76642,2,0,B|328:80|520:64,1,285,2|0
496,160,77187,1,2
448,240,77324,1,0
400,320,77460,6,0,B|256:288|184:376,1,190,6|0
128,304,77869,1,0
96,200,78006,1,6
136,104,78142,1,0
248,64,78278,2,0,B|248:168|128:256,1,190,6|0
240,288,78687,2,0,B|360:320,1,95,0|6
480,208,78960,2,0,B|368:176,1,95,0|6
64,152,79506,6,0,B|168:96,1,95
360,72,79779,2,0,B|264:128,1,95
96,280,80187,1,0
224,360,80460,1,0
352,320,80733,2,0,B|416:224|360:136,1,190
280,64,81142,2,0,B|200:160|272:264,1,190
224,336,81551,2,0,B|336:304,1,95
408,304,81824,2,0,B|376:208,1,95
296,168,82097,2,0,B|352:40,1,95
408,24,82369,6,2,B|480:184|360:304,1,285,6|2
232,336,82915,2,0,B|160:248|240:136,2,190,2|2|2
48,176,83733,1,0
184,40,84006,2,0,B|152:160|232:248,1,190,2|0
288,288,84415,2,0,B|352:192|320:80,1,190,2|0
384,24,84824,2,0,B|424:120,1,95,2|0
464,312,85097,2,0,B|424:208,1,95,2|0
480,136,85369,2,0,B|384:216,1,95,2|0
320,152,85642,6,2,B|216:264|80:216|48:128,1,285,6|2
48,72,86187,2,0,B|160:128|264:80,2,190,2|2|2
128,248,87006,1,0
288,168,87278,2,0,B|232:272|304:376,1,190,2|0
360,280,87687,2,0,B|424:184|384:64,1,190,2|0
464,8,88097,2,0,B|512:144,1,95,2|0
504,192,88369,2,0,B|400:264,1,95,2|0
336,192,88642,2,0,B|344:56,1,95,2|0
264,32,88915,6,0,B|168:120|216:256,1,190,6|0
112,248,89324,2,0,B|200:344|328:272,1,190,2|0
272,192,89733,2,0,B|344:104|464:160,1,190,2|2
200,40,90278,1,0
128,80,90415,1,0
64,136,90551,2,0,B|24:240|112:320,1,190,2|0
16,352,90960,2,0,B|144:344|168:184,1,190,2|0
64,200,91369,2,0,B|176:208|216:336,2,190,2|2|2
320,48,92187,5,6
392,96,92324,2,0,B|352:216|184:200,1,190,2|2
152,200,92733,2,0,B|264:208|328:320,2,190,2|2|2
64,184,93415,1,0
16,104,93551,1,2
88,40,93687,1,2
176,24,93824,2,0,B|232:120|384:104,1,190,2|0
432,104,94233,1,2
144,312,94506,1,2
232,352,94642,2,0,B|312:272|448:336,2,190,0|2|2
72,176,95460,6,0,B|184:232|264:160,1,190,4|0
344,224,95869,2,0,B|376:104|280:0,1,190
224,104,96278,2,0,B|160:32|32:56,2,190
448,48,97097,6,0,B|496:160|416:232,1,190
368,136,97506,2,0,B|320:224|200:224,1,190
144,136,97915,2,0,B|72:232|152:336,2,190
336,56,98733,5,4
368,136,98869,1,0
112,88,99142,1,0
88,176,99278,1,0
176,160,99415,1,0
272,160,99551,2,0,B|416:160|488:264,2,190
64,280,100369,1,0
64,280,100506,2,0,B|184:264|256:344,1,190
328,336,100915,1,0
408,304,101051,1,0
488,256,101187,2,0,B|512:152|448:64,1,190
272,24,101733,1,0
56,64,102006,6,0,B|64:160,1,95,4|0
120,280,102278,2,0,B|136:176,1,95,0|0
200,72,102551,2,0,B|224:184,1,95,0|0
264,280,102824,2,0,B|280:208,2,47.5,0|0|0
304,88,103097,2,0,B|344:176,1,95,0|0
408,272,103369,2,0,B|456:184,1,95,0|0
448,80,103642,6,0,B|352:96,1,95,4|0
96,112,103915,2,0,B|216:144,1,95
416,192,104187,2,0,B|296:224,1,95
120,248,104460,2,0,B|176:216,2,47.5
456,320,104733,2,0,B|320:304,1,95
80,336,105006,2,0,B|216:344,1,95
120,96,105278,5,4
152,184,105415,1,0
208,248,105551,1,0
280,280,105687,1,0
344,280,105824,1,0
400,264,105960,1,0
432,232,106097,5,0
496,56,106369,5,0
304,64,106642,5,0
256,192,106915,12,0,111824
368,64,112097,38,0,B|328:168|208:152,1,190
56,248,112642,1,0
112,320,112778,1,0
200,352,112915,1,0
288,360,113051,1,0
376,336,113187,2,0,B|480:296|496:168,2,190
32,160,114006,1,0
88,88,114142,1,0
176,48,114278,1,0
264,32,114415,1,0
352,32,114551,2,0,B|472:48|520:160,1,190
312,176,115097,6,0,B|256:264|312:376,2,190,4|0|0
160,72,115915,2,0,B|200:176|128:280,2,190
88,336,116733,2,0,B|184:392|296:336,1,190
200,288,117142,2,0,B|320:272|384:176,1,190
272,184,117551,2,0,B|368:120|376:16,1,190
160,32,118097,6,0,B|96:136,1,95
72,184,118369,2,0,B|112:296|224:312,1,190,4|0
288,320,118778,1,0
368,304,118915,1,0
432,120,119187,1,0
360,72,119324,1,0
280,40,119460,2,0,B|168:16|80:96,1,190
240,144,120006,2,0,B|248:248|352:304,1,190
416,336,120415,1,0
504,352,120551,1,0
192,328,120824,2,0,B|160:224|16:200,2,190
240,136,121642,6,0,B|304:40|432:80,1,190,4|0
496,104,122051,1,0
424,168,122187,1,0
112,144,122460,2,0,B|32:232|96:336,2,190
192,344,123278,2,0,B|378:286,1,190
448,336,123687,2,0,B|496:248,1,95
416,200,123960,2,0,B|360:88,1,95
216,40,124369,1,0
256,280,124642,1,0
56,176,124915,6,0,B|96:56,2,95,4|0|0
200,256,125460,2,0,B|232:376,2,95
320,104,126006,2,0,B|368:8,2,95
288,192,126415,1,0
376,176,126551,2,0,B|496:152,2,95
280,328,127097,5,0
352,360,127233,1,0
416,312,127369,1,0
488,272,127506,1,0
464,192,127642,1,0
480,112,127778,1,0
424,48,127915,1,0
96,72,128187,2,0,B|312:120,1,190
416,192,128733,2,0,B|208:232,1,190
64,296,129278,5,4
120,352,129415,1,0
184,304,129551,1,0
248,352,129687,1,0
288,280,129824,1,0
360,320,129960,1,0
408,256,130097,1,0
400,64,130369,2,0,B|184:104,1,190
120,120,130778,1,0
56,184,130915,1,0
80,272,131051,1,0
168,304,131187,1,0
280,144,131460,6,0,B|368:128|448:176,1,152
272,328,132006,2,0,B|352:376|448:344,2,152
192,104,132824,1,0
160,144,132960,1,0
144,192,133097,2,0,B|120:264|16:304,1,152
280,176,133642,1,0
312,136,133778,1,0
352,104,133915,2,0,B|392:24|504:16,1,152
272,320,134460,6,0,B|192:280|96:320,1,152,0|4
80,328,134869,1,0
56,112,135142,2,0,B|248:56,1,152
248,72,135551,1,0
392,128,135824,1,0
472,272,136097,1,0
320,264,136369,1,0
296,304,136506,2,0,B|240:360|136:368,1,152
128,328,136915,2,0,B|208:272|208:160,1,152
168,48,137460,1,0
328,96,137733,1,0
408,288,138006,5,0
432,248,138142,1,0
296,232,138415,1,0
280,184,138551,1,0
144,144,138824,1,0
48,248,139097,1,0
168,328,139369,1,0
208,344,139506,1,0
256,336,139642,1,0
296,352,139778,2,0,B|384:352|448:288,1,152
488,176,140187,2,0,B|464:104|376:80,2,152
192,280,141006,5,0
224,248,141142,1,0
256,216,141278,2,0,B|304:144|288:48,1,152
256,32,141687,1,0
208,16,141824,2,0,B|128:56|120:160,1,152
56,280,142369,1,0
96,296,142506,1,0
136,312,142642,2,0,B|224:304|296:352,1,152
320,360,143051,2,0,B|376:304|376:208,1,152
368,176,143460,2,0,B|424:112|544:136,1,152
320,72,144006,1,0
320,72,144142,1,0
320,72,144278,1,0
320,72,144415,1,0
320,72,144551,6,0,B|192:40|112:144,1,228,4|0
96,184,145097,2,0,B|184:224|192:312,1,152
360,328,145642,1,0
384,296,145778,1,0
408,264,145915,2,0,B|448:192|416:96,1,152
408,80,146324,1,0
232,48,146597,1,0
200,80,146733,2,0,B|152:160|224:256,2,152
88,280,147551,6,0,B|160:328|256:296,1,152
272,296,147960,1,0
392,192,148233,1,0
432,176,148369,1,0
312,48,148642,1,0
144,80,148915,1,0
96,208,149187,1,0
128,240,149324,1,0
168,224,149460,1,0
200,256,149597,1,0
240,248,149733,1,0
272,280,149869,2,0,B|368:312|440:240,1,152
384,232,150278,2,0,B|464:192|488:112,1,152
80,208,150824,1,0
72,248,150960,1,0
64,288,151097,6,0,B|272:224,1,152,4|0
248,232,151506,1,0
408,272,151778,1,0
416,224,151915,1,0
408,56,152187,2,0,B|256:144,1,152
80,56,152732,1,0
56,96,152869,2,0,B|216:176,1,152
80,304,153414,1,0
96,344,153550,2,0,B|248:264,1,152
200,136,154097,1,0
320,56,154369,5,4
344,96,154506,2,0,B|264:248,1,152
424,328,155051,1,0
456,296,155187,2,0,B|424:112,1,152
288,48,155733,1,0
136,104,156006,1,0
112,144,156142,1,0
192,256,156415,1,0
336,240,156688,1,0
360,280,156824,1,0
480,216,157097,1,0
400,96,157370,1,0
104,240,157642,6,0,B|248:264|344:152,1,256.499987769127,4|0
368,136,158187,2,0,L|440:312,1,170.999991846085
216,336,158733,1,0
168,312,158869,1,0
128,280,159006,1,0
96,240,159142,1,0
72,192,159278,2,0,B|144:120|264:152,1,170.999991846085
216,96,159687,2,0,B|384:80|456:208,1,256.499987769127
488,344,160369,1,0
304,360,160642,1,0
112,256,160915,6,0,B|400:256,1,256.499987769127,4|0
408,232,161460,2,0,B|360:152|256:152,1,170.999991846085
104,80,162006,2,0,B|176:24|296:48,1,170.999991846085
448,96,162551,2,0,B|392:264,1,170.999991846085
376,304,162960,1,0
216,192,163233,1,0
240,232,163369,2,0,B|216:320|104:352,2,170.999991846085
64,128,164187,6,0,B|208:176|320:80,1,256.499987769127,4|0
344,64,164733,2,0,B|384:248,1,170.999991846085
264,336,165278,2,0,B|160:280,1,85.4999959230425
152,256,165551,2,0,B|56:312,1,85.4999959230425
24,280,165824,2,0,B|104:184|88:72,1,170.999991846085
120,88,166233,1,0
168,112,166369,2,0,B|344:112,2,170.999991846085
280,264,167187,5,0
312,312,167324,1,0
360,336,167460,2,0,B|432:272|400:152,1,170.999991846085
376,136,167869,1,0
336,104,168006,2,0,B|144:104,1,170.999991846085
40,336,168687,1,0
72,296,168824,2,0,B|264:296,1,170.999991846085
448,144,169506,1,0
416,104,169642,1,0
160,64,169915,1,0
160,64,170051,1,0
160,64,170187,1,0
160,64,170324,1,0
160,64,170460,1,0
160,64,170597,1,0
160,64,170733,6,0,B|80:160|144:272,1,190,4|0
192,288,171142,2,0,B|304:224|272:80,1,190
272,56,171551,1,0
432,104,171824,1,0
440,272,172097,1,0
256,240,172369,2,0,B|192:152|72:192,1,190
24,232,172778,2,0,B|64:336|192:336,1,190
248,336,173187,1,0
336,200,173460,1,0
272,64,173733,1,0
440,80,174006,6,0,B|392:200|440:280,1,190
320,320,174415,2,0,B|376:240|320:112,1,190
272,64,174824,2,0,B|200:192,1,95
144,128,175097,2,0,B|176:256,1,95
192,304,175369,1,0
352,232,175642,1,0
352,232,175778,1,0
424,88,176051,1,0
424,88,176187,1,0
248,48,176460,2,0,B|328:128|288:224,1,190
248,296,176869,1,0
176,336,177006,1,0
80,88,177278,6,0,B|216:176|400:104,1,285,4|0
440,112,177824,2,0,B|400:216|280:232,1,190
72,248,178369,1,0
112,312,178506,2,0,B|208:256|208:112,1,190
232,72,178915,2,0,B|200:216|328:344,1,285
392,360,179460,1,0
472,328,179597,1,0
512,256,179733,1,0
432,80,180006,1,0
336,224,180278,1,0
232,40,180551,6,0,B|256:144|176:216,1,190
144,288,180960,2,0,B|192:192|336:184,1,190
376,168,181369,1,0
464,320,181642,1,0
392,352,181778,2,0,B|200:368,1,190
128,360,182187,1,0
72,304,182324,1,0
136,256,182460,1,0
80,192,182597,1,0
144,136,182733,2,0,B|368:112,1,190
56,40,183278,6,0,B|280:80,1,190
464,144,183824,1,4
472,224,183960,1,0
432,296,184097,1,0
360,336,184233,1,0
280,360,184369,2,0,B|168:376|88:296,1,190
48,176,184915,1,0
160,64,185187,1,0
216,136,185324,1,0
288,184,185460,2,0,B|400:216|480:136,1,190
408,80,185869,2,0,B|328:160|368:280,1,190
384,328,186278,2,0,B|296:408|168:360,2,190
240,200,187097,5,4
168,80,187369,2,0,B|64:152|80:288,1,190
88,320,187778,2,0,B|192:272,1,95
248,248,188051,2,0,B|296:344|416:360,1,190
464,312,188460,2,0,B|376:264|360:136,1,190
352,80,188869,1,0
168,120,189142,1,0
104,160,189278,2,0,B|130:348,2,190
256,248,190097,6,0,B|296:152,1,95
272,80,190369,2,0,B|216:176|104:192,1,190,4|0
56,232,190778,1,0
128,272,190915,2,0,B|240:256|336:344,1,190
376,80,191460,2,0,B|312:176|360:280,1,190
392,328,191869,1,0
392,328,192006,2,0,B|480:296|528:168|480:72,1,285
416,32,192551,1,0
328,16,192687,1,0
240,24,192824,2,0,B|136:32|48:128,2,190
168,168,193642,5,0
288,160,193915,1,0
376,224,194187,1,0
488,160,194460,5,0
336,48,194733,1,0
152,40,195006,1,0
256,192,195278,12,4,197733
