osu file format v13

[General]
AudioFilename: RicoilPassato.mp3
AudioLeadIn: 1985
PreviewTime: 76321
Countdown: 0
SampleSet: Soft
StackLeniency: 0.7
Mode: 0
LetterboxInBreaks: 1
EpilepsyWarning: 1
WidescreenStoryboard: 1

[Editor]
Bookmarks: 1800,30000,55100,77000,107800,118536,132574,133151,137190,137767,138500,150843,163200,164689,184700,212382,238500,269496,270073,277958,278535,299800
DistanceSpacing: 1.1
BeatDivisor: 16
GridSize: 4
TimelineZoom: 1

[Metadata]
Title:Ricordando Il Passato
TitleUnicode:白梦の繭
Artist:Akiko Shikata
ArtistUnicode:志方あきこ
Creator:Alarido
Version:Normal
Source:うみねこのなく頃に
Tags:Umineko no Naku Koro Ni Beatrice the Golden Witch Battler Ushiromiya everlasting love conturbated romance Beatoriche 07th Expansion graveyard italian jaqueline neri
BeatmapID:376539
BeatmapSetID:148579

[Difficulty]
HPDrainRate:4
CircleSize:3
OverallDifficulty:4
ApproachRate:4
SliderMultiplier:1.5
SliderTickRate:2

[Events]
//Background and Video events
0,0,"fondo.jpg",0,0
//Break Periods
2,132582,137216
2,269504,277844
//Storyboard Layer 0 (Background)
//Storyboard Layer 1 (Fail)
//Storyboard Layer 2 (Pass)
//Storyboard Layer 3 (Foreground)
//Storyboard Sound Samples
//Background Colour Transformations
3,100,150,200,255

[TimingPoints]
-1293,784.313725490196,4,2,1,60,1,0
30078,779.220779220779,4,2,1,60,1,0
39526,821.916206896551,4,2,1,60,1,0
41863,361.999686266939,4,2,1,60,1,0
41863,-200,4,2,1,60,0,0
42587,784.313725490196,4,2,1,40,1,0
55171,779.220779220779,4,2,1,60,1,0
55171,-100,4,2,1,60,0,0
76998,769.230769230769,4,2,0,85,1,0
76998,-100,4,2,0,85,0,1
101613,-100,4,2,0,65,0,0
107767,-100,4,2,2,70,0,0
120074,-100,4,2,2,50,0,0
128536,-100,4,2,2,30,0,0
138536,-100,4,2,2,40,0,0
163151,-100,4,2,2,50,0,0
184689,-100,4,2,0,85,0,1
209305,-100,4,2,0,85,0,0
213920,769.230769230769,4,2,1,40,1,0
236996,-100,4,2,0,85,0,0
238535,-100,4,2,0,85,0,1
263150,-100,4,2,0,85,0,0
279164,833.332857142856,4,2,1,39,1,0
279997,-96.1538461538461,4,2,1,39,0,0
281195,789.473684210526,4,2,1,39,1,8
282325,771.704180064309,4,2,1,39,1,0
284260,789.473684210526,4,2,1,39,1,8
286183,771.704180064309,4,2,1,39,1,0
289295,754.716981132075,4,2,1,39,1,0
290804,779.220779220779,4,2,1,39,1,8
292290,-100,4,2,1,25,0,0
292361,754.716981132075,4,2,1,25,1,0
295665,-100,4,2,2,50,0,0

[Colours]
Combo1 : 220,197,165
Combo2 : 0,89,0
Combo3 : 96,183,98
Combo4 : 192,67,31
Combo5 : 233,216,92
Combo6 : 123,77,70
Combo7 : 83,92,138
Combo8 : 138,154,172

[HitObjects]
256,112,1060,21,0,0:0:0:0:
156,244,1844,102,0,B|156:264|176:312|255:347|255:347|336:312|356:264|356:244,1,300,8|0,0:0|0:0,0:0:0:0:
244,124,4197,2,0,P|224:136|168:136,1,75,0|0,0:0|0:0,0:0:0:0:
136,64,4981,2,0,P|96:112|112:192,1,150,8|0,0:0|0:0,0:0:0:0:
244,292,6550,2,0,P|272:308|316:308,1,75,0|0,0:0|0:0,0:0:0:0:
388,272,7334,2,0,P|404:240|400:192,1,75
376,124,8118,6,0,B|352:76|256:40|256:40|160:76|136:124,1,300,8|0,0:0|0:0,0:0:0:0:
252,244,10471,2,0,P|288:240|320:216,1,75,0|0,0:0|0:0,0:0:0:0:
260,160,11256,2,0,P|224:164|188:188,1,75,8|0,0:0|0:0,0:0:0:0:
128,240,12040,1,0,0:0:0:0:
256,344,12824,1,0,0:0:0:0:
384,240,13609,1,0,0:0:0:0:
322,87,14393,102,0,P|256:55|190:87,1,150,8|0,0:0|0:0,0:0:0:0:
148,156,15569,1,0,0:0:0:0:
190,227,15961,2,0,P|255:258|321:227,1,150,0|0,0:0|0:0,0:0:0:0:
464,144,17530,1,8,0:0:0:0:
340,36,18314,1,0,0:0:0:0:
172,36,19099,1,0,0:0:0:0:
48,144,19883,1,0,0:0:0:0:
140,280,20667,6,0,P|204:312|280:300,1,150,8|0,0:0|0:0,0:0:0:0:
372,164,22236,2,0,P|308:132|232:144,1,150,8|0,0:0|0:0,0:0:0:0:
104,248,23805,2,0,P|64:264|32:260,2,75,8|0|0,0:0|0:0|0:0,0:0:0:0:
172,100,25373,1,0,0:0:0:0:
340,100,26157,1,0,0:0:0:0:
256,192,26942,12,0,29295,0:0:0:0:
64,276,30078,6,0,P|112:328|188:328,1,150,4|0,0:0|0:0,0:0:0:0:
256,280,31246,1,0,0:0:0:0:
324,328,31636,2,0,P|396:328|447:275,1,150,0|0,0:0|0:0,0:0:0:0:
448,108,33194,6,0,B|428:60|408:44|408:44|376:40|332:52,1,150,4|0,0:0|0:0,0:0:0:0:
256,76,34362,1,0,0:0:0:0:
177,51,34753,2,0,B|136:40|104:44|104:44|84:60|64:108,1,150,0|0,0:0|0:0,0:0:0:0:
76,272,36311,102,0,P|140:296|208:260,1,150,8|0,0:0|0:0,0:0:0:0:
256,192,37480,1,0,0:0:0:0:
303,124,37870,2,0,P|364:88|439:101,1,150,8|0,0:0|0:0,0:0:0:0:
380,267,39526,6,0,P|256:339|132:267,1,300,0|0,0:0|0:0,0:0:0:0:
256,168,41863,2,0,P|296:160|328:124,1,75,8|8,0:0|0:0,0:0:0:0:
256,88,42587,102,0,P|232:68|188:60,1,75,4|0,0:0|0:0,0:0:0:0:
112,88,43371,2,0,P|92:120|96:160,1,75,0|0,0:0|0:0,0:0:0:0:
148,220,44155,2,0,P|208:256|288:252,1,150,0|0,0:0|0:0,0:0:0:0:
256,88,45724,6,0,P|280:68|324:60,1,75,4|0,0:0|0:0,0:0:0:0:
400,88,46508,2,0,P|420:120|416:160,1,75,0|0,0:0|0:0,0:0:0:0:
364,220,47292,2,0,P|304:256|224:252,1,150,0|0,0:0|0:0,0:0:0:0:
92,160,48861,102,0,P|112:92|184:72,1,150,4|0,0:0|0:0,0:0:0:0:
256,108,50037,1,0,0:0:0:0:
329,71,50430,2,0,P|399:91|420:160,1,150,0|0,0:0|0:0,0:0:0:0:
360,312,51998,6,0,P|380:320|408:320,2,37.5,4|0|0,0:0|0:0|0:0,0:0:0:0:
292,264,52783,2,0,P|256:256|220:264,1,75,0|0,0:0|0:0,0:0:0:0:
152,312,53567,2,0,P|132:320|104:320,2,37.5,0|0|0,0:0|0:0|0:0,0:0:0:0:
219,264,54351,1,0,0:0:0:0:
256,88,55171,22,0,P|285:66|328:64,1,75,4|0,0:0|0:0,0:0:0:0:
316,144,55950,2,0,P|244:168|180:120,1,150,8|0,0:0|0:0,0:0:0:0:
136,64,57118,1,0,0:0:0:0:
76,120,57508,1,8,0:0:0:0:
52,200,57897,1,0,0:0:0:0:
60,284,58287,6,0,P|116:328|192:320,1,150,0|8,0:0|0:0,0:0:0:0:
256,268,59456,1,0,0:0:0:0:
321,320,59846,2,0,P|393:328|452:284,1,150,0|8,0:0|0:0,0:0:0:0:
396,132,61404,102,0,P|376:104|328:84,1,75,0|0,0:0|0:0,0:0:0:0:
320,168,62183,2,0,B|292:228|220:156|192:216,1,150,8|0,0:0|0:0,0:0:0:0:
171,298,63352,2,0,P|138:281|116:252,1,75,0|8,0:0|0:0,0:0:0:0:
80,176,64132,1,0,0:0:0:0:
68,92,64521,6,0,P|124:48|200:56,1,150,0|8,0:0|0:0,0:0:0:0:
256,116,65690,1,0,0:0:0:0:
313,55,66080,2,0,P|385:47|444:92,1,150,0|8,0:0|0:0,0:0:0:0:
414,254,67638,101,0,0:0:0:0:
256,300,68417,2,0,L|256:380,2,75,2|0|0,0:0|0:0|0:0,0:0:0:0:
98,254,69976,1,2,0:0:0:0:
112,88,70755,6,0,P|144:68|184:68,1,75,0|0,0:0|0:0,0:0:0:0:
256,101,71534,2,0,L|256:185,2,75,2|0|0,0:0|0:0|0:0,0:0:0:0:
331,67,72703,2,0,P|368:68|400:88,1,75,0|2,0:0|0:0,0:0:0:0:
324,232,73872,102,0,P|256:260|188:232,2,150,0|2|0,0:0|0:0|0:0,0:0:0:0:
236,84,76209,1,2,0:0:0:0:
236,84,76998,70,0,P|260:60|300:52,1,75,6|0,0:0|0:0,0:0:0:0:
380,64,77767,1,8,0:0:0:0:
448,112,78151,1,0,0:0:0:0:
472,192,78536,2,0,P|444:252|368:264,1,150,0|8,0:0|0:0,0:0:0:0:
297,218,79690,1,0,0:0:0:0:
276,300,80074,6,0,P|252:324|212:332,1,75,6|0,0:0|0:0,0:0:0:0:
132,320,80844,1,8,0:0:0:0:
64,272,81228,1,0,0:0:0:0:
40,192,81612,2,0,P|68:132|144:120,1,150,0|8,0:0|0:0,0:0:0:0:
216,164,82767,1,0,0:0:0:0:
280,218,83151,102,0,P|352:232|408:188,1,150,4|8,0:0|0:0,0:0:0:0:
436,108,84305,1,0,0:0:0:0:
372,56,84690,2,0,P|300:42|244:86,1,150,4|8,0:0|0:0,0:0:0:0:
216,164,85844,1,0,0:0:0:0:
272,224,86228,6,0,P|303:238|344:236,1,75,4|0,0:0|0:0,0:0:0:0:
420,204,86998,2,0,P|457:201|491:216,2,75,8|0|0,0:0|0:0|0:0,0:0:0:0:
343,236,88151,1,0,0:0:0:0:
260,224,88536,1,8,0:0:0:0:
204,164,88921,1,0,0:0:0:0:
132,124,89305,102,0,P|64:136|28:204,1,150,6|8,0:0|0:0,0:0:0:0:
60,280,90459,1,0,0:0:0:0:
140,304,90844,2,0,P|180:296|208:272,1,75,0|0,0:0|0:0,0:0:0:0:
256,208,91613,2,0,P|276:172|304:148,1,75,8|0,0:0|0:0,0:0:0:0:
380,124,92382,6,0,P|448:136|484:204,1,150,6|8,0:0|0:0,0:0:0:0:
452,280,93536,1,0,0:0:0:0:
372,304,93921,2,0,P|332:296|304:272,1,75,0|0,0:0|0:0,0:0:0:0:
256,208,94690,2,0,P|248:184|256:132,1,75,8|0,0:0|0:0,0:0:0:0:
320,84,95459,102,0,P|256:52|188:84,1,150,0|8,0:0|0:0,0:0:0:0:
100,224,96998,1,0,0:0:0:0:
256,284,97767,1,8,0:0:0:0:
412,224,98536,5,0,0:0:0:0:
388,144,98921,1,0,0:0:0:0:
332,84,99305,2,0,P|300:64|260:64,1,75,8|0,0:0|0:0,0:0:0:0:
180,60,100074,2,0,P|204:124|284:144,1,150,0|8,0:0|0:0,0:0:0:0:
256,192,101613,12,0,103921,0:0:0:0:
256,192,104690,12,4,107767,0:0:0:0:
256,141,108536,102,0,P|287:138|320:108,1,75,0|0,0:0|0:0,0:0:0:0:
256,56,109305,2,0,P|224:58|188:88,1,75,2|0,0:0|0:0,0:0:0:0:
140,148,110074,1,2,0:0:0:0:
190,305,110844,6,0,P|256:338|322:305,1,150,0|2,0:0|0:0,0:0:0:0:
256,254,111998,1,0,0:0:0:0:
256,172,112382,2,0,B|240:152|272:120|256:96,2,75,2|0|2,0:0|0:0|0:0,0:0:0:0:
360,292,113921,6,0,P|432:280|456:212,1,150,0|2,0:0|0:0,0:0:0:0:
340,96,115459,1,0,0:0:0:0:
172,96,116228,1,2,0:0:0:0:
55,214,116998,102,0,P|81:281|152:292,1,150,0|2,0:0|0:0,0:0:0:0:
268,176,118536,2,0,P|242:109|172:96,1,150,0|2,0:0|0:0,0:0:0:0:
36,192,120074,101,0,0:0:0:0:
168,288,120844,2,0,P|188:296|240:292,1,75,2|0,0:0|0:0,0:0:0:0:
208,216,121613,2,0,P|216:180|244:152,1,75,2|0,0:0|0:0,0:0:0:0:
320,124,122382,1,2,0:0:0:0:
476,192,123151,5,0,0:0:0:0:
344,288,123921,2,0,P|324:296|272:292,1,75,2|0,0:0|0:0,0:0:0:0:
304,216,124690,2,0,P|296:180|268:152,1,75,2|0,0:0|0:0,0:0:0:0:
192,124,125459,1,2,0:0:0:0:
36,192,126228,5,0,0:0:0:0:
192,259,126997,2,0,P|298:191|192:124,1,300,0|0,0:0|0:0,0:0:0:0:
256,192,129305,12,0,132382,0:0:0:0:
396,272,138536,70,0,P|440:272|472:256,2,75,0|0|8,0:0|0:0|0:0,0:0:0:0:
320,236,139689,1,0,0:0:0:0:
338,153,140074,2,0,P|344:124|328:76,1,75,0|0,0:0|0:0,0:0:0:0:
260,124,140843,2,0,P|230:139|190:139,1,75,0|0,0:0|0:0,0:0:0:0:
112,108,141612,38,0,P|68:108|36:124,2,75,0|0|8,0:0|0:0|0:0,0:0:0:0:
189,139,142766,1,0,0:0:0:0:
172,220,143151,2,0,P|168:268|180:296,1,75,0|0,0:0|0:0,0:0:0:0:
248,250,143920,2,0,P|281:234|319:236,1,75,0|0,0:0|0:0,0:0:0:0:
396,256,144689,70,0,P|464:228|488:160,1,150,0|8,0:0|0:0,0:0:0:0:
456,84,145843,1,0,0:0:0:0:
384,44,146228,2,0,P|310:52|264:112,1,150,0|8,0:0|0:0,0:0:0:0:
248,275,147766,38,0,P|200:332|128:336,1,150,0|8,0:0|0:0,0:0:0:0:
52,304,148920,1,0,0:0:0:0:
20,228,149305,2,0,P|44:160|112:124,1,150,0|8,0:0|0:0,0:0:0:0:
192,128,150459,1,0,0:0:0:0:
244,64,150843,70,0,P|216:48|172:48,2,75,0|0|8,0:0|0:0|0:0,0:0:0:0:
309,116,151997,1,0,0:0:0:0:
392,116,152382,2,0,P|428:132|452:168,1,75,0|0,0:0|0:0,0:0:0:0:
376,196,153151,1,0,0:0:0:0:
320,256,153536,1,0,0:0:0:0:
268,320,153920,38,0,P|300:336|348:332,2,75,0|0|8,0:0|0:0|0:0,0:0:0:0:
203,268,155074,1,0,0:0:0:0:
120,268,155459,2,0,P|84:252|60:216,1,75,0|0,0:0|0:0,0:0:0:0:
136,188,156228,1,0,0:0:0:0:
192,128,156613,1,0,0:0:0:0:
264,88,156997,70,0,P|340:84|400:128,1,150,0|8,0:0|0:0,0:0:0:0:
424,204,158151,1,0,0:0:0:0:
410,285,158536,2,0,P|446:285|490:253,2,75,0|0|0,0:0|0:0|0:0,0:0:0:0:
328,272,159689,1,0,0:0:0:0:
248,296,160074,38,0,P|172:300|112:256,1,150,0|8,0:0|0:0,0:0:0:0:
64,192,161228,1,0,0:0:0:0:
112,124,161612,2,0,P|172:84|248:84,1,150,0|0,0:0|0:0,0:0:0:0:
324,112,162766,1,0,0:0:0:0:
376,176,163151,38,0,P|380:260|340:308,1,150,0|8,0:0|0:0,0:0:0:0:
171,307,164689,2,0,P|128:248|136:176,1,150,0|8,0:0|0:0,0:0:0:0:
188,112,165843,1,0,0:0:0:0:
256,160,166228,70,0,P|297:175|328:172,1,75,0|0,0:0|0:0,0:0:0:0:
404,140,166997,2,0,P|456:136|484:148,1,75,8|0,0:0|0:0,0:0:0:0:
436,216,167766,2,0,P|409:283|340:304,1,150,0|8,0:0|0:0,0:0:0:0:
172,303,169305,38,0,P|103:283|76:216,1,150,0|8,0:0|0:0,0:0:0:0:
88,134,170459,1,0,0:0:0:0:
139,69,170843,2,0,P|196:32|284:32,1,150,0|8,0:0|0:0,0:0:0:0:
408,128,172382,69,0,0:0:0:0:
340,280,173151,1,8,0:0:0:0:
172,280,173920,1,0,0:0:0:0:
104,128,174689,1,8,0:0:0:0:
148,60,175074,1,0,0:0:0:0:
220,100,175459,38,0,P|256:109|292:100,1,75,0|0,0:0|0:0,0:0:0:0:
364,60,176228,1,8,0:0:0:0:
408,128,176612,1,0,0:0:0:0:
368,200,176997,2,0,P|332:220|296:220,1,75,0|0,0:0|0:0,0:0:0:0:
213,220,177766,2,0,P|180:220|144:200,1,75,8|0,0:0|0:0,0:0:0:0:
200,140,178536,70,0,P|256:98|312:140,1,150,0|8,0:0|0:0,0:0:0:0:
312,304,180074,2,0,P|256:346|200:304,1,150,0|8,0:0|0:0,0:0:0:0:
132,152,181612,38,0,P|168:140|204:144,1,75,0|0,0:0|0:0,0:0:0:0:
280,180,182382,2,0,P|312:184|352:168,1,75,8|0,0:0|0:0,0:0:0:0:
408,108,183151,1,4,0:0:0:0:
256,44,183920,1,12,0:0:0:0:
176,68,184305,1,4,0:0:0:0:
116,124,184689,38,0,P|106:154|116:196,1,75,4|0,0:0|0:0,0:0:0:0:
180,248,185459,1,2,0:0:0:0:
228,316,185843,2,0,P|214:326|184:328,2,37.5,0|0|0,0:0|0:0|0:0,0:0:0:0:
292,264,186612,2,0,P|287:244|291:223,2,37.5,0|0|2,0:0|0:0|0:0,0:0:0:0:
346,325,187382,1,0,0:0:0:0:
396,260,187766,70,0,P|406:230|396:188,1,75,4|0,0:0|0:0,0:0:0:0:
332,136,188536,1,2,0:0:0:0:
284,68,188920,2,0,P|297:57|325:56,2,37.5,0|0|0,0:0|0:0|0:0,0:0:0:0:
220,120,189689,2,0,P|224:139|220:160,2,37.5,0|0|2,0:0|0:0|0:0,0:0:0:0:
169,54,190459,1,0,0:0:0:0:
92,88,190843,70,0,P|68:120|60:156,1,75,4|0,0:0|0:0,0:0:0:0:
80,236,191612,1,2,0:0:0:0:
144,292,191997,2,0,L|120:332,2,37.5,0|0|0,0:0|0:0|0:0,0:0:0:0:
199,228,192766,1,0,0:0:0:0:
281,209,193151,1,2,0:0:0:0:
362,229,193536,1,0,0:0:0:0:
412,294,193921,38,0,P|436:266|444:226,1,75,4|0,0:0|0:0,0:0:0:0:
432,148,194689,1,2,0:0:0:0:
368,92,195074,2,0,L|388:52,2,37.5,0|0|0,0:0|0:0|0:0,0:0:0:0:
313,156,195843,1,0,0:0:0:0:
231,175,196228,1,6,0:0:0:0:
148,164,196613,1,0,0:0:0:0:
68,140,196997,70,0,P|89:102|120:84,2,75,4|0|2,0:0|0:0|0:0,0:0:0:0:
84,220,198151,2,0,P|100:236|132:248,1,37.5,0|0,0:0|0:0,0:0:0:0:
151,259,198536,2,0,P|187:267|223:259,1,75,0|0,0:0|0:0,0:0:0:0:
296,220,199305,2,0,P|328:212|368:220,1,75,2|0,0:0|0:0,0:0:0:0:
448,244,200074,38,0,P|426:281|388:300,2,75,4|0|2,0:0|0:0|0:0,0:0:0:0:
468,164,201228,2,0,L|460:128,1,37.5,0|0,0:0|0:0,0:0:0:0:
440,91,201613,2,0,P|420:71|373:58,1,75,0|0,0:0|0:0,0:0:0:0:
293,59,202382,1,6,0:0:0:0:
214,82,202766,1,0,0:0:0:0:
152,136,203151,70,0,P|128:204|136:244,1,112.5,4|0,0:0|0:0,0:0:0:0:
157,277,203920,1,2,0:0:0:0:
227,319,204305,1,0,0:0:0:0:
306,295,204690,2,0,P|348:244|356:196,1,112.5,4|0,0:0|0:0,0:0:0:0:
346,159,205458,1,2,0:0:0:0:
294,94,205843,1,0,0:0:0:0:
216,68,206228,38,0,P|140:76|84:120,1,150,4|2,0:0|0:0,0:0:0:0:
44,192,207382,1,0,0:0:0:0:
83,263,207766,2,0,P|142:308|216:316,1,150,0|2,0:0|0:0,0:0:0:0:
294,290,208920,1,0,0:0:0:0:
368,252,209305,2,0,P|406:192|368:132,1,150,0|0,0:0|0:0,0:0:0:0:
294,94,210459,1,0,0:0:0:0:
256,192,210843,12,0,212382,0:0:0:0:
444,116,213920,102,0,P|408:100|372:104,1,75,0|0,0:0|0:0,0:0:0:0:
296,132,214689,2,0,P|253:135|220:123,1,75,8|0,0:0|0:0,0:0:0:0:
156,76,215458,2,0,P|80:80|28:136,1,150,0|0,0:0|0:0,0:0:0:0:
14,212,216612,1,0,0:0:0:0:
72,272,216996,102,0,P|108:288|144:284,1,75,0|0,0:0|0:0,0:0:0:0:
220,256,217765,2,0,P|263:253|296:265,1,75,8|0,0:0|0:0,0:0:0:0:
360,312,218534,2,0,P|436:320|492:268,1,150,0|0,0:0|0:0,0:0:0:0:
488,109,220073,6,0,P|432:62|360:72,1,150,0|0,0:0|0:0,0:0:0:0:
292,120,221227,1,0,0:0:0:0:
216,84,221612,2,0,P|184:76|144:84,1,75,0|0,0:0|0:0,0:0:0:0:
72,128,222381,2,0,L|32:196,1,75,0|0,0:0|0:0,0:0:0:0:
32,276,223150,102,0,P|84:319|164:304,2,150,0|8|0,0:0|0:0|0:0,0:0:0:0:
108,128,225458,1,0,0:0:0:0:
177,84,225843,1,0,0:0:0:0:
256,64,226227,6,0,P|332:64|388:108,1,150,0|8,0:0|0:0,0:0:0:0:
424,184,227381,1,0,0:0:0:0:
384,256,227766,2,0,P|356:272|312:268,1,75,0|0,0:0|0:0,0:0:0:0:
244,228,228535,1,0,0:0:0:0:
256,64,229304,102,0,P|180:64|124:108,1,150,0|8,0:0|0:0,0:0:0:0:
88,184,230458,1,0,0:0:0:0:
128,256,230843,2,0,P|156:272|200:268,1,75,0|0,0:0|0:0,0:0:0:0:
268,228,231612,1,0,0:0:0:0:
340,80,232381,6,0,P|304:64|268:64,1,75,0|0,0:0|0:0,0:0:0:0:
188,84,233150,1,8,0:0:0:0:
268,228,233920,2,0,P|304:244|340:244,1,75,0|0,0:0|0:0,0:0:0:0:
420,224,234689,1,0,0:0:0:0:
364,68,235458,102,0,P|340:48|296:40,1,75,0|0,0:0|0:0,0:0:0:0:
214,39,236227,2,0,P|177:45|148:68,1,75,0|0,0:0|0:0,0:0:0:0:
144,152,236996,21,0,0:0:0:0:
214,197,237381,1,0,0:0:0:0:
298,197,237766,1,0,0:0:0:0:
368,152,238151,1,0,0:0:0:0:
344,72,238535,54,0,P|320:56|272:48,1,75,6|0,0:0|0:0,0:0:0:0:
192,48,239304,1,0,0:0:0:0:
116,84,239689,2,0,P|107:62|112:32,2,37.5,0|0|0,0:0|0:0|0:0,0:0:0:0:
172,144,240458,2,0,P|188:160|220:172,1,37.5,0|0,0:0|0:0,0:0:0:0:
240,184,240843,2,0,P|244:216|228:256,1,75,4|0,0:0|0:0,0:0:0:0:
168,312,241612,102,0,P|188:328|240:336,1,75,6|0,0:0|0:0,0:0:0:0:
320,336,242381,1,0,0:0:0:0:
396,300,242766,2,0,P|405:322|400:352,2,37.5,0|0|0,0:0|0:0|0:0,0:0:0:0:
356,224,243535,2,0,P|348:200|352:176,1,37.5,0|0,0:0|0:0,0:0:0:0:
356,149,243920,2,0,P|360:116|340:76,1,75,4|0,0:0|0:0,0:0:0:0:
264,52,244689,38,0,P|224:56|196:76,1,75,4|0,0:0|0:0,0:0:0:0:
148,144,245458,1,0,0:0:0:0:
140,228,245843,1,0,0:0:0:0:
188,296,246227,2,0,P|256:324|324:296,1,150,0|0,0:0|0:0,0:0:0:0:
372,138,247766,101,4,0:0:0:0:
298,97,248150,1,0,0:0:0:0:
214,97,248535,1,0,0:0:0:0:
140,138,248920,1,0,0:0:0:0:
149,221,249304,2,0,P|188:248|221:249,1,75,0|0,0:0|0:0,0:0:0:0:
297,250,250073,2,0,P|334:244|363:221,1,75,4|0,0:0|0:0,0:0:0:0:
372,138,250843,102,0,P|336:133|304:112,1,75,4|0,0:0|0:0,0:0:0:0:
272,36,251612,1,0,0:0:0:0:
190,50,251996,2,0,L|146:58,1,37.5,0|0,0:0|0:0,0:0:0:0:
112,65,252381,2,0,P|60:112|40:188,1,150,2|4,0:0|0:0,0:0:0:0:
60,268,253535,1,0,0:0:0:0:
140,246,253920,102,0,P|176:251|208:272,1,75,4|0,0:0|0:0,0:0:0:0:
240,348,254689,1,0,0:0:0:0:
322,334,255073,2,0,L|366:326,1,37.5,0|0,0:0|0:0,0:0:0:0:
400,319,255458,2,0,P|452:272|472:196,1,150,2|4,0:0|0:0,0:0:0:0:
452,116,256612,1,0,0:0:0:0:
376,148,256996,38,0,P|304:156|232:128,1,150,4|0,0:0|0:0,0:0:0:0:
200,53,258150,2,0,P|172:72|152:116,1,75,0|0,0:0|0:0,0:0:0:0:
128,188,258920,1,0,0:0:0:0:
148,268,259304,2,0,P|172:288|216:292,1,75,4|0,0:0|0:0,0:0:0:0:
297,292,260073,102,0,P|334:290|364:268,1,75,4|0,0:0|0:0,0:0:0:0:
384,188,260843,1,0,0:0:0:0:
364,108,261227,1,0,0:0:0:0:
288,80,261612,2,0,P|233:126|256:192,1,150,0|4,0:0|0:0,0:0:0:0:
256,192,263150,12,0,265458,0:0:0:0:
256,192,266227,12,4,269304,0:1:0:0:
292,144,279164,118,0,P|328:167|345:207,1,75,0|0,0:0|0:0,0:0:0:0:
284,252,279997,2,0,P|368:272|418:163,1,224.249998631287,8|0,0:0|0:0,0:0:0:0:
372,96,281589,1,8,0:0:0:0:
220,144,282325,102,0,P|184:167|167:207,1,75,0|0,0:0|0:0,0:0:0:0:
228,252,283096,2,0,P|144:272|96:160,1,225,8|0,0:0|0:0,0:0:0:0:
136,92,284654,2,0,B|176:52|176:52|220:72|268:52,1,150,0|0,0:0|0:0,0:0:0:0:
392,156,286183,1,8,0:0:0:0:
340,312,286954,1,0,0:0:0:0:
172,312,287726,1,8,0:0:0:0:
120,156,288498,1,0,0:0:0:0:
260,60,289295,70,0,P|280:88|328:100,1,75,8|0,0:0|0:0,0:0:0:0:
400,96,290049,2,0,P|440:104|468:128,1,75,0|0,0:0|0:0,0:0:0:0:
404,180,290804,2,0,P|356:236|284:232,1,150,8|0,0:0|0:0,0:0:0:0:
256,192,292362,12,8,296134,0:0:0:0:
