osu file format v13

[General]
AudioFilename: RicoilPassato.mp3
AudioLeadIn: 1985
PreviewTime: 76321
Countdown: 0
SampleSet: Soft
StackLeniency: 0.6
Mode: 0
LetterboxInBreaks: 1
EpilepsyWarning: 1
WidescreenStoryboard: 1

[Editor]
Bookmarks: 1844,30078,55185,76998,107767,118536,132382,133151,137767,138536,163151,184690,212382,238535,269304,270073,278535,279164,299790
DistanceSpacing: 1.1
BeatDivisor: 4
GridSize: 4
TimelineZoom: 1

[Metadata]
Title:Ricordando Il Passato
TitleUnicode:白梦の繭
Artist:Akiko Shikata
ArtistUnicode:志方あきこ
Creator:Alarido
Version:Intense
Source:うみねこのなく頃に
Tags:Umineko no Naku Koro Ni Beatrice the Golden Witch Battler Ushiromiya everlasting love conturbated romance Beatoriche 07th Expansion graveyard italian jaqueline neri
BeatmapID:367327
BeatmapSetID:148579

[Difficulty]
HPDrainRate:6
CircleSize:4.2
OverallDifficulty:6
ApproachRate:7
SliderMultiplier:2
SliderTickRate:2

[Events]
//Background and Video events
0,0,"fondo.jpg",0,0
//Break Periods
2,132582,137636
2,269504,278264
//Storyboard Layer 0 (Background)
//Storyboard Layer 1 (Fail)
//Storyboard Layer 2 (Pass)
//Storyboard Layer 3 (Foreground)
//Storyboard Sound Samples
//Background Colour Transformations
3,100,150,200,255

[TimingPoints]
-1293,784.313725490196,4,2,1,60,1,0
30078,779.220779220779,4,2,1,60,1,0
39526,821.916206896551,4,2,1,60,1,0
41863,361.999686266939,4,2,1,60,1,0
42587,784.313725490196,4,2,1,40,1,0
55171,779.220779220779,4,2,1,60,1,0
55171,-83.3333333333333,4,2,1,60,0,0
76998,769.230769230769,4,2,0,85,1,0
76998,-66.6666666666667,4,2,0,85,0,1
101613,-100,4,2,0,65,0,0
107767,-100,4,2,2,70,0,0
120074,-100,4,2,2,50,0,0
128536,-100,4,2,2,30,0,0
138536,-100,4,2,2,40,0,0
163151,-83.3333333333333,4,2,2,50,0,0
184689,-66.6666666666667,4,2,0,85,0,1
209305,-83.3333333333333,4,2,0,85,0,0
213920,769.230769230769,4,2,1,40,1,0
236996,-83.3333333333333,4,2,0,85,0,0
238535,-66.6666666666667,4,2,0,85,0,1
263150,-100,4,2,0,85,0,0
279164,833.332857142856,4,2,1,39,1,0
281195,789.473684210526,4,2,1,39,1,8
282325,771.704180064309,4,2,1,39,1,0
284260,789.473684210526,4,2,1,39,1,8
286183,771.704180064309,4,2,1,39,1,0
289295,754.716981132075,4,2,1,39,1,0
290804,779.220779220779,4,2,1,39,1,8
292290,-100,4,2,1,25,0,0
292361,754.716981132075,4,2,1,25,1,0
295665,-100,4,2,2,50,0,0

[Colours]
Combo1 : 220,197,165
Combo2 : 0,89,0
Combo3 : 96,183,98
Combo4 : 192,67,31
Combo5 : 233,216,92
Combo6 : 123,77,70
Combo7 : 83,92,138
Combo8 : 138,154,172

[HitObjects]
304,164,1060,22,0,P|255:151|207:163,1,100,0|0,0:0|0:0,0:0:0:0:
156,248,1844,102,0,B|152:268|180:324|256:348|256:348|332:324|360:268|356:248,1,300,8|0,0:0|0:0,0:0:0:0:
356,248,3216,1,0,0:0:0:0:
356,248,3412,1,0,0:0:0:0:
304,56,4197,2,0,P|256:44|208:56,1,100
188,152,4981,2,0,P|256:179|324:152,1,150,8|0,0:0|0:0,0:0:0:0:
324,152,5765,1,0,0:0:0:0:
144,236,6550,2,0,P|168:288|208:304,1,100,0|0,0:0|0:0,0:0:0:0:
306,303,7334,2,0,P|350:281|368:236,1,100
412,148,8118,6,0,B|364:60|256:32|256:32|148:60|100:148,1,400,8|0,0:0|0:0,0:0:0:0:
268,260,10471,2,0,P|316:244|332:200,1,100
244,124,11256,1,8,0:0:0:0:
205,146,11452,1,0,0:0:0:0:
180,184,11648,1,0,0:0:0:0:
116,260,12040,2,0,B|144:288|192:284|192:284|204:296,1,100
308,296,12824,2,0,B|320:284|320:284|368:288|396:260,1,100
332,184,13609,1,0,0:0:0:0:
256,120,14001,1,0,0:0:0:0:
180,184,14393,102,0,P|256:239|332:184,1,200,8|0,0:0|0:0,0:0:0:0:
396,108,15569,1,0,0:0:0:0:
396,108,15765,1,0,0:0:0:0:
396,108,15961,2,0,B|368:80|320:84|320:84|308:72,1,100
204,72,16745,2,0,B|192:84|192:84|144:80|116:108,1,100
184,184,17530,2,0,P|256:201|328:184,1,150,8|0,0:0|0:0,0:0:0:0:
328,184,18314,1,0,0:0:0:0:
176,60,19099,2,0,P|220:36|268:40,1,100
332,116,19883,2,0,P|288:140|240:136,1,100
176,60,20667,5,8,0:0:0:0:
156,260,21452,1,0,0:0:0:0:
356,260,22236,1,0,0:0:0:0:
336,60,23020,1,0,0:0:0:0:
256,120,23412,1,0,0:0:0:0:
176,60,23805,101,10,0:0:0:0:
256,120,24197,1,0,0:0:0:0:
256,220,24589,1,8,0:0:0:0:
336,60,25177,1,0,0:0:0:0:
336,60,25373,1,2,0:0:0:0:
256,220,26158,1,8,0:0:0:0:
176,60,26746,1,0,0:0:0:0:
176,60,26942,1,2,0:0:0:0:
256,192,27040,12,0,29295,0:0:0:0:
400,108,30078,6,0,P|362:75|312:76,1,100,4|0,0:0|0:0,0:0:0:0:
256,116,30662,1,0,0:0:0:0:
210,170,30857,2,0,P|256:187|302:170,1,100
256,116,31441,1,0,0:0:0:0:
197,75,31636,2,0,P|148:75|112:108,1,100
128,248,32415,1,0,0:0:0:0:
256,304,32805,1,0,0:0:0:0:
384,248,33194,6,0,P|354:198|356:156,1,100,4|0,0:0|0:0,0:0:0:0:
372,88,33779,1,0,0:0:0:0:
304,108,33974,2,0,P|256:120|208:108,1,100
140,88,34558,1,0,0:0:0:0:
156,157,34753,2,0,P|155:206|128:248,1,100
256,304,35532,1,0,0:0:0:0:
384,248,35922,1,0,0:0:0:0:
392,108,36311,102,0,P|358:138|306:139,1,100,4|0,0:0|0:0,0:0:0:0:
256,88,36896,1,0,0:0:0:0:
206,139,37090,2,0,P|157:139|120:108,1,100
96,248,37870,2,0,P|140:268|192:268,1,100
256,240,38453,1,0,0:0:0:0:
321,268,38649,2,0,P|370:268|416:248,1,100
302,126,39526,6,0,P|256:108|210:126,1,100
210,258,40347,2,0,P|256:276|302:258,1,100
256,124,41169,1,0,0:0:0:0:
136,220,41863,101,8,0:0:0:0:
211,268,42043,1,0,0:0:0:0:
301,268,42224,1,8,0:0:0:0:
376,220,42405,1,0,0:0:0:0:
400,132,42587,6,0,P|312:104|304:56,1,150,4|0,0:0|0:0,0:0:0:0:
373,68,43371,1,0,0:0:0:0:
256,192,43763,1,0,0:0:0:0:
112,132,44155,2,0,P|200:104|208:56,1,150
139,68,44939,1,0,0:0:0:0:
256,192,45331,1,0,0:0:0:0:
380,260,45724,101,4,0:0:0:0:
256,324,46116,1,0,0:0:0:0:
132,260,46508,1,0,0:0:0:0:
124,120,46900,1,0,0:0:0:0:
184,156,47096,1,0,0:0:0:0:
184,88,47292,1,0,0:0:0:0:
328,88,47685,1,0,0:0:0:0:
328,156,47881,1,0,0:0:0:0:
388,120,48077,1,0,0:0:0:0:
380,260,48469,1,0,0:0:0:0:
244,244,48861,6,0,P|228:296|184:296,1,100,4|0,0:0|0:0,0:0:0:0:
176,160,49645,2,0,P|224:136|268:140,1,100
336,224,50430,2,0,P|292:248|244:244,1,100
268,140,51214,2,0,P|284:88|328:88,1,100
444,156,51998,101,4,0:0:0:0:
464,224,52194,1,0,0:0:0:0:
396,208,52390,2,0,P|352:216|312:252,1,100
183,307,53175,1,0,0:0:0:0:
68,228,53567,1,0,0:0:0:0:
48,160,53763,1,0,0:0:0:0:
116,176,53959,2,0,P|160:168|200:132,1,100
329,77,54743,1,0,0:0:0:0:
419,217,55171,38,0,P|383:264|328:284,1,119.999996337891,4|0,0:0|0:0,0:0:0:0:
184,284,55950,2,0,P|128:264|92:216,1,119.999996337891,8|0,0:0|0:0,0:0:0:0:
72,76,56729,1,0,0:0:0:0:
296,56,57119,1,0,0:0:0:0:
256,116,57313,1,0,0:0:0:0:
216,56,57508,1,8,0:0:0:0:
440,76,57898,1,0,0:0:0:0:
408,216,58287,6,0,P|352:256|304:248,1,119.999996337891
172,180,59067,1,8,0:0:0:0:
72,76,59456,1,0,0:0:0:0:
104,216,59846,2,0,P|160:256|208:248,1,119.999996337891
340,180,60626,1,8,0:0:0:0:
440,76,61015,1,0,0:0:0:0:
300,40,61404,102,0,P|240:48|200:88,1,119.999996337891
240,228,62183,2,0,P|300:220|340:180,1,119.999996337891,8|0,0:0|0:0,0:0:0:0:
300,40,62963,1,0,0:0:0:0:
116,128,63352,1,0,0:0:0:0:
88,60,63547,1,0,0:0:0:0:
160,72,63742,1,8,0:0:0:0:
68,264,64132,1,0,0:0:0:0:
200,320,64521,6,0,P|256:338|312:320,1,119.999996337891
444,264,65300,1,8,0:0:0:0:
444,120,65690,1,0,0:0:0:0:
312,64,66079,2,0,P|256:46|200:64,1,119.999996337891
68,120,66859,1,8,0:0:0:0:
68,264,67249,1,0,0:0:0:0:
204,312,67638,102,0,P|260:300|296:252,1,119.999996337891
216,132,68417,2,0,P|160:144|124:192,1,119.999996337891,2|0,0:0|0:0,0:0:0:0:
296,252,69196,2,0,P|352:240|388:192,1,119.999996337891
308,72,69976,2,0,P|252:84|216:132,1,119.999996337891,2|0,0:0|0:0,0:0:0:0:
104,220,70755,6,0,P|148:264|204:276,1,119.999996337891
256,228,71339,2,0,L|256:260,1,29.9999990844727
309,276,71534,2,0,P|366:262|408:220,1,119.999996337891,2|0,0:0|0:0,0:0:0:0:
396,76,72313,1,0,0:0:0:0:
256,40,72703,1,0,0:0:0:0:
116,76,73093,1,2,0:0:0:0:
68,212,73482,101,0,0:0:0:0:
84,280,73677,1,0,0:0:0:0:
136,232,73872,2,0,P|192:244|248:220,1,119.999996337891
344,112,74651,1,2,0:0:0:0:
444,212,75041,1,0,0:0:0:0:
428,280,75236,1,0,0:0:0:0:
376,232,75431,2,0,P|320:244|264:220,1,119.999996337891,2|0,0:0|0:0,0:0:0:0:
168,112,76209,1,2,0:0:0:0:
304,68,76599,1,0,0:0:0:0:
408,196,76998,70,0,P|392:272|336:312,1,150.000005722046,4|0,0:0|0:0,0:0:0:0:
256,328,77574,1,0,0:0:0:0:
176,312,77767,2,0,P|117:268|104:196,1,150.000005722046,8|0,0:0|0:0,0:0:0:0:
140,120,78344,1,0,0:0:0:0:
192,184,78536,2,0,P|256:218|320:184,1,150.000005722046
372,120,79113,1,0,0:0:0:0:
292,96,79305,2,0,P|256:88|220:96,2,75.0000028610231,8|0|0,0:0|0:0|0:0,0:0:0:0:
372,120,79882,1,0,0:0:0:0:
320,184,80074,6,0,P|256:218|192:184,1,150.000005722046,4|0,0:0|0:0,0:0:0:0:
120,228,80651,1,0,0:0:0:0:
184,280,80844,2,0,P|256:297|328:280,1,150.000005722046,8|0,0:0|0:0,0:0:0:0:
392,228,81421,1,0,0:0:0:0:
424,152,81613,2,0,P|404:84|336:52,1,150.000005722046,0|0,0:0|0:0,0:0:0:0:
256,68,82189,1,0,0:0:0:0:
175,52,82382,2,0,P|109:82|88:152,1,150.000005722046,8|0,0:0|0:0,0:0:0:0:
184,288,83151,102,0,P|256:308|328:288,1,150.000005722046,4|0,0:0|0:0,0:0:0:0:
440,168,83921,2,0,B|392:116|320:124|320:124|308:112,1,150.000005722046,8|0,0:0|0:0,0:0:0:0:
256,48,84498,1,0,0:0:0:0:
204,112,84690,2,0,B|192:124|192:124|120:116|72:168,1,150.000005722046
192,280,85459,2,0,P|228:304|260:304,1,75.0000028610231,8|0,0:0|0:0,0:0:0:0:
320,248,85844,2,0,P|284:224|252:224,1,75.0000028610231
176,200,86228,6,0,P|92:166|112:52,1,225.000008583069,4|0,0:0|0:0,0:0:0:0:
160,120,86998,2,0,P|192:108|216:72,1,75.0000028610231,8|0,0:0|0:0,0:0:0:0:
296,75,87382,2,0,P|317:106|352:120,1,75.0000028610231
399,51,87767,2,0,P|427:151|336:200,1,225.000008583069
256,180,88536,1,8,0:0:0:0:
145,56,88920,1,0,0:0:0:0:
95,215,89305,102,0,P|104:276|184:300,1,150.000005722046,4|0,0:0|0:0,0:0:0:0:
256,268,89882,1,0,0:0:0:0:
331,301,90074,2,0,P|400:284|417:215,1,150.000005722046,8|0,0:0|0:0,0:0:0:0:
328,76,90844,2,0,P|256:56|184:76,1,150.000005722046
220,236,91613,2,0,P|256:245|292:236,1,75.0000028610231,8|0,0:0|0:0,0:0:0:0:
292,152,91998,2,0,P|255:142|220:152,1,75.0000028610231
144,188,92382,6,0,P|136:276|184:320,1,150.000005722046,4|0,0:0|0:0,0:0:0:0:
256,336,92959,1,0,0:0:0:0:
336,316,93151,2,0,P|381:259|368:188,1,150.000005722046,8|0,0:0|0:0,0:0:0:0:
256,68,93921,1,0,0:0:0:0:
196,220,94305,1,0,0:0:0:0:
256,276,94498,1,0,0:0:0:0:
316,220,94690,1,8,0:0:0:0:
172,140,95074,102,0,P|140:128|100:136,1,75.0000028610231
60,204,95459,2,0,P|116:236|196:220,1,150.000005722046
196,220,96036,1,0,0:0:0:0:
196,220,96228,1,4,0:0:0:0:
340,140,96613,2,0,P|372:128|412:136,1,75.0000028610231
452,204,96998,2,0,P|396:236|316:220,1,150.000005722046
316,220,97575,1,0,0:0:0:0:
316,220,97767,1,4,0:0:0:0:
192,112,98151,5,0,0:0:0:0:
256,60,98344,1,0,0:0:0:0:
320,112,98536,1,0,0:0:0:0:
173,271,98921,2,0,P|133:263|105:239,2,75.0000028610231,0|0|4,0:0|0:0|0:0,0:0:0:0:
341,271,99690,2,0,P|381:263|409:239,2,75.0000028610231
190,203,100459,1,0,0:0:0:0:
215,125,100651,1,0,0:0:0:0:
297,125,100844,1,8,0:0:0:0:
322,203,101036,1,0,0:0:0:0:
256,252,101228,1,2,0:0:0:0:
256,192,101613,12,0,103921,0:0:0:0:
256,192,104690,12,4,107767,0:0:0:0:
84,244,108536,101,0,0:0:0:0:
160,308,108921,1,0,0:0:0:0:
256,332,109305,1,2,0:0:0:0:
352,308,109690,1,0,0:0:0:0:
428,244,110074,1,2,0:0:0:0:
328,72,110844,6,0,P|256:52|184:72,1,150
185,71,111613,1,2,0:0:0:0:
132,156,111998,1,0,0:0:0:0:
208,220,112382,1,2,0:0:0:0:
304,220,112767,1,0,0:0:0:0:
380,156,113151,1,2,0:0:0:0:
200,64,113921,6,0,P|112:44|120:124,1,200,0|2,0:0|0:0,0:0:0:0:
312,64,115459,2,0,P|400:44|392:124,1,200,0|2,0:0|0:0,0:0:0:0:
195,140,116998,102,0,P|158:171|146:219,1,100
112,312,117767,2,0,P|160:320|208:296,1,100,0|0,0:0|0:0,0:0:0:0:
306,298,118536,2,0,P|351:319|400:312,1,100
365,219,119305,2,0,P|356:176|316:140,1,100,0|0,0:0|0:0,0:0:0:0:
268,228,120074,102,0,P|200:280|144:260,1,150
145,261,120844,1,2,0:0:0:0:
84,180,121228,1,0,0:0:0:0:
108,84,121613,1,2,0:0:0:0:
200,36,121998,1,0,0:0:0:0:
300,36,122382,1,2,0:0:0:0:
244,228,123151,6,0,P|312:280|368:260,1,150
366,261,123921,1,2,0:0:0:0:
428,180,124305,1,0,0:0:0:0:
404,84,124690,1,2,0:0:0:0:
312,36,125075,1,0,0:0:0:0:
212,36,125459,2,0,P|124:76|80:168,1,200,2|0,0:0|0:0,0:0:0:0:
228,300,126997,6,0,B|357:292|384:168|336:97|252:90|185:116|177:175|213:213|260:212|268:172,1,400
256,192,128921,1,0,0:0:0:0:
256,192,129305,12,0,132382,0:0:0:0:
428,80,138536,70,0,P|381:69|335:87,1,100
256,148,139305,1,8,0:0:0:0:
208,236,139689,1,0,0:0:0:0:
256,248,139882,1,0,0:0:0:0:
304,236,140074,1,0,0:0:0:0:
256,148,140459,1,0,0:0:0:0:
177,87,140843,2,0,P|132:69|84:80,1,100
124,172,141613,38,0,P|112:224|72:248,1,100
160,300,142382,1,8,0:0:0:0:
256,276,142766,2,0,L|256:220,2,50
352,300,143536,1,0,0:0:0:0:
437,247,143920,2,0,P|397:219|388:172,1,100
436,84,144689,70,0,P|476:111|488:160,1,100
388,172,145459,1,8,0:0:0:0:
296,136,145843,1,0,0:0:0:0:
256,104,146036,1,0,0:0:0:0:
216,136,146228,1,0,0:0:0:0:
124,172,146612,1,0,0:0:0:0:
23,159,146997,2,0,P|35:111|76:84,1,100
124,172,147766,38,0,P|160:220|196:232,1,100
236,324,148536,2,0,P|284:288|296:252,1,100,8|0,0:0|0:0,0:0:0:0:
388,212,149305,2,0,P|352:164|316:152,1,100
276,60,150074,2,0,P|228:96|216:132,1,100
168,220,150843,69,0,0:0:0:0:
256,268,151228,1,0,0:0:0:0:
344,220,151612,1,8,0:0:0:0:
368,124,151997,2,0,P|363:96|347:72,1,50
312,48,152382,2,0,P|276:64|216:64,1,100
116,48,153151,2,0,P|112:76|121:103,1,50
144,140,153536,2,0,P|149:164|146:188,1,50
120,232,153920,37,0,0:0:0:0:
206,282,154305,1,0,0:0:0:0:
306,282,154689,1,8,0:0:0:0:
392,232,155074,1,0,0:0:0:0:
304,184,155459,2,0,P|256:196|208:184,1,100
188,84,156228,2,0,P|208:68|236:60,1,50
281,60,156612,2,0,P|304:67|323:83,1,50
356,120,156997,70,0,B|396:164|312:220|356:260,1,150
355,259,157766,1,8,0:0:0:0:
256,276,158151,1,0,0:0:0:0:
156,260,158536,2,0,B|200:220|116:164|156:120,1,150
188,84,159305,2,0,P|208:100|232:104,1,50,0|0,0:0|0:0,0:0:0:0:
280,104,159689,2,0,P|304:99|324:84,1,50
364,52,160074,38,0,P|420:48|464:72,1,100
492,160,160843,2,0,P|436:164|392:140,1,100,8|0,0:0|0:0,0:0:0:0:
315,197,161612,2,0,P|273:279|128:304,1,250
127,303,162766,1,0,0:0:0:0:
28,240,163151,38,0,P|72:204|72:144,1,119.999996337891,0|0,0:0|0:0,0:0:0:0:
44,80,163728,1,0,0:0:0:0:
112,88,163920,2,0,P|172:88|220:56,1,119.999996337891,8|0,0:0|0:0,0:0:0:0:
339,56,164689,2,0,P|328:113|351:167,1,119.999996337891,0|0,0:0|0:0,0:0:0:0:
424,264,165459,1,8,0:0:0:0:
316,320,165843,1,0,0:0:0:0:
196,320,166228,69,0,0:0:0:0:
88,264,166612,1,0,0:0:0:0:
160,167,166997,2,0,P|183:113|172:56,1,119.999996337891,8|0,0:0|0:0,0:0:0:0:
291,55,167766,2,0,P|340:88|400:88,1,119.999996337891,0|0,0:0|0:0,0:0:0:0:
468,80,168343,1,0,0:0:0:0:
439,144,168536,2,0,P|439:202|484:240,1,119.999996337891,8|0,0:0|0:0,0:0:0:0:
384,304,169305,38,0,P|328:324|272:304,1,119.999996337891
220,260,169882,1,0,0:0:0:0:
284,236,170074,1,8,0:0:0:0:
392,184,170459,2,0,P|432:136|436:76,1,119.999996337891
316,88,171228,1,0,0:0:0:0:
196,88,171612,1,8,0:0:0:0:
196,208,171997,1,0,0:0:0:0:
316,208,172381,69,0,0:0:0:0:
316,88,172766,1,0,0:0:0:0:
196,88,173150,1,8,0:0:0:0:
75,80,173536,2,0,P|81:139|120:184,1,119.999996337891
228,236,174305,1,0,0:0:0:0:
292,260,174497,1,0,0:0:0:0:
239,304,174689,2,0,P|183:323|128:304,1,119.999996337891,8|0,0:0|0:0,0:0:0:0:
104,184,175459,38,0,P|124:140|188:116,1,119.999996337891
256,132,176036,1,0,0:0:0:0:
323,116,176228,2,0,P|380:132|408:184,1,119.999996337891,8|0,0:0|0:0,0:0:0:0:
372,300,176997,1,0,0:0:0:0:
256,336,177382,1,0,0:0:0:0:
140,300,177766,1,8,0:0:0:0:
76,180,178151,70,0,L|84:116,1,59.9999981689454
68,52,178536,2,0,B|112:44|140:80|140:80|180:80,1,119.999996337891
300,48,179305,1,8,0:0:0:0:
436,68,179689,2,0,L|428:132,1,59.9999981689454
444,196,180074,2,0,B|400:204|372:168|372:168|332:168,1,119.999996337891
212,200,180843,1,8,0:0:0:0:
108,140,181228,37,0,0:0:0:0:
44,240,181612,1,0,0:0:0:0:
148,300,181997,1,0,0:0:0:0:
216,316,182189,1,0,0:0:0:0:
284,296,182382,2,0,P|316:264|328:192,1,119.999996337891,8|0,0:0|0:0,0:0:0:0:
228,88,183151,2,0,P|196:120|184:192,1,119.999996337891,4|0,0:0|0:0,0:0:0:0:
284,296,183920,1,12,0:0:0:0:
328,192,184305,1,4,0:0:0:0:
228,88,184689,38,0,P|156:124|116:180,1,150.000005722046,4|0,0:0|0:0,0:0:0:0:
100,252,185266,1,0,0:0:0:0:
172,228,185459,1,2,0:0:0:0:
340,228,185843,1,0,0:0:0:0:
412,252,186036,1,0,0:0:0:0:
396,180,186228,1,0,0:0:0:0:
436,44,186612,2,0,P|400:31|363:35,1,75.0000028610231
292,60,186997,2,0,P|255:68|219:60,1,75.0000028610231,6|0,0:0|0:0,0:0:0:0:
148,35,187382,2,0,P|111:31|76:44,1,75.0000028610231
120,104,187766,37,4,0:0:0:0:
196,236,188151,2,0,P|164:252|124:252,2,75.0000028610231,0|0|2,0:0|0:0|0:0,0:0:0:0:
316,148,188920,2,0,P|348:164|388:164,2,75.0000028610231
208,44,189689,2,0,P|176:60|136:60,1,75.0000028610231
68,92,190074,2,0,P|51:124|52:164,1,75.0000028610231,6|0,0:0|0:0,0:0:0:0:
72,236,190459,1,0,0:0:0:0:
120,292,190651,1,0,0:0:0:0:
184,328,190843,70,0,P|256:348|328:328,1,150.000005722046,4|0,0:0|0:0,0:0:0:0:
392,292,191420,1,0,0:0:0:0:
440,236,191612,1,2,0:0:0:0:
328,136,191997,1,0,0:0:0:0:
256,112,192189,1,0,0:0:0:0:
184,136,192382,1,0,0:0:0:0:
148,284,192766,2,0,P|180:304|216:304,1,75.0000028610231
292,228,193151,2,0,P|256:220|220:228,1,75.0000028610231,6|0,0:0|0:0,0:0:0:0:
295,303,193536,2,0,P|332:303|364:284,1,75.0000028610231
396,216,193920,37,4,0:0:0:0:
360,72,194305,1,0,0:0:0:0:
220,124,194689,1,2,0:0:0:0:
196,196,194882,1,0,0:0:0:0:
256,240,195074,1,0,0:0:0:0:
316,196,195266,1,0,0:0:0:0:
292,124,195459,1,0,0:0:0:0:
152,72,195843,1,0,0:0:0:0:
116,216,196228,1,6,0:0:0:0:
256,272,196612,1,0,0:0:0:0:
324,136,196997,70,0,P|256:108|188:136,1,150.000005722046,4|0,0:0|0:0,0:0:0:0:
128,180,197574,1,0,0:0:0:0:
156,248,197766,2,0,P|180:272|220:284,1,75.0000028610231,2|0,0:0|0:0,0:0:0:0:
293,283,198151,2,0,P|329:273|356:248,1,75.0000028610231
384,180,198536,1,0,0:0:0:0:
292,60,198920,2,0,P|256:52|220:60,1,75.0000028610231
152,92,199305,1,6,0:0:0:0:
100,148,199497,1,0,0:0:0:0:
84,220,199689,1,0,0:0:0:0:
120,288,199882,1,0,0:0:0:0:
184,328,200074,38,0,P|256:348|328:328,1,150.000005722046,4|0,0:0|0:0,0:0:0:0:
384,280,200651,1,0,0:0:0:0:
420,216,200844,1,2,0:0:0:0:
324,100,201228,1,0,0:0:0:0:
256,72,201420,1,0,0:0:0:0:
188,100,201612,1,0,0:0:0:0:
100,224,201997,2,0,P|120:256|168:284,1,75.0000028610231
220,304,202382,2,0,P|256:312|292:304,1,75.0000028610231,6|0,0:0|0:0,0:0:0:0:
362,277,202766,2,0,P|392:255|412:224,1,75.0000028610231
412,148,203151,70,0,P|396:88|316:64,1,150.000005722046,4|0,0:0|0:0,0:0:0:0:
256,104,203728,1,0,0:0:0:0:
200,156,203920,1,2,0:0:0:0:
256,204,204112,1,0,0:0:0:0:
312,156,204305,1,0,0:0:0:0:
256,104,204497,1,0,0:0:0:0:
193,63,204689,2,0,P|123:80|100:148,1,150.000005722046,0|0,0:0|0:0,0:0:0:0:
128,216,205266,1,0,0:0:0:0:
188,260,205459,2,0,P|256:288|324:260,1,150.000005722046,6|0,0:0|0:0,0:0:0:0:
384,216,206036,1,0,0:0:0:0:
380,140,206228,38,0,P|256:68|132:140,1,300.000011444092,4|2,0:0|0:0,0:0:0:0:
56,252,207382,1,0,0:0:0:0:
180,304,207766,1,0,0:0:0:0:
256,192,208151,1,0,0:0:0:0:
332,304,208536,1,0,0:0:0:0:
456,252,208920,1,0,0:0:0:0:
408,140,209305,2,0,P|380:96|316:80,1,119.999996337891
194,79,210074,2,0,P|137:91|104:140,1,119.999996337891
256,192,210843,12,0,212382,0:0:0:0:
80,96,213920,5,0,0:0:0:0:
168,48,214304,1,0,0:0:0:0:
256,96,214689,1,8,0:0:0:0:
228,192,215073,1,0,0:0:0:0:
213,240,215266,1,0,0:0:0:0:
231,285,215458,2,0,P|265:317|316:320,1,100
408,280,216227,2,0,P|440:248|452:196,1,100
432,96,216996,101,0,0:0:0:0:
344,48,217380,1,0,0:0:0:0:
256,96,217765,1,8,0:0:0:0:
284,192,218149,1,0,0:0:0:0:
299,240,218342,1,0,0:0:0:0:
281,285,218535,2,0,P|246:317|195:320,1,100
104,280,219304,2,0,P|72:248|60:196,1,100
92,100,220073,5,0,0:0:0:0:
180,48,220458,2,0,P|212:44|244:56,1,50
272,72,220843,1,8,0:0:0:0:
204,148,221227,2,0,P|192:168|188:200,1,50
200,244,221612,2,0,P|228:280|288:300,1,100
376,292,222381,1,0,0:0:0:0:
436,100,223150,101,0,0:0:0:0:
348,52,223535,1,0,0:0:0:0:
248,44,223920,1,8,0:0:0:0:
152,76,224304,1,0,0:0:0:0:
76,140,224689,2,0,P|108:168|164:176,1,100
252,128,225458,1,0,0:0:0:0:
263,171,225650,1,0,0:0:0:0:
255,216,225843,1,0,0:0:0:0:
229,252,226035,1,0,0:0:0:0:
188,276,226227,6,0,P|140:284|96:260,1,100
48,172,226996,1,8,0:0:0:0:
96,84,227381,1,0,0:0:0:0:
188,44,227766,2,0,P|240:44|279:69,1,100
208,140,228535,2,0,P|212:200|244:236,1,100
324,276,229304,102,0,P|372:284|416:260,1,100
464,172,230073,1,8,0:0:0:0:
416,84,230458,1,0,0:0:0:0:
324,44,230843,2,0,P|272:44|233:69,1,100
164,144,231612,2,0,P|204:168|256:168,1,100
348,128,232381,5,0,0:0:0:0:
416,52,232766,1,0,0:0:0:0:
456,144,233150,2,0,P|440:192|400:224,1,100,8|0,0:0|0:0,0:0:0:0:
308,252,233920,1,0,0:0:0:0:
208,236,234304,1,0,0:0:0:0:
140,164,234689,1,0,0:0:0:0:
132,64,235073,1,0,0:0:0:0:
224,108,235458,102,0,P|280:112|320:96,1,100
396,32,236227,2,0,P|416:68|412:132,1,100,8|0,0:0|0:0,0:0:0:0:
328,212,236996,21,0,0:0:0:0:
272,104,237381,1,0,0:0:0:0:
172,60,237766,1,0,0:0:0:0:
100,72,237958,1,0,0:0:0:0:
40,120,238150,1,0,0:0:0:0:
24,196,238343,1,0,0:0:0:0:
52,272,238535,54,0,P|100:312|184:312,1,150.000005722046,4|0,0:0|0:0,0:0:0:0:
256,272,239112,1,0,0:0:0:0:
327,311,239304,2,0,P|401:315|460:272,1,150.000005722046,0|0,0:0|0:0,0:0:0:0:
488,196,239881,1,0,0:0:0:0:
432,136,240073,2,0,P|400:117|359:116,1,75.0000028610231
283,135,240458,2,0,P|245:133|213:114,1,75.0000028610231
158,51,240843,1,4,0:0:0:0:
72,192,241227,1,0,0:0:0:0:
156,336,241612,102,0,P|224:348|300:324,1,150.000005722046,4|0,0:0|0:0,0:0:0:0:
368,276,242189,1,0,0:0:0:0:
420,212,242381,2,0,P|404:144|328:124,1,150.000005722046
256,148,242958,1,0,0:0:0:0:
178,122,243150,2,0,P|109:142|92:212,1,150.000005722046
144,276,243727,1,0,0:0:0:0:
212,324,243920,2,0,P|282:347|356:336,1,150.000005722046,4|0,0:0|0:0,0:0:0:0:
468,212,244689,38,0,P|468:112|364:76,1,225.000008583069,4|0,0:0|0:0,0:0:0:0:
292,116,245458,2,0,P|256:125|220:116,1,75.0000028610231
220,32,245843,2,0,P|256:23|292:32,1,75.0000028610231
148,76,246227,2,0,P|47:106|44:212,1,225.000008583069
96,276,246996,1,4,0:0:0:0:
248,340,247381,1,0,0:0:0:0:
412,344,247766,102,0,P|472:304|484:224,1,150.000005722046,4|0,0:0|0:0,0:0:0:0:
428,172,248343,1,0,0:0:0:0:
396,248,248535,2,0,P|332:264|276:208,1,150.000005722046
212,56,249304,2,0,P|184:40|136:40,1,75.0000028610231
160,120,249689,2,0,P|127:122|88:150,1,75.0000028610231
156,200,250073,2,0,P|131:220|114:265,1,75.0000028610231,4|0,0:0|0:0,0:0:0:0:
196,272,250458,1,0,0:0:0:0:
272,304,250650,1,0,0:0:0:0:
356,308,250843,102,0,P|436:280|460:152,1,225.000008583069,4|0,0:0|0:0,0:0:0:0:
396,112,251612,2,0,P|421:85|465:77,1,75.0000028610231
356,40,251996,2,0,P|330:66|288:76,1,75.0000028610231
212,72,252381,1,0,0:0:0:0:
172,232,252766,1,0,0:0:0:0:
216,300,252958,1,0,0:0:0:0:
296,300,253150,1,4,0:0:0:0:
340,232,253343,1,0,0:0:0:0:
296,164,253535,1,0,0:0:0:0:
156,76,253920,102,0,P|76:104|52:232,1,225.000008583069,4|0,0:0|0:0,0:0:0:0:
116,272,254689,2,0,P|90:298|46:306,1,75.0000028610231
156,344,255073,2,0,P|182:318|224:308,1,75.0000028610231
300,312,255458,1,0,0:0:0:0:
340,152,255843,1,0,0:0:0:0:
296,84,256035,1,0,0:0:0:0:
216,84,256227,1,4,0:0:0:0:
172,152,256420,1,0,0:0:0:0:
216,220,256612,1,0,0:0:0:0:
364,292,256996,38,0,P|432:264|472:200,1,150.000005722046,4|0,0:0|0:0,0:0:0:0:
452,120,257573,2,0,P|414:118|380:100,1,75.0000028610231
208,120,258150,1,0,0:0:0:0:
256,188,258343,1,0,0:0:0:0:
304,120,258535,1,0,0:0:0:0:
130,101,258920,2,0,P|97:118|60:120,1,75.0000028610231
40,201,259304,2,0,P|79:263|148:292,1,150.000005722046,4|0,0:0|0:0,0:0:0:0:
324,264,260073,101,4,0:0:0:0:
332,76,260458,1,0,0:0:0:0:
256,44,260650,1,0,0:0:0:0:
180,76,260843,1,0,0:0:0:0:
188,264,261227,1,0,0:0:0:0:
320,165,261612,2,0,P|256:132|192:165,1,150.000005722046
152,236,262189,1,0,0:0:0:0:
216,280,262381,1,4,0:0:0:0:
296,280,262573,1,0,0:0:0:0:
360,236,262766,1,0,0:0:0:0:
256,192,263150,12,0,265458,0:0:0:0:
256,192,265843,5,0,0:0:0:0:
256,192,266227,12,4,269304,0:1:0:0:
104,144,279164,102,0,P|144:176|156:224,1,100
48,232,279997,2,0,P|99:313|195:323,1,200,8|0,0:0|0:0,0:0:0:0:
296,280,281195,1,0,0:0:0:0:
348,300,281392,1,0,0:0:0:0:
404,292,281589,1,8,0:0:0:0:
432,88,282325,102,0,P|381:82|338:107,1,100
409,189,283096,2,0,P|314:210|240:149,1,200,8|0,0:0|0:0,0:0:0:0:
252,40,284254,1,0,0:0:0:0:
304,56,284457,1,0,0:0:0:0:
340,96,284654,2,0,P|324:192|240:240,1,200
68,100,286183,102,0,P|98:62|146:43,1,100,8|0,0:0|0:0,0:0:0:0:
200,140,286954,2,0,P|177:195|189:238,1,100
325,232,287726,2,0,P|333:184|312:140,1,100
366,43,288498,2,0,P|412:61|444:100,1,100
408,216,289295,69,8,0:0:0:0:
312,272,289672,1,0,0:0:0:0:
200,272,290049,1,0,0:0:0:0:
104,216,290427,1,0,0:0:0:0:
108,108,290804,2,0,P|156:116|200:92,1,100,8|0,0:0|0:0,0:0:0:0:
312,92,291583,2,0,P|355:115|404:108,1,100
256,192,292362,1,4,0:0:0:0:
256,192,292455,12,8,296134,0:0:0:0:
