osu file format v13

[General]
AudioFilename: RicoilPassato.mp3
AudioLeadIn: 1985
PreviewTime: 76321
Countdown: 0
SampleSet: Soft
StackLeniency: 0.8
Mode: 0
LetterboxInBreaks: 1
EpilepsyWarning: 1
WidescreenStoryboard: 1

[Editor]
Bookmarks: 1800,30000,55100,77000,107800,118536,132574,133151,137190,137767,138500,150843,163200,184700,212400,238500,269496,270073,277958,278535,299800
DistanceSpacing: 1.2
BeatDivisor: 4
GridSize: 4
TimelineZoom: 1

[Metadata]
Title:Ricordando Il Passato
TitleUnicode:白梦の繭
Artist:Akiko Shikata
ArtistUnicode:志方あきこ
Creator:Alarido
Version:Calm
Source:うみねこのなく頃に
Tags:Umineko no Naku Koro Ni Beatrice the Golden Witch Battler Ushiromiya everlasting love conturbated romance Beatoriche 07th Expansion graveyard italian jaqueline neri
BeatmapID:384314
BeatmapSetID:148579

[Difficulty]
HPDrainRate:2
CircleSize:3
OverallDifficulty:2
ApproachRate:2
SliderMultiplier:1
SliderTickRate:2

[Events]
//Background and Video events
0,0,"fondo.jpg",0,0
//Break Periods
2,132582,136976
2,269504,277604
//Storyboard Layer 0 (Background)
//Storyboard Layer 1 (Fail)
//Storyboard Layer 2 (Pass)
//Storyboard Layer 3 (Foreground)
//Storyboard Sound Samples
//Background Colour Transformations
3,100,150,200,255

[TimingPoints]
-1293,784.313725490196,4,2,1,60,1,0
30078,779.220779220779,4,2,1,60,1,0
39526,821.916206896551,4,2,1,60,1,0
41863,361.999686266939,4,2,1,60,1,0
42587,784.313725490196,4,2,1,40,1,0
55171,779.220779220779,4,2,1,60,1,0
55171,-100,4,2,1,60,0,0
76998,769.230769230769,4,2,0,85,1,0
76998,-100,4,2,0,85,0,1
101613,-100,4,2,0,65,0,0
107767,-100,4,2,2,70,0,0
120074,-100,4,2,2,50,0,0
128536,-100,4,2,2,30,0,0
138536,-100,4,2,2,40,0,0
163151,-100,4,2,2,50,0,0
184689,-100,4,2,0,85,0,1
209305,-100,4,2,0,85,0,0
213920,769.230769230769,4,2,1,40,1,0
236996,-100,4,2,0,85,0,0
238535,-100,4,2,0,85,0,1
263150,-100,4,2,0,85,0,0
279164,833.332857142856,4,2,1,39,1,0
281195,789.473684210526,4,2,1,39,1,8
282325,771.704180064309,4,2,1,39,1,0
284260,789.473684210526,4,2,1,39,1,8
286183,771.704180064309,4,2,1,39,1,0
289295,754.716981132075,4,2,1,39,1,0
290804,779.220779220779,4,2,1,39,1,8
292290,-100,4,2,1,25,0,0
292361,754.716981132075,4,2,1,25,1,0
295665,-100,4,2,2,50,0,0

[Colours]
Combo1 : 220,197,165
Combo2 : 0,89,0
Combo3 : 96,183,98
Combo4 : 192,67,31
Combo5 : 233,216,92
Combo6 : 123,77,70
Combo7 : 83,92,138
Combo8 : 138,154,172

[HitObjects]
144,144,1060,22,0,B|176:92|240:104|256:51|256:51|272:104|336:92|368:144,1,300,0|0,0:0|0:0,0:0:0:0:
304,244,4197,2,0,P|256:256|208:244,2,100,0|8|0,0:0|0:0|0:0,0:0:0:0:
364,140,6550,1,0,0:0:0:0:
256,88,7334,1,0,0:0:0:0:
140,120,8118,102,0,B|96:156|80:200|80:200|96:244|140:276,1,200,8|0,0:0|0:0,0:0:0:0:
256,308,10471,1,0,0:0:0:0:
372,276,11256,2,0,B|416:244|432:200|432:200|416:156|372:120,1,200,8|0,0:0|0:0,0:0:0:0:
256,88,13609,1,0,0:0:0:0:
192,189,14393,6,0,B|204:237|256:261|256:261|308:237|320:189,2,200,8|0|8,0:0|0:0|0:0,0:0:0:0:
256,88,18314,1,0,0:0:0:0:
139,62,19099,2,0,P|87:70|51:102,1,100,0|0,0:0|0:0,0:0:0:0:
44,220,20667,101,8,0:0:0:0:
256,331,22236,1,0,0:0:0:0:
468,220,23805,5,10,0:0:0:0:
459,100,24589,2,0,P|421:68|373:62,1,100,8|2,0:0|0:0,0:0:0:0:
256,88,26158,1,8,0:0:0:0:
184,184,26942,2,0,B|212:240|256:248|256:248|300:240|328:184,1,200
256,88,29295,1,8,0:0:0:0:
137,110,30078,6,0,P|88:124|64:168,2,100,4|0|0,0:0|0:0|0:0,0:0:0:0:
256,128,32415,1,0,0:0:0:0:
375,110,33194,2,0,P|424:124|448:168,2,100,4|0|0,0:0|0:0|0:0,0:0:0:0:
256,128,35531,1,0,0:0:0:0:
172,212,36311,6,0,B|176:284|256:328|256:328|336:284|340:212,1,300,4|0,0:0|0:0,0:0:0:0:
348,84,39526,2,0,P|256:48|164:84,1,200,0|0,0:0|0:0,0:0:0:0:
256,204,41863,1,8,0:0:0:0:
136,212,42587,102,0,B|92:244|88:296|88:296|136:320|184:301,1,200,4|0,0:0|0:0,0:0:0:0:
256,204,44939,1,0,0:0:0:0:
328,300,45724,2,0,B|376:320|424:296|424:296|420:244|376:212,1,200,4|0,0:0|0:0,0:0:0:0:
256,204,48077,1,0,0:0:0:0:
136,188,48861,6,0,B|58:157|58:64|58:64|133:35|197:80,1,300,4|0,0:0|0:0,0:0:0:0:
316,79,51998,2,0,B|378:35|453:64|453:64|453:157|376:188,1,300,4|0,0:0|0:0,0:0:0:0:
260,244,55171,22,0,P|332:308|432:304,1,200,4|0,0:0|0:0,0:0:0:0:
472,192,57508,1,8,0:0:0:0:
408,88,58287,2,0,P|314:72|256:148,1,200,0|0,0:0|0:0,0:0:0:0:
256,268,60625,1,8,0:0:0:0:
256,148,61404,6,0,P|196:72|104:88,1,200,0|0,0:0|0:0,0:0:0:0:
40,192,63741,1,8,0:0:0:0:
80,304,64521,2,0,P|178:307|252:243,1,200,0|0,0:0|0:0,0:0:0:0:
256,116,66858,1,8,0:0:0:0:
376,96,67638,102,0,P|416:116|440:164,1,100,0|2,0:0|0:0,0:0:0:0:
408,280,69196,2,0,P|356:308|316:312,1,100,0|2,0:0|0:0,0:0:0:0:
196,311,70755,2,0,P|146:305|104:280,1,100,0|2,0:0|0:0,0:0:0:0:
72,163,72313,2,0,P|92:119|136:96,1,100,0|2,0:0|0:0,0:0:0:0:
256,108,73872,6,0,B|256:4,2,100,0|2|2,0:0|0:0|0:0,0:0:0:0:
256,220,76209,1,2,0:0:0:0:
284,328,76998,54,0,P|332:328|372:296,1,100,4|8,0:0|0:0,0:0:0:0:
408,184,78536,1,0,0:0:0:0:
344,84,79305,1,8,0:0:0:0:
228,56,80074,6,0,P|180:56|140:88,1,100,4|8,0:0|0:0,0:0:0:0:
104,200,81613,1,0,0:0:0:0:
165,303,82382,1,8,0:0:0:0:
284,316,83151,102,0,P|328:296|352:252,1,100,4|8,0:0|0:0,0:0:0:0:
351,131,84690,2,0,P|328:88|284:68,1,100,0|8,0:0|0:0,0:0:0:0:
188,144,86228,6,0,P|176:193|188:240,2,100,0|8|0,0:0|0:0|0:0,0:0:0:0:
284,68,88536,1,8,0:0:0:0:
380,140,89305,102,0,P|400:188|396:236,1,100,4|8,0:0|0:0,0:0:0:0:
316,324,90844,1,0,0:0:0:0:
196,324,91613,1,8,0:0:0:0:
115,234,92382,6,0,P|112:185|132:140,1,100,4|8,0:0|0:0,0:0:0:0:
250,116,93921,1,0,0:0:0:0:
256,236,94690,1,8,0:0:0:0:
352,308,95459,102,0,P|372:272|372:208,1,100,0|8,0:0|0:0,0:0:0:0:
304,116,96998,2,0,P|256:104|208:116,1,100,0|8,0:0|0:0,0:0:0:0:
138,214,98536,2,0,P|137:263|160:308,2,100,0|8|0,0:0|0:0|0:0,0:0:0:0:
256,236,100844,5,8,0:0:0:0:
256,192,101613,12,0,104690,0:0:0:0:
216,76,107767,102,0,P|104:136|204:216,1,300,4|2,0:0|0:0,0:0:0:0:
309,167,110844,2,0,P|408:247|296:308,1,300,0|2,0:0|0:0,0:0:0:0:
180,276,113921,6,0,B|152:272|120:284|120:284|104:272|96:244,1,100,0|2,0:0|0:0,0:0:0:0:
98,131,115459,2,0,B|104:112|120:100|120:100|152:112|180:108,1,100,0|2,0:0|0:0,0:0:0:0:
296,76,116998,2,0,P|320:124|316:172,1,100,0|0,0:0|0:0,0:0:0:0:
224,244,118536,2,0,P|200:196|204:148,1,100,0|0,0:0|0:0,0:0:0:0:
300,80,120074,6,0,P|403:173|332:291,1,300,0|2,0:0|0:0,0:0:0:0:
212,304,123151,2,0,P|109:211|180:93,1,300,0|2,0:0|0:0,0:0:0:0:
300,80,126228,101,0,0:0:0:0:
328,196,126997,2,0,P|256:254|184:196,1,200,0|0,0:0|0:0,0:0:0:0:
256,192,129305,12,0,132382,0:0:0:0:
120,232,138536,86,0,P|168:316|264:316,1,200,0|0,0:0|0:0,0:0:0:0:
364,252,140843,2,0,L|380:196,1,50,0|0,0:0|0:0,0:0:0:0:
392,152,141612,38,0,P|344:68|248:68,1,200,0|0,0:0|0:0,0:0:0:0:
148,132,143920,2,0,L|132:188,1,50,0|0,0:0|0:0,0:0:0:0:
132,240,144689,70,0,P|152:284|196:308,1,100,0|8,0:0|0:0,0:0:0:0:
316,307,146228,2,0,P|359:284|380:240,1,100,0|0,0:0|0:0,0:0:0:0:
396,120,147766,38,0,P|419:76|463:56,2,100,0|8|0,0:0|0:0|0:0,0:0:0:0:
380,240,150074,2,0,L|344:280,1,50,0|0,0:0|0:0,0:0:0:0:
300,316,150843,70,0,P|204:328|128:260,1,200,0|0,0:0|0:0,0:0:0:0:
132,144,153151,2,0,L|168:104,1,50,0|0,0:0|0:0,0:0:0:0:
212,68,153920,38,0,P|308:56|384:124,1,200,0|0,0:0|0:0,0:0:0:0:
273,171,156228,1,0,0:0:0:0:
220,276,156997,70,0,P|248:316|300:316,2,100,0|8|0,0:0|0:0|0:0,0:0:0:0:
225,156,159305,1,0,0:0:0:0:
324,88,160074,38,0,P|376:100|408:132,1,100,0|8,0:0|0:0,0:0:0:0:
408,251,161612,2,0,P|372:286|324:296,1,100,0|0,0:0|0:0,0:0:0:0:
208,264,163151,38,0,P|159:274|124:309,2,100,0|8|0,0:0|0:0|0:0,0:0:0:0:
324,296,165459,1,8,0:0:0:0:
336,176,166228,70,0,P|367:137|414:122,2,100,0|8|0,0:0|0:0|0:0,0:0:0:0:
324,296,168536,1,8,0:0:0:0:
336,176,169305,38,0,B|308:136|256:119|256:119|204:136|176:176,1,200,0|0,0:0|0:0,0:0:0:0:
188,296,171612,1,8,0:0:0:0:
304,268,172382,70,0,P|328:232|336:176,1,100,0|8,0:0|0:0,0:0:0:0:
230,120,173921,2,0,P|203:162|199:212,1,100,0|8,0:0|0:0,0:0:0:0:
304,268,175459,38,0,P|380:224|364:124,1,200,0|0,0:0|0:0,0:0:0:0:
256,74,177767,2,0,L|256:126,2,50,8|0|0,0:0|0:0|0:0,0:0:0:0:
147,124,179305,2,0,P|128:217|208:268,1,200,8|8,0:0|0:0,0:0:0:0:
320,218,181612,69,0,0:0:0:0:
256,116,182382,1,8,0:0:0:0:
192,218,183151,1,4,0:0:0:0:
230,333,183920,2,0,P|256:336|281:333,1,50,12|4,0:0|0:0,0:0:0:0:
336,312,184689,86,0,P|364:276|368:224,1,100,4|2,0:0|0:0,0:0:0:0:
304,120,186228,2,0,P|256:108|208:120,1,100,0|2,0:0|0:0,0:0:0:0:
144,223,187766,2,0,P|146:272|176:312,1,100,0|2,0:0|0:0,0:0:0:0:
256,232,189305,1,0,0:0:0:0:
256,116,190074,1,2,0:0:0:0:
152,176,190843,38,0,P|100:180|56:160,2,100,4|2|0,0:0|0:0|0:0,0:0:0:0:
256,116,193151,1,2,0:0:0:0:
360,176,193920,2,0,P|412:180|456:160,2,100,0|2|0,0:0|0:0|0:0,0:0:0:0:
256,116,196228,1,6,0:0:0:0:
136,108,196997,70,0,B|104:128|96:140|96:140|96:156|100:192,1,100,4|2,0:0|0:0,0:0:0:0:
144,300,198536,1,0,0:0:0:0:
264,316,199305,1,2,0:0:0:0:
376,276,200074,38,0,B|408:256|416:244|416:244|416:228|412:192,1,100,4|2,0:0|0:0,0:0:0:0:
368,84,201612,1,0,0:0:0:0:
248,68,202381,1,6,0:0:0:0:
144,128,203151,70,0,P|116:176|116:220,1,100,4|2,0:0|0:0,0:0:0:0:
208,296,204689,2,0,P|256:308|304:296,1,100,0|2,0:0|0:0,0:0:0:0:
396,219,206228,2,0,P|394:169|368:128,1,100,4|2,0:0|0:0,0:0:0:0:
256,84,207766,38,0,P|205:158|280:208,1,200,0|0,0:0|0:0,0:0:0:0:
256,192,210843,12,0,212382,0:0:0:0:
96,124,213920,6,0,B|140:156|140:200|120:220|96:220|72:244|72:308|104:340|180:340|196:324,1,300,0|0,0:0|0:0,0:0:0:0:
316,324,216996,2,0,B|332:340|408:340|440:308|440:244|416:220|392:220|372:200|372:156|416:124,1,300,0|0,0:0|0:0,0:0:0:0:
320,52,220073,102,0,P|180:52|140:88,1,200,0|0,0:0|0:0,0:0:0:0:
84,192,222381,1,0,0:0:0:0:
140,296,223150,2,0,P|223:348|320:332,1,200,0|0,0:0|0:0,0:0:0:0:
416,260,225458,1,0,0:0:0:0:
448,144,226227,6,0,P|414:72|304:72,1,200,0|0,0:0|0:0,0:0:0:0:
256,180,228535,1,0,0:0:0:0:
207,71,229304,2,0,P|112:62|64:144,1,200,0|0,0:0|0:0,0:0:0:0:
96,260,231612,1,0,0:0:0:0:
208,304,232381,102,0,P|256:316|304:304,2,100,0|8|0,0:0|0:0|0:0,0:0:0:0:
96,260,234689,1,0,0:0:0:0:
172,168,235458,2,0,P|256:122|340:168,1,200,0|0,0:0|0:0,0:0:0:0:
416,260,237766,1,0,0:0:0:0:
472,156,238535,86,0,P|472:120|428:76,1,100,4|0,0:0|0:0,0:0:0:0:
316,44,240073,1,0,0:0:0:0:
196,44,240843,1,4,0:0:0:0:
82,76,241612,102,0,P|45:107|40:156,1,100,4|0,0:0|0:0,0:0:0:0:
95,263,243150,1,0,0:0:0:0:
212,288,243920,1,4,0:0:0:0:
320,236,244689,38,0,P|340:200|340:140,1,100,4|0,0:0|0:0,0:0:0:0:
244,72,246227,2,0,P|224:108|224:168,1,100,0|0,0:0|0:0,0:0:0:0:
284,272,247766,102,0,P|296:288|324:304,1,50,4|0,0:0|0:0,0:0:0:0:
380,312,248535,2,0,P|404:312|428:300,1,50,0|0,0:0|0:0,0:0:0:0:
472,260,249304,2,0,P|484:224|464:164,1,100,0|0,0:0|0:0,0:0:0:0:
372,92,250843,101,4,0:0:0:0:
256,124,251612,1,0,0:0:0:0:
140,92,252381,2,0,P|112:128|100:180,1,100,0|4,0:0|0:0,0:0:0:0:
140,292,253920,101,4,0:0:0:0:
256,260,254689,1,0,0:0:0:0:
372,292,255458,2,0,P|400:256|412:204,1,100,0|4,0:0|0:0,0:0:0:0:
404,84,256996,38,0,P|385:66|308:44,1,100,4|0,0:0|0:0,0:0:0:0:
195,43,258535,2,0,P|147:53|108:84,1,100,0|4,0:0|0:0,0:0:0:0:
116,204,260073,101,4,0:0:0:0:
196,292,260843,1,0,0:0:0:0:
316,292,261612,1,0,0:0:0:0:
396,204,262381,1,4,0:0:0:0:
256,192,263150,12,0,265458,0:0:0:0:
256,192,266227,12,4,269304,0:1:0:0:
296,56,279164,117,0,0:0:0:0:
176,64,279996,2,0,P|135:103|127:147,1,100,8|0,0:0|2:2,0:0:0:0:
128,260,281588,1,0,0:0:0:0:
228,320,282325,117,0,0:0:0:0:
344,312,283096,2,0,P|388:280|400:232,1,100,8|0,0:0|2:2,0:0:0:0:
396,120,284654,1,0,0:0:0:0:
296,56,285444,1,0,0:0:0:0:
200,128,286183,102,0,P|196:176|220:220,1,100,8|0,0:0|0:0,0:0:0:0:
316,148,287726,2,0,P|320:100|296:56,1,100,0|0,0:0|0:0,0:0:0:0:
200,128,289295,70,0,P|152:144|104:136,2,100,8|0|8,0:0|0:0|0:0,0:0:0:0:
296,56,291583,1,0,0:0:0:0:
256,192,292362,12,8,296134,0:0:0:0:
