osu file format v5

[General]
AudioFilename: Umineko_no_Naku_Koro_ni_-_Katayoku_no_Tori_TV_Size.mp3
AudioLeadIn: 1511
PreviewTime: 56400
Countdown: 1
SampleSet: Soft
StackLeniency: 0.7
Mode: 0
LetterboxInBreaks: 1
EditorDistanceSpacing: 0.699999988079071

[Metadata]
Title:Katayoku no Tori
Artist:Akiko Shikata
Creator:tieff
Version:Normal
Source:Umineko no Naku Koro ni
Tags:

[Difficulty]
HPDrainRate:5
CircleSize:4
OverallDifficulty:5
SliderMultiplier:1.7
SliderTickRate:2

[Events]
//Background and Video events
0,0,"Umi.jpg"
Video,0,"Umineko op.avi"
//Break Periods
2,54963,56836
//Storyboard Layer 0 (Background)
//Storyboard Layer 1 (Fail)
//Storyboard Layer 2 (Pass)
//Storyboard Layer 3 (Foreground)
//Storyboard Sound Samples
//Background Colour Transformations
3,100,163,162,255

[TimingPoints]
764,545.454545454545,3,1,0,70,1,0
13718,-100,4,2,0,70,0,0
25173,-100,4,1,0,40,0,0
25445,-100,4,2,0,70,0,0
39900,-100,4,1,0,70,0,0
41263,-100,4,2,0,84,0,0
43173,-100,4,1,0,70,0,0
44536,-100,4,2,0,84,0,0
56673,-100,4,1,0,70,0,0

[Colours]
Combo1 : 255,40,40
Combo2 : 64,0,128
Combo3 : 216,216,216
Combo4 : 0,128,255

[HitObjects]
256,48,764,1,0
344,48,1173,1,0
344,136,1582,2,0,B|344:256,2,85,4|0|4
280,136,2400,6,0,B|128:136,1,127.5,4|0
64,136,3218,1,0
72,192,3491,1,0
104,240,3764,2,0,B|200:240,1,85,0|4
280,240,4445,1,4
368,240,4854,6,0,B|368:152,1,85
368,155,5400,1,0
368,96,5673,2,0,B|272:96,1,85
283,96,6218,2,0,B|184:96,1,85
136,96,6763,6,0,B|80:96,4,42.5,0|0|0|0|4
136,184,7718,5,4
136,272,8127,2,0,B|248:272,2,85,0|0|4
72,272,8945,2,0,B|40:208|80:136,1,127.5,4|0
144,208,9763,6,0,B|264:208,1,85
288,208,10309,1,0
344,208,10582,2,0,B|376:144|336:80,1,127.5,4|0
272,144,11400,6,0,B|160:144,1,85
128,144,11945,1,0
160,192,12218,2,0,B|160:296,1,85
160,277,12763,2,0,B|160:336|224:328|256:296|256:296,1,85
392,280,13854,5,2
392,216,14127,2,0,B|392:168,2,42.5,0|0|0
328,216,14673,2,0,B|224:216,1,85,2|0
184,216,15218,2,0,B|136:216|152:128,1,85
152,64,15900,2,0,B|208:64,1,42.5,2|0
256,64,16309,1,0
376,64,16854,6,0,B|376:128,1,42.5,2|0
376,136,17127,2,0,B|320:168|392:200|312:240|296:240,1,127.5,2|0
309,236,17673,1,2
248,240,17945,2,0,B|152:240,1,85,2|0
163,240,18491,2,2,B|96:240|80:184,1,85
88,88,19309,2,0,B|184:88,1,85
352,88,20400,5,2
352,176,20809,2,0,B|352:224,1,42.5
352,280,21218,2,0,B|272:328|184:272,1,170,0|2
200,216,22036,6,0,B|256:248|280:248|344:224,1,127.5,2|0
321,231,22582,1,0
320,168,22854,2,0,B|256:104,1,85,2|0
259,107,23400,2,0,B|208:72|144:96,1,85,2|2
96,176,24218,2,0,B|64:256,2,85,2|0|2
176,264,25309,5,0
352,264,26127,2,0,B|448:264,2,85,4|0|4
288,264,26945,6,0,B|248:208|168:288|120:192,1,170,0|0
136,152,27763,1,2
136,88,28036,1,0
184,120,28309,2,0,B|304:120,1,85
360,120,28991,2,0,B|304:120,1,42.5,2|0
320,176,29400,1,0
320,296,29945,6,0,B|264:264,1,42.5
283,274,30218,2,0,B|224:248|168:256|128:224,1,127.5,0|2
160,241,30763,1,0
136,184,31036,1,2
80,160,31309,1,0
136,184,31582,2,0,B|184:160|176:96,1,85,2|2
296,120,32400,2,0,B|296:184|344:192,1,85
192,304,33491,6,0,B|136:272|144:224|120:184|72:160,1,170,0|2
90,171,34309,1,0
88,112,34582,2,2,B|152:136|192:128,1,85,2|0
232,136,35127,5,4
320,136,35536,2,0,B|352:168,1,42.5
400,192,35945,2,0,B|416:240|360:272,1,85
312,280,36491,6,0,B|264:248|192:256,1,85,2|4
120,208,37309,6,4,B|72:200|72:128,1,85,2|4
192,144,38127,6,0,B|256:136|272:104,1,85,2|4
304,64,38673,2,0,B|336:32,2,42.5
344,104,39218,2,0,B|384:168|328:208|328:256|344:288,1,170
288,304,40036,5,4
200,304,40445,1,4
112,304,40854,2,4,B|112:200,1,85
112,160,41400,6,0,B|160:152|200:120,1,85,0|4
240,96,41945,2,2,B|296:88|336:144,1,85,2|0
344,176,42491,2,0,B|376:216|432:208,1,85,2|0
392,264,43036,2,0,B|328:240|288:264,1,85,2|4
216,272,43718,5,0
184,192,44127,1,0
160,136,44400,1,0
136,80,44673,6,2,B|200:80|216:32,1,85,2|0
264,72,45218,2,0,B|280:136|328:144,1,85,0|2
304,200,45764,2,0,B|256:232|272:296,1,85,0|0
200,288,46309,2,0,B|208:232|160:200,1,85,2|4
80,56,47400,5,0
80,112,47673,1,0
104,168,47945,1,0
104,224,48218,1,0
144,264,48491,2,2,B|144:352,1,85,2|0
200,352,49036,5,0
240,304,49309,1,0
240,240,49582,2,0,B|240:168|280:152,1,85
288,72,50264,2,0,B|288:48|256:40,1,42.5
200,40,50673,1,0
144,104,51082,2,0,B|168:144|144:168,1,42.5
144,200,51491,1,0
312,256,52309,6,0,B|392:248|416:192|416:128,1,170
256,192,53127,12,2,54764
104,104,58036,6,2,B|184:72|200:256|352:176,1,255,2|0
384,184,59127,1,0
376,240,59400,1,0
368,296,59673,2,0,B|328:336|272:288,1,85
232,296,60218,2,0,B|168:312|104:280|80:224|64:216|64:216,1,170
104,176,61036,5,0
136,120,61309,2,0,B|192:104|232:120,1,85
280,128,61854,2,0,B|360:136|328:248|384:264|408:256,1,170
381,253,62673,5,2
344,296,62945,2,2,B|272:320|208:312|184:248|136:240|88:240,1,255
208,96,64582,6,0,B|304:96,2,85,0|0|8
208,152,65400,2,0,B|120:152,2,85,0|0|8
208,208,66218,2,2,B|224:256|272:264|296:304|288:352,1,170
344,352,67036,1,0
384,312,67309,1,0
416,264,67582,2,0,B|456:232|448:176,1,85
376,96,68400,1,0
376,96,68673,2,0,B|312:112|272:176|264:248|160:232,1,255
168,112,70036,6,0,B|72:152,1,85
88,200,70582,2,0,B|168:240,1,85
164,238,71127,2,2,B|216:264|288:160|416:176,1,255,2|0
408,112,72218,5,0
352,104,72491,1,0
296,120,72764,1,0
248,152,73036,1,0
192,176,73309,2,2,B|208:248|296:248|312:296|328:296,1,170
264,320,74127,5,0
200,320,74400,1,0
144,296,74673,1,0
104,248,74945,2,2,B|88:144|144:120|168:80,1,170
208,64,75764,5,0
264,64,76036,2,2,B|304:112|336:144|376:136|416:144,1,170
407,142,76854,2,2,B|320:160|272:240,1,170
273,238,77673,6,2,B|240:296|184:280|192:72|80:240,1,255
112,280,78764,1,0
160,312,79036,1,0
208,280,79309,1,0
160,240,79582,2,0,B|160:152,1,85
160,96,80127,2,0,B|336:96,1,170
330,96,80945,6,0,B|384:96|384:160|312:200|352:248,1,170
345,238,81764,2,0,B|376:304|280:320|240:336|192:344,1,170
234,334,82582,2,0,B|152:336|112:248|144:192,1,170
133,222,83400,2,0,B|168:168|232:272|248:160|360:96,1,255,0|4
352,160,84491,6,0,B|344:272,1,85
312,288,85036,1,0
248,288,85309,2,0,B|144:296,1,85
144,240,85854,1,0
144,176,86127,2,0,B|128:128,1,42.5
192,136,86536,2,0,B|200:88,1,42.5
256,112,86945,1,0
312,120,87218,1,0
344,168,87491,5,0
360,224,87764,1,0
336,280,88036,1,0
288,312,88309,2,0,B|240:328|192:312,1,85
152,280,88854,2,0,B|144:216|104:176,1,85
