osu file format v9

[General]
AudioFilename: Akiko Shikata - Hanakisou.mp3
AudioLeadIn: 3000
PreviewTime: -1
Countdown: 0
SampleSet: Soft
StackLeniency: 0.7
Mode: 0
LetterboxInBreaks: 1

[Editor]
DistanceSpacing: 1.2
BeatDivisor: 4
GridSize: 4

[Metadata]
Title:Hana Ki Sou
Artist:Akiko Shikata
Creator:Kiiwa
Version:Insane
Source:Hana Ki Sou
Tags:Beren KanaRin Yaoi BL Gay Navigatoria eveless LKs

[Difficulty]
HPDrainRate:6
CircleSize:4
OverallDifficulty:7
ApproachRate:8
SliderMultiplier:1.6
SliderTickRate:1

[Events]
//Background and Video events
0,0,"BG.jpg"
//Break Periods
2,16273,30900
2,100751,112329
2,220092,232329
//Storyboard Layer 0 (Background)
//Storyboard Layer 1 (Fail)
//Storyboard Layer 2 (Pass)
//Storyboard Layer 3 (Foreground)
//Storyboard Sound Samples
//Background Colour Transformations
3,100,163,162,255

[TimingPoints]
332,329.67032967033,4,2,1,50,1,0
496,-100,4,2,1,50,0,0
1980,-133.333333333333,4,2,1,50,0,0
2310,-200,4,2,1,50,0,0
2969,-100,4,2,1,50,0,0
3628,-100,4,2,1,25,0,0
3958,-100,4,2,1,50,0,0
4782,-100,4,2,1,25,0,0
4947,-100,4,2,1,50,0,0
8244,-100,4,2,1,75,0,0
8408,-100,4,2,1,75,0,0
8903,-100,4,2,1,45,0,0
9233,-100,4,2,1,55,0,0
9562,-100,4,2,1,65,0,0
9892,-100,4,2,1,75,0,0
47474,-100,4,2,0,75,0,0
47804,-100,4,2,1,50,0,0
51430,-100,4,1,0,25,0,0
51595,-100,4,2,0,50,0,0
53408,-100,4,1,0,25,0,0
53573,-100,4,2,0,50,0,0
55386,-100,4,1,0,25,0,0
55551,-100,4,2,1,50,0,0
57364,-100,4,1,0,25,0,0
57694,-100,4,2,0,50,0,0
59342,-100,4,1,0,25,0,0
59672,-100,4,2,0,50,0,0
61321,-100,4,1,0,25,0,0
61650,-100,4,2,0,50,0,0
62310,-100,4,1,0,25,0,0
62474,-100,4,2,1,50,0,0
64782,-100,4,1,0,25,0,0
64947,-100,4,1,0,30,0,0
65112,-100,4,1,0,35,0,0
65277,-100,4,1,0,40,0,0
65441,-100,4,1,0,45,0,0
65606,-100,4,2,1,75,0,1
67255,-100,4,1,0,50,0,1
67584,-100,4,2,1,75,0,1
68244,-100,4,1,0,50,0,1
68573,-100,4,2,1,75,0,1
70222,-100,4,1,0,50,0,1
70386,-100,4,2,1,75,0,1
72200,-100,4,1,0,50,0,1
73189,-100,4,2,1,75,0,1
74178,-100,4,1,0,50,0,1
74342,-100,4,2,1,75,0,1
76156,-100,4,1,0,30,0,1
76485,-100,4,2,1,75,0,1
80112,-100,4,1,0,25,0,1
80277,-100,4,1,0,30,0,1
80441,-100,4,1,0,35,0,1
80606,-100,4,1,0,40,0,1
80771,-100,4,1,0,45,0,1
81101,-100,4,2,1,50,0,1
81430,-100,4,2,0,5,0,0
83738,-100,4,2,1,50,0,0
85057,-100,4,1,0,25,0,0
85222,-100,4,2,1,50,0,0
85963,-100,4,1,1,50,0,0
86128,-100,4,2,1,50,0,0
87941,-100,4,1,1,50,0,0
88106,-100,4,2,1,50,0,0
89919,-100,4,1,1,50,0,0
90084,-100,4,2,1,50,0,0
91897,-100,4,1,1,50,0,0
92062,-100,4,2,1,50,0,0
93875,-100,4,1,1,50,0,0
94040,-100,4,2,1,50,0,0
94864,-100,4,1,1,50,0,0
95029,-100,4,2,1,50,0,0
95936,-100,4,1,1,50,0,0
96018,-100,4,2,1,50,0,0
97255,-100,4,2,0,5,0,0
114397,-100,4,2,0,50,0,0
114645,-100,4,1,0,50,0,0
114810,-100,4,2,1,50,0,0
116046,-200,4,2,1,50,0,0
116705,-100,4,1,1,50,0,0
116870,-100,4,2,1,50,0,0
118601,-100,4,1,1,50,0,0
118766,-100,4,2,1,50,0,0
120579,-100,4,1,1,50,0,0
120744,-100,4,2,1,50,0,0
122639,-100,4,1,1,50,0,0
122722,-100,4,2,1,50,0,0
124535,-100,4,1,1,50,0,0
124700,-100,4,2,1,50,0,0
126513,-100,4,1,1,50,0,0
126678,-100,4,2,1,50,0,0
128491,-100,4,1,1,50,0,0
128656,-100,4,2,1,50,0,0
130386,-100,4,1,1,50,0,0
130716,-100,4,2,1,50,0,0
132447,-100,4,1,1,50,0,0
132694,-100,4,2,1,50,0,0
134342,-100,4,1,1,50,0,0
134672,-100,4,2,1,50,0,0
136321,-100,4,1,1,50,0,0
136650,-100,4,2,1,50,0,0
136815,-200,4,2,1,50,0,0
137392,-100,4,2,1,50,0,0
138381,-100,4,1,1,50,0,0
138628,-100,4,2,1,50,0,0
140359,-100,4,1,1,50,0,0
140524,-100,4,2,1,50,0,0
142419,-100,4,1,1,50,0,0
142502,-100,4,2,1,50,0,0
144315,-100,4,1,1,50,0,0
144480,-100,4,2,1,50,0,0
146293,-100,4,1,1,50,0,0
146458,-100,4,2,1,50,0,0
148271,-100,4,1,1,50,0,0
148436,-100,4,2,1,50,0,0
149672,-100,4,1,1,50,0,0
149755,-100,4,2,1,50,0,0
151485,-100,4,2,1,5,0,0
151568,-100,4,2,1,10,0,0
151650,-100,4,2,1,15,0,0
151733,-100,4,2,1,20,0,0
151815,-100,4,2,1,25,0,0
151897,-100,4,2,1,30,0,0
151980,-100,4,2,1,35,0,0
152062,-100,4,2,1,40,0,0
152145,-100,4,2,1,45,0,0
152227,-100,4,2,1,50,0,0
166650,-100,4,1,1,50,0,0
166980,-100,4,2,1,50,0,0
167310,-100,4,1,1,50,0,0
167639,-100,4,2,1,50,0,0
170029,-100,4,1,1,50,0,0
170194,-100,4,2,1,50,0,0
171018,-100,4,1,1,50,0,0
171183,-100,4,2,1,50,0,0
172007,-100,4,1,1,50,0,0
172172,-100,4,2,1,50,0,0
172996,-100,4,1,1,50,0,0
173161,-100,4,2,1,50,0,0
174068,-100,4,1,1,50,0,0
174150,-100,4,2,1,50,0,0
174974,-100,4,1,1,50,0,0
175139,-100,4,2,1,50,0,0
176046,-100,4,1,1,50,0,0
176128,-100,4,2,1,50,0,0
176952,-100,4,1,1,50,0,0
177117,-100,4,2,1,50,0,0
177941,-100,4,1,1,50,0,0
178106,-100,4,2,1,50,0,0
178930,-100,4,1,1,50,0,0
179054,-100,4,2,1,50,0,0
179919,-100,4,1,1,50,0,0
180084,-100,4,2,1,50,0,0
180908,-100,4,1,1,50,0,0
181073,-100,4,2,1,50,0,0
181897,-100,4,1,1,50,0,0
182062,-100,4,2,1,50,0,0
182557,-100,4,2,1,10,0,0
185936,-100,4,2,1,50,0,0
193271,-100,4,1,1,35,0,0
194178,-100,4,2,1,50,0,0
194755,-100,4,1,1,35,0,0
194919,-100,4,2,1,50,0,0
195744,-100,4,1,1,35,0,0
195908,-100,4,2,1,50,0,0
196733,-100,4,1,0,35,0,0
196897,-100,4,2,1,50,0,0
197722,-100,4,1,1,35,0,0
197886,-100,4,2,1,50,0,0
198711,-100,4,1,0,35,0,0
198875,-100,4,2,1,50,0,0
199700,-100,4,1,0,35,0,0
199864,-100,4,2,1,50,0,0
200689,-100,4,1,1,35,0,0
200853,-100,4,2,1,50,0,0
202090,-100,4,2,1,75,0,1
202749,-100,4,1,1,50,0,1
202832,-100,4,2,1,75,0,1
203656,-100,4,1,1,50,0,1
203821,-100,4,2,1,75,0,1
204645,-100,4,1,0,50,0,1
204810,-100,4,2,1,70,0,1
205634,-100,4,1,0,50,0,1
205799,-100,4,2,1,75,0,1
207612,-100,4,1,0,50,0,1
207777,-100,4,2,1,75,0,1
208601,-100,4,1,0,50,0,1
208766,-100,4,2,1,75,0,1
209342,-100,4,1,1,50,0,1
210002,-100,4,2,1,75,0,1
210579,-100,4,1,0,50,0,1
210744,-100,4,2,1,75,0,1
211650,-100,4,1,0,50,0,1
211815,-100,4,2,1,75,0,1
218161,-100,4,2,1,5,0,0
233079,-100,4,2,1,40,0,0
236705,-100,4,1,1,15,0,0
236788,-100,4,2,1,40,0,0
237612,-100,4,1,0,15,0,0
237777,-100,4,2,1,40,0,0
240002,-200,4,2,1,40,0,0
241650,-100,4,2,1,40,0,0
243958,-200,4,2,1,40,0,0
249645,-100,4,2,1,5,0,0
257474,-100,4,2,1,50,0,0

[Colours]
Combo1 : 82,175,220
Combo2 : 253,200,235
Combo3 : 238,228,162

[HitObjects]
272,272,332,6,0,B|320:200,1,80,10|0
416,40,826,2,0,B|368:112,1,80,0|2
272,272,1321,1,0
272,272,1650,6,0,B|320:200,1,80,2|0
272,272,1980,2,0,B|256:192,1,59.9999982118607,2|0
272,272,2310,2,0,B|232:232|160:256|168:312|168:312|144:304,1,160,2|0
80,272,3299,1,0
40,208,3628,2,0,B|8:216|0:232,2,40,2|0|0
40,128,3958,5,0
176,88,4123,1,2
256,192,4288,1,8
272,96,4782,5,2
256,192,4947,1,2
240,288,5606,5,2
328,256,5771,1,0
424,264,5936,2,0,B|480:280|552:248|432:200|512:336,1,160,0|2
336,232,7584,5,2
184,248,7749,1,0
232,110,7914,1,0
256,192,8244,5,4
256,192,8573,1,0
232,110,8738,1,0
160,168,8903,2,0,B|112:176|56:144|56:88,1,120,2|0
120,120,9233,2,0,B|88:80|96:48,1,80,2|0
160,168,9562,2,0,B|165:117|193:100,1,80,2|0
184,216,9892,2,0,B|224:184|256:192,1,80,2|0
352,208,10222,5,8
408,288,10386,1,2
184,216,10716,5,0
264,160,10880,1,2
104,272,11211,1,2
192,312,11375,5,0
96,176,11540,1,2
32,336,11705,1,0
192,312,11870,1,2
104,272,12200,5,8
280,352,12529,1,2
264,376,12612,2,0,B|288:320|344:312|392:336,1,120,0|2
344,136,13189,2,0,B|352:200,2,40
336,40,13518,5,2
264,104,13683,1,0
176,72,13848,1,2
248,16,14013,5,0
192,160,14178,1,8
176,192,14507,1,2
160,224,14837,1,2
144,256,15496,6,0,B|188:288|220:328|220:328|252:284|300:260,1,200,2|0
290,264,16073,1,4
256,64,31650,5,2
208,144,31815,1,0
112,152,31980,1,2
256,64,32310,5,2
160,232,32639,1,0
48,80,32969,1,2
112,152,33134,5,0
208,144,33299,1,2
256,64,33463,1,0
304,152,33628,2,0,B|368:160|400:224|312:224|360:128,2,160,2|0|0
464,240,34452,5,0
464,240,34617,2,0,B|456:296|408:328,1,80,2|0
384,224,34947,2,0,B|345:265|287:263,1,80,2|0
280,184,35277,2,0,B|224:195|178:161,1,80,2|0
264,96,35606,5,2
112,168,35771,1,0
201,175,35936,5,2
168,88,36266,1,0
264,96,36595,1,2
296,184,36925,1,0
240,264,37255,1,2
144,256,37584,1,0
112,168,37914,1,2
144,256,38244,5,2
240,264,38408,1,0
296,184,38573,1,2
264,96,38738,1,0
168,88,38902,1,2
168,88,39562,5,0
208,176,39727,1,0
296,184,39892,1,2
296,184,40551,1,2
240,264,40716,1,0
336,272,40881,1,2
256,96,41211,5,0
144,256,41540,2,0,B|80:288|48:224|48:224|24:280,1,160,2|0
30,265,42364,1,0
64,176,42529,2,0,B|96:72,1,80,2|0
112,8,42859,1,0
192,64,43024,1,0
280,24,43189,1,2
272,120,43353,5,0
280,24,43518,1,0
272,120,43683,1,0
360,80,43848,2,0,B|408:48|496:88|480:152,1,160,2|0
481,136,44507,1,0
376,296,44837,2,0,B|288:296|264:248|264:248|232:296,1,160,2|0
246,274,45332,1,0
200,360,45496,6,0,B|232:304,2,40
112,328,45826,1,2
72,240,45991,1,0
96,144,46156,1,2
176,96,46321,5,0
96,144,46485,1,2
0,152,46650,1,0
168,208,46815,5,2
64,48,46980,1,0
72,240,47145,1,2
176,96,47310,1,0
0,152,47474,1,2
384,176,47804,6,0,B|448:176|488:96|472:56,1,160,8|0
376,72,48299,2,0,B|360:24|288:16,1,80,0|0
288,112,48628,2,0,B|242:89|184:120,2,80,0|2|0
288,112,49288,5,0
240,192,49452,1,0
152,224,49617,1,0
56,216,49782,2,0,B|8:192|-8:96|104:168|-24:224,1,160,2|0
8,312,50277,5,0
56,216,50441,1,0
104,120,50605,1,0
152,224,50771,2,0,B|176:296|272:280|272:280|272:304,1,160,2|0
272,294,51430,6,0,B|336:288|352:352,1,80
440,344,51760,2,0,B|379:344|339:275|363:211,1,160,2|0
360,136,52255,1,0
416,64,52419,5,0
360,136,52584,1,0
264,160,52749,2,0,B|208:176|144:120|160:56,1,160,2|0
256,64,53244,5,0
192,136,53408,2,0,B|152:184|96:184,1,80
126,180,53738,1,2
72,104,53903,1,0
104,16,54068,1,0
104,16,54397,5,0
72,104,54562,1,0
8,176,54727,1,2
376,296,55386,6,0,B|424:296|448:336,1,80
424,232,55716,2,0,B|408:312|344:376,1,160,8|0
376,296,56211,2,0,B|328:312|288:304,1,80
200,288,56540,1,0
136,216,56705,1,2
136,216,57035,5,0
136,120,57200,1,0
216,168,57364,2,0,B|224:208|320:248|368:216,1,160,0|2
353,223,58189,1,0
304,144,58353,2,0,B|320:96|384:80,1,80
424,160,58683,1,2
424,160,59342,5,0
304,144,59507,1,0
208,208,59672,2,0,B|192:264|88:280|56:224,1,160,2|0
120,328,60167,2,0,B|120:280|152:248,1,80,0|2
146,254,60661,5,0
256,65,60991,1,2
364,255,61321,1,0
200,160,61650,5,2
256,256,61815,1,0
312,160,61980,1,2
256,65,62145,1,0
256,65,62310,6,0,B|256:16,2,40,0|4|0
200,160,62639,2,0,B|160:192|104:192,1,80,2|0
312,160,62969,2,0,B|352:192|408:192,1,80,2|0
376,96,63299,1,2
384,192,63463,1,0
352,280,63628,6,0,B|304:328|224:304|224:304|208:336,1,160,2|8
304,352,64123,2,0,B|272:304|272:256,1,80
264,184,64452,2,0,B|248:144|264:80,1,80
288,16,64782,6,0,B|304:-40|352:40|272:8,1,80
192,40,65112,1,0
96,16,65277,1,0
24,80,65441,1,0
56,168,65606,2,0,B|104:232|64:304|64:304|112:304,1,160,12|0
79,304,66101,1,0
8,240,66266,5,2
160,224,66430,1,0
304,176,66595,2,0,B|360:152|368:96,1,80,2|0
232,200,66925,6,0,B|233:139|186:108,1,80,2|0
160,224,67255,2,0,B|72:192|64:280|64:280|8:280,1,160,0|8
39,280,67914,1,0
104,352,68079,1,0
200,328,68244,2,0,B|264:360|312:304|312:304|376:328,1,160,0|2
345,316,68738,1,0
424,256,68903,6,0,B|432:320|480:336,1,80,2|0
504,176,69233,2,8,B|496:112|448:96,1,80,2|0
320,144,69562,2,0,B|264:144|232:88|256:40|256:40|232:16,1,160,2|0
336,56,70057,5,0
176,144,70222,1,0
95,307,70386,1,0
128,224,70551,6,0,B|177:205|233:285|153:285|225:213|297:221,1,160,2|2
352,184,71046,2,0,B|392:160|448:168,1,80,0|2
408,256,71375,1,0
428,166,71540,5,8
160,48,72200,2,0,B|168:104|112:144|64:104|64:104|24:128,1,160
8,200,72694,1,0
64,280,72859,1,0
160,264,73024,1,0
232,328,73189,5,2
208,176,73353,1,0
352,232,73518,2,0,B|400:216|416:160|400:120|400:120|432:128,1,160,6|0
448,216,74013,6,0,B|352:160,1,80
296,128,74342,2,0,B|248:112|232:56,1,80,0|2
352,72,74672,2,0,B|335:108|296:128,1,80,0|2
208,176,75002,2,0,B|168:200|112:192,1,80,0|2
32,184,75332,1,0
104,120,75496,6,0,B|136:168|128:208,1,80,8|0
208,328,75826,2,0,B|272:360|200:360|272:328,1,80,0|0
408,264,76156,2,0,B|456:232|520:240,1,80
408,192,76485,6,0,B|448:240|408:328|360:312,1,160,2|2
264,328,76980,2,0,B|216:312|208:256,1,80,0|2
168,184,77310,1,0
168,184,77474,2,0,B|144:216,2,40,2|0|0
168,184,77969,5,0
80,232,78134,1,8
88,136,78299,1,0
176,96,78463,2,0,B|256:48|296:120|296:120|320:104,1,160,2|2
392,56,78958,2,0,B|432:24|448:-8,1,80,0|2
445,0,79452,5,4
376,296,79782,1,0
80,232,80112,1,0
216,173,80277,1,0
72,141,80441,1,0
168,253,80606,1,0
152,101,80771,1,0
144,176,81101,5,4
256,192,81430,12,0,83244
416,144,83738,6,0,B|376:136|352:192|400:240|400:240|368:272,1,160,2|0
304,320,84233,1,0
256,240,84397,1,2
168,72,84727,5,0
136,160,84892,1,0
176,248,85057,2,0,B|220:256|276:232,1,80
352,216,85386,5,0
440,176,85551,2,0,B|400:96,1,80,0|2
272,64,85881,2,0,B|320:160,1,80
440,176,86211,1,0
307,135,86375,1,8
232,312,86705,6,0,B|176:328|96:312|80:232,1,160,0|2
232,312,87364,2,0,B|200:272|200:232,1,80
168,168,87694,2,0,B|200:208|200:248,1,80,2|0
199,240,88024,2,0,B|288:208|344:208|328:144,2,160,0|2|0
256,56,89013,5,8
352,72,89178,1,0
424,128,89342,2,0,B|464:144|472:176|472:176|472:280,1,160,0|2
424,128,90002,5,0
312,168,90167,1,0
208,232,90332,2,0,B|168:256|136:304,1,80,2|0
249,336,90661,2,0,B|289:358|347:362,1,80,0|0
330,247,90991,2,0,B|329:200|303:148,1,80,2|0
208,128,91321,6,0,B|152:144|88:136|48:96,1,160,0|8
160,64,91815,2,0,B|192:88|216:152,1,80
312,168,92145,1,0
400,96,92310,1,2
264,272,92639,1,0
56,192,92969,1,2
264,272,93299,6,0,B|296:304|360:312,1,80
264,272,93628,1,2
192,176,93793,1,0
172,56,93958,1,0
105,130,94123,2,0,B|85:166|45:202,1,80,0|8
172,56,94617,1,0
172,56,94947,1,0
172,56,95277,6,0,B|216:56|272:76,1,80
344,140,95606,2,0,B|280:120|248:64,1,120,2|0
250,68,95936,1,0
192,176,96101,1,0
104,216,96266,2,0,B|124:260|180:272|180:272|264:272,1,160,2|0
340,272,96760,1,0
436,272,96925,1,8
256,192,97255,12,0,100551
256,192,113079,12,2,114397
88,56,114727,5,0
160,120,114892,1,0
216,200,115057,1,0
312,88,115386,2,0,B|264:104|264:104|224:136|212:224,1,160,2|2
172,288,116046,2,0,B|48:288,1,120,2|0
216,200,116705,5,0
216,200,117035,1,0
344,340,117364,1,2
296,256,117529,1,0
216,200,117694,1,0
252,112,117859,5,0
156,120,118024,1,2
120,208,118189,1,0
216,200,118353,2,0,B|212:256|172:308|88:304,1,160,0|0
216,200,119013,6,2,B|264:188,3,40
340,72,119507,1,0
156,120,119837,1,0
88,56,120002,1,2
216,200,120332,1,0
300,372,120661,1,0
288,276,120826,6,0,B|320:236|324:188,1,80
404,152,121156,1,0
321,204,121321,2,0,B|304:156|316:108|316:108|384:40,1,160,2|0
404,152,121815,1,0
321,204,121980,2,0,B|308:256|276:292,1,80,2|0
216,340,122310,2,0,B|176:376|136:380|136:380|84:356,1,120
109,367,122639,1,0
136,276,122804,6,0,B|100:272|76:272,2,40
132,180,123134,2,0,B|88:168|64:120,2,80,0|2|0
152,88,123628,1,0
132,180,123793,2,2,B|88:192|52:224,1,80,0|2
256,212,124288,2,0,B|256:296,2,80
380,180,124947,6,0,B|424:192|460:224,1,80
408,304,125277,1,2
332,244,125441,2,0,B|356:196|400:164,1,80
224,292,125936,2,0,B|204:340|132:364|80:336,2,160,2|0|0
48,212,126925,6,0,B|80:252|120:268,1,80
108,264,127255,2,0,B|164:168|164:168|192:152|236:152,1,160,2|0
404,140,127914,2,0,B|348:236|348:236|320:252|276:252,2,160,2|0|0
436,48,128738,6,0,B|464:64|488:88,2,40
256,112,129233,2,0,B|256:56,2,40,2|0|0
204,192,129562,2,0,B|152:164|72:204|64:244,2,160,0|2|0
344,324,130551,5,0
204,192,130881,2,0,B|192:144|168:108,2,80,0|0|2
272,260,131375,1,0
364,228,131540,1,0
180,276,131870,2,0,B|156:324|100:348|32:332,2,160,2|0|0
364,228,132859,5,0
364,132,133024,1,0
424,56,133189,1,2
328,44,133353,1,0
364,132,133518,2,0,B|296:144|236:108|232:40,1,160,0|2
235,63,134178,1,0
235,63,134507,1,0
256,256,134837,5,0
104,136,135167,2,0,B|72:172|56:220,2,80,2|0|0
100,328,135826,1,2
196,324,135991,1,0
256,256,136156,1,0
416,152,136485,1,0
324,184,136815,6,0,B|300:120|300:120|312:92|336:76,1,120,4|0
416,152,137474,1,0
400,248,137639,2,0,B|356:280|308:284,1,80,0|2
416,152,137969,2,0,B|464:172|496:208,1,80
324,184,138299,2,0,B|324:128|340:88,1,80
196,240,138793,6,0,B|168:304|104:328|48:324,1,160,0|2
116,240,139288,2,0,B|180:232|220:248,1,80
256,316,139617,2,0,B|256:360,2,40,0|0|2
256,124,140112,5,0
396,164,140277,1,0
308,52,140441,1,0
312,196,140606,1,0
392,76,140771,1,4
392,76,141430,5,0
396,164,141760,1,2
312,196,142090,2,0,B|252:220|212:264,1,120
213,262,142419,1,0
396,164,142584,2,0,B|408:208|388:252,1,80
392,76,142914,2,0,B|436:84|476:120,1,80,0|2
320,112,143244,2,0,B|276:84,2,40
320,112,143573,1,0
320,112,143738,1,2
300,304,144068,5,0
213,262,144233,1,0
140,204,144397,2,0,B|92:168|64:104|64:104|76:52,2,160,0|0|2
176,134,145222,2,0,B|144:170|136:218,1,80
176,54,145551,2,0,B|176:134,1,80,0|2
176,134,145881,2,0,B|208:176|220:216,1,80
180,344,146211,2,0,B|148:302|136:262,1,80
140,274,146705,5,0
328,320,147035,2,0,B|376:336|448:312|476:264,2,160,2|0|2
384,240,147859,1,0
288,232,148024,1,0
204,184,148189,2,0,B|176:148|168:96,1,80
148,20,148518,1,0
240,72,148683,2,0,B|204:112|140:124|80:108,2,160,0|2|0
336,72,149507,6,0,B|336:32,2,40
392,152,149837,1,0
472,204,150002,1,2
472,100,150167,1,0
392,152,150332,1,2
392,248,150496,1,0
472,304,150661,2,4,B|472:348,2,40
148,100,151485,6,0,B|104:64,8,40,0|0|2|0|0|0|0|0|0
112,192,152310,5,2
128,284,152474,1,0
212,332,152639,2,0,B|260:348|332:324|356:276,1,160,8|2
495,231,153299,2,0,B|447:215|375:239|351:287,1,160,0|2
400,344,153958,2,0,B|360:320|352:268,1,80
309,219,154288,2,0,B|349:243|357:295,1,80,2|0
354,282,154617,2,0,B|400:248|424:188|400:132,1,160,0|2
354,283,155277,2,0,B|307:315|242:320|197:279,1,160,0|2
256,52,156266,5,2
256,52,156595,1,0
164,324,157255,2,0,B|108:316|88:276|88:276|108:200,2,160,0|2|0
348,324,158244,2,0,B|404:316|424:276|424:276|404:200,2,160,2|0|2
256,156,159233,2,0,B|256:56,1,80
256,76,159562,1,2
436,144,159892,5,0
348,180,160057,1,0
280,248,160222,1,2
352,100,160386,2,0,B|336:144|352:196,1,80,0|8
132,336,161211,6,0,B|228:336,1,80
280,248,161540,2,0,B|320:328|320:328|348:356|400:348,2,160,2|0|2
232,136,162529,2,0,B|192:56|192:56|164:28|112:36,2,160,0|2|0
232,136,163518,1,2
232,136,164178,5,2
152,188,164342,1,0
104,272,164507,2,0,B|44:248|40:156|80:120,1,160,0|2
236,228,165167,1,0
236,228,165496,2,0,B|240:284|268:312|268:312|360:312,1,160,2|0
332,216,165991,2,0,B|352:204|368:180,1,40
392,152,166156,2,0,B|420:120|440:52,1,80,2|0
336,76,166485,2,0,B|292:36|220:36|176:88,3,160,0|0|0|0
332,216,167804,6,0,B|356:248,2,40
332,216,168134,1,2
248,264,168299,1,0
156,284,168463,2,0,B|96:268|40:296|16:340,1,160,8|2
17,337,168958,2,0,B|52:360|116:360,1,80
93,359,169288,1,0
156,284,169452,6,0,B|164:222|212:181|264:172,1,160,2|0
197,123,169947,2,0,B|237:147|277:195,1,80
256,272,170277,1,0
258,174,170441,6,0,B|318:186|355:237|362:289,1,160,0|2
256,272,170936,2,0,B|256:360,2,80
258,175,171430,2,0,B|197:189|161:240|155:292,1,160,2|0
92,212,171925,6,0,B|56:184|32:128,2,80
94,58,172419,2,0,B|118:114|114:166|86:226,1,160,0|2
94,58,172914,2,0,B|130:86|154:142,1,80
256,276,173408,2,0,B|264:320|296:344|296:344|392:344,1,160,2|0
436,268,173903,2,0,B|456:232|476:216,2,40
260,188,174397,5,0
260,188,174727,1,2
400,56,175057,1,0
316,104,175222,1,0
260,188,175386,1,2
400,56,175716,2,0,B|404:120|440:168,1,120
439,167,176046,1,0
284,276,176375,6,0,B|216:288|168:240|168:184,2,160,0|2|0
439,167,177364,1,2
372,236,177529,1,0
352,332,177694,2,0,B|416:352|480:288|464:236,1,160
372,236,178189,1,0
352,144,178353,6,0,B|376:84|444:68|492:92,1,160,0|2
439,167,178848,1,0
372,236,179013,2,0,B|312:236,2,40
372,236,179342,1,2
372,236,180002,5,0
276,236,180167,1,0
184,208,180332,2,0,B|128:180|128:180|112:132|128:64,1,160,0|2
184,208,180826,2,0,B|224:160|264:140,1,80
336,320,181321,2,0,B|396:344|460:304|464:248,2,160,2|0|0
256,144,182310,2,0,B|256:96,2,40
256,192,182639,12,0,184288
392,56,185936,1,2
460,124,186101,1,0
436,216,186266,2,0,B|396:256|324:240|324:240|260:276,1,160,8|2
356,304,186760,2,0,B|312:284|268:240,1,80
244,184,187090,2,0,B|208:196|140:168,1,80,0|2
165,179,187584,5,0
176,272,187750,1,0
165,179,187914,1,2
216,96,188079,1,0
120,88,188244,2,0,B|108:121|96:176|44:194|44:194|57:244,1,160,0|2
8,136,188739,5,0
50,218,188903,1,0
32,312,189067,1,0
128,312,189233,2,0,B|176:348|250:317|269:252,1,160,2|0
262,269,189892,2,0,B|325:277|326:343,1,80,2|0
262,269,190222,6,0,B|203:286|145:232|149:164,1,160,2|0
248,176,190717,1,0
344,176,190881,1,0
384,88,191046,1,0
344,176,191211,2,0,B|401:168|455:234|429:295,1,160,2|0
344,320,191705,1,0
248,312,191870,6,0,B|208:344|143:337,1,80,2|0
152,248,192200,1,2
176,152,192365,1,0
120,80,192530,1,0
120,80,192859,5,0
176,152,193024,1,0
152,248,193189,1,2
152,248,193353,1,0
152,248,193518,1,0
304,32,193848,5,0
368,104,194013,1,0
464,128,194178,2,0,B|440:208|354:251,1,160,12|2
360,344,194672,1,0
234,114,194837,5,0
229,211,195002,1,0
280,296,195167,2,0,B|200:328|115:305,1,160,8|0
280,296,195661,1,2
122,306,195826,1,0
144,216,195991,1,0
88,136,196156,2,0,B|88:88|160:40|224:64,1,160,8|2
208,152,196650,1,0
112,128,196815,6,0,B|75:98|76:34,1,80
208,152,197145,1,2
208,152,197474,1,0
280,88,197639,1,0
352,152,197804,5,0
280,296,197969,1,0
208,152,198134,2,0,B|184:200|76:200|56:134,1,160,2|2
88,252,198629,2,0,B|99:206|138:182,1,80,0|0
100,40,199123,5,2
288,76,199453,1,2
344,260,199783,1,0
256,224,199947,1,0
196,148,200112,5,2
196,148,200442,1,2
256,224,200606,1,0
344,260,200771,6,0,B|400:232,2,40,0|0|0
272,324,201101,2,0,B|212:344|144:324,1,120,2|0
154,327,201431,2,0,B|102:303|46:339,1,80,2|0
154,327,201761,1,2
188,240,201925,1,0
100,200,202090,6,0,B|121:135|62:75|62:75|84:46,1,160,12|2
88,152,202585,2,0,B|148:136|200:148,1,80
256,104,202914,1,0
340,148,203079,1,2
436,168,203244,6,0,B|454:113|498:195|420:164,1,80
360,292,203573,1,0
220,260,203738,1,0
80,292,203902,1,0
80,292,204067,2,0,B|44:248|64:168|64:168|40:148,1,160,2|2
120,96,204562,1,0
24,216,204727,5,0
172,244,204891,1,0
316,196,205056,2,0,B|364:176|384:120,1,80,2|0
256,56,205386,2,0,B|208:76|188:132,1,80,2|0
356,268,205716,2,0,B|412:282|478:200|446:144,1,160,0|2
454,168,206211,5,0
356,268,206375,1,2
204,264,206540,2,0,B|139:233|153:160|153:160|95:125,1,160,0|2
123,142,207035,1,0
284,36,207364,1,0
348,216,207694,1,0
188,324,208024,1,2
188,324,208353,5,2
348,216,208518,1,0
284,36,208683,1,0
124,140,208848,5,0
232,208,209013,1,2
336,132,209178,2,0,B|344:176,2,40
460,160,209507,1,0
432,332,209672,5,0
344,296,209837,1,0
248,312,210002,2,0,B|173:340|115:282|115:282|101:328,1,160,4|2
110,297,210496,1,0
132,368,210661,2,0,B|176:316|188:288,1,80
156,212,210992,5,2
212,108,211156,1,0
332,124,211321,2,0,B|380:124|428:84,1,80,2|0
332,124,211650,2,0,B|347:65|308:24,1,80,0|0
332,124,211981,6,0,B|260:88|236:152|236:152|172:144,1,160,4|2
276,96,212474,2,0,B|320:116|316:180,1,80
268,244,212805,1,0
208,320,212970,2,0,B|264:366|324:328|324:328|376:316,2,160,2|0|2
208,320,213958,5,0
268,244,214123,1,0
232,156,214288,1,2
344,264,214452,2,0,B|276:244|252:240,1,80
344,264,214782,6,0,B|380:236|404:180,2,80,0|2|0
344,264,215276,2,0,B|313:229|296:180|299:114,1,160,0|2
216,164,215771,1,0
296,216,215936,1,4
80,324,216266,6,0,B|122:292|196:355|124:368|170:288|242:277,1,160,2|2
144,220,216760,1,0
216,164,216926,2,0,B|212:108|144:84|110:131|110:131|66:117,1,160,2|2
96,128,217337,1,0
96,128,217419,1,0
68,288,217585,5,0
224,248,217749,1,0
360,336,217915,1,6
256,192,218079,12,0,219892
99,208,233079,6,0,B|148:219|191:179|198:137|198:137|220:160,2,160,0|2|0
99,208,234068,2,0,B|120:296,1,80,2|0
208,260,234397,2,0,B|280:308,1,80
328,224,234727,2,0,B|368:244|392:324|371:373,2,160,2|0|2
328,224,235716,2,0,B|288:204|264:124|284:74,2,160,0|2|0
180,348,236705,6,0,B|124:328|120:244|144:240,1,120,0|0
152,296,237035,2,0,B|56:340|-4:264,1,160,2|2
332,36,237694,2,0,B|388:56|392:140|368:144,1,120
360,88,238024,2,0,B|456:44|516:120,1,160,2|2
332,192,238683,5,0
256,296,239013,1,0
184,192,239342,1,2
256,88,239672,1,0
401,304,240002,6,0,B|342:268|270:312|270:312|247:284,1,160,2|2
255,295,240991,1,0
120,104,241321,1,2
120,104,241485,1,0
120,104,241650,6,0,B|178:139|250:95|250:95|273:123,1,160,0|2
380,24,242145,1,0
344,164,242310,1,0
292,32,242474,1,0
416,108,242639,1,2
292,32,242969,5,0
344,164,243299,1,2
380,24,243628,1,0
268,116,243958,2,0,B|260:168|164:176|205:116|229:205|186:263,1,160,2|2
199,238,244947,1,0
96,180,245277,1,2
96,180,245441,1,0
96,180,245606,2,0,B|58:127|82:66|82:66|139:36|213:72,1,240,0|2
199,65,246925,1,0
308,36,247255,1,2
392,108,247584,6,0,B|410:53|454:135|376:104,1,80,0|2
356,242,248244,6,0,B|407:215|380:304|347:227,1,80,0|2
236,312,248903,6,0,B|291:330|208:374|240:296,1,80
256,192,249562,12,4,257474
