osu file format v8

[General]
AudioFilename: 1 - Chouwa ~ Fuurai no Shirabe ~ (Harmony ~ Melody of the Wind ~).mp3
AudioLeadIn: 0
PreviewTime: 55286
Countdown: 0
SampleSet: Soft
StackLeniency: 0.7
Mode: 0
LetterboxInBreaks: 0

[Editor]
DistanceSpacing: 0.8
BeatDivisor: 6
GridSize: 4

[Metadata]
Title:Chouwa ~Fuurai no Shirabe~
Artist:Akiko Shikata
Creator:Dusty
Version:Breezy
Source:
Tags:harmonia harmony melody wind

[Difficulty]
HPDrainRate:6
CircleSize:4
OverallDifficulty:6
ApproachRate:6
SliderMultiplier:1.8
SliderTickRate:0.5

[Events]
//Background and Video events
0,0,"Store.png"
//Break Periods
//Storyboard Layer 0 (Background)
//Storyboard Layer 1 (Fail)
//Storyboard Layer 2 (Pass)
//Storyboard Layer 3 (Foreground)
//Storyboard Sound Samples
//Background Colour Transformations
3,100,196,228,240

[TimingPoints]
2905,1000,3,2,1,45,1,0
4738,-100,3,2,1,20,0,0
4905,-100,3,2,1,35,0,0
4968,-100,3,2,1,34,0,0
5031,-100,3,2,1,33,0,0
5095,-100,3,2,1,32,0,0
5158,-100,3,2,1,31,0,0
5222,-100,3,2,1,30,0,0
5285,-100,3,2,1,29,0,0
5349,-100,3,2,1,28,0,0
5412,-100,3,2,1,27,0,0
5476,-100,3,2,1,26,0,0
5539,-100,3,2,1,25,0,0
5603,-100,3,2,1,24,0,0
5666,-100,3,2,1,23,0,0
5730,-100,3,2,1,22,0,0
5793,-100,3,2,1,21,0,0
5857,-100,3,2,1,20,0,0
5920,-100,3,2,1,19,0,0
5984,-100,3,2,1,18,0,0
6047,-100,3,2,1,17,0,0
6111,-100,3,2,1,16,0,0
6174,-100,3,2,1,15,0,0
7238,-100,3,2,1,45,0,0
8571,-100,3,2,1,30,0,0
9238,-100,3,2,1,45,0,0
16904,-100,3,2,1,30,0,0
16905,-100,3,2,1,45,0,0
16948,-100,3,2,1,44,0,0
16991,-100,3,2,1,43,0,0
17035,-100,3,2,1,42,0,0
17078,-100,3,2,1,41,0,0
17122,-100,3,2,1,40,0,0
17165,-100,3,2,1,39,0,0
17209,-100,3,2,1,38,0,0
17252,-100,3,2,1,37,0,0
17296,-100,3,2,1,36,0,0
17339,-100,3,2,1,35,0,0
17383,-100,3,2,1,34,0,0
17426,-100,3,2,1,33,0,0
17470,-100,3,2,1,32,0,0
17513,-100,3,2,1,31,0,0
17557,-100,3,2,1,30,0,0
17600,-100,3,2,1,29,0,0
17644,-100,3,2,1,28,0,0
17687,-100,3,2,1,27,0,0
17731,-100,3,2,1,26,0,0
17774,-100,3,2,1,25,0,0
17818,-100,3,2,1,24,0,0
17861,-100,3,2,1,23,0,0
17905,-100,3,2,1,22,0,0
17948,-100,3,2,1,21,0,0
17991,-100,3,2,1,20,0,0
18035,-100,3,2,1,19,0,0
18078,-100,3,2,1,18,0,0
18122,-100,3,2,1,17,0,0
18165,-100,3,2,1,16,0,0
18209,-100,3,2,1,15,0,0
18252,-100,3,2,1,14,0,0
18296,-100,3,2,1,13,0,0
18339,-100,3,2,1,12,0,0
18383,-100,3,2,1,11,0,0
18426,-100,3,2,1,10,0,0
18470,-100,3,2,1,9,0,0
18513,-100,3,2,1,8,0,0
18557,-100,3,2,1,7,0,0
18600,-100,3,2,1,6,0,0
18644,-100,3,2,1,5,0,0
18687,-100,3,2,1,4,0,0
18731,-100,3,2,1,3,0,0
18774,-100,3,2,1,2,0,0
18818,-100,3,2,1,1,0,0
18861,-100,3,2,1,0,0,0
20904,-100,3,2,1,30,0,0
31905,-100,3,2,1,0,0,0
32071,-100,3,2,1,30,0,0
38938,-100,3,2,1,29,0,0
38971,-100,3,2,1,28,0,0
39005,-100,3,2,1,27,0,0
39038,-100,3,2,1,26,0,0
39071,-100,3,2,1,25,0,0
39105,-100,3,2,1,24,0,0
39138,-100,3,2,1,23,0,0
39171,-100,3,2,1,22,0,0
39205,-100,3,2,1,21,0,0
39238,-100,3,2,1,20,0,0
39271,-100,3,2,1,19,0,0
39305,-100,3,2,1,18,0,0
39338,-100,3,2,1,17,0,0
39371,-100,3,2,1,16,0,0
39405,-100,3,2,1,15,0,0
39438,-100,3,2,1,14,0,0
39471,-100,3,2,1,13,0,0
39505,-100,3,2,1,12,0,0
39538,-100,3,2,1,11,0,0
39571,-100,3,2,1,10,0,0
39605,-100,3,2,1,9,0,0
39638,-100,3,2,1,8,0,0
39671,-100,3,2,1,7,0,0
39705,-100,3,2,1,6,0,0
39738,-100,3,2,1,5,0,0
39771,-100,3,2,1,4,0,0
39805,-100,3,2,1,3,0,0
39838,-100,3,2,1,2,0,0
39871,-100,3,2,1,1,0,0
39905,-100,3,2,1,0,0,0
40071,-100,3,2,1,40,0,0
40786,-100,3,2,1,45,0,0
41119,-100,3,2,1,50,0,0
41452,-100,3,2,1,55,0,0
41904,-50,3,2,1,60,0,1
41905,-50,3,2,1,60,0,0
57905,-50,3,2,1,60,0,1
71905,-50,3,2,1,40,0,1
72005,-50,3,2,1,41,0,1
72105,-50,3,2,1,42,0,1
72205,-50,3,2,1,43,0,1
72305,-50,3,2,1,44,0,1
72405,-50,3,2,1,45,0,1
72505,-50,3,2,1,46,0,1
72605,-50,3,2,1,47,0,1
72705,-50,3,2,1,48,0,1
72805,-50,3,2,1,49,0,1
72905,-50,3,2,1,50,0,1
73005,-50,3,2,1,51,0,1
73105,-50,3,2,1,52,0,1
73205,-50,3,2,1,53,0,1
73305,-50,3,2,1,54,0,1
73405,-50,3,2,1,55,0,1
73505,-50,3,2,1,56,0,1
73605,-50,3,2,1,57,0,1
73705,-50,3,2,1,58,0,1
73805,-50,3,2,1,59,0,1
73905,-50,3,2,1,60,0,1
74005,-50,3,2,1,61,0,1
74105,-50,3,2,1,62,0,1
74205,-50,3,2,1,63,0,1
74305,-50,3,2,1,64,0,1
74405,-50,3,2,1,65,0,1
74505,-50,3,2,1,66,0,1
74605,-50,3,2,1,67,0,1
74705,-50,3,2,1,68,0,1
74805,-50,3,2,1,69,0,1
74905,-50,3,2,1,70,0,1
75005,-50,3,2,1,71,0,1
75105,-50,3,2,1,72,0,1
75205,-50,3,2,1,73,0,1
75305,-50,3,2,1,74,0,1
75405,-50,3,2,1,75,0,1
75505,-50,3,2,1,76,0,1
75605,-50,3,2,1,77,0,1
75705,-50,3,2,1,78,0,1
75805,-50,3,2,1,79,0,1
75905,-50,3,2,1,80,0,0

[HitObjects]
368,232,2905,2,0,B|356:336|252:360|156:336|144:232|144:232|144:224,1,330,0|0
256,192,4905,12,0,6238
376,112,7571,5,2
256,32,8238,1,0
136,112,8905,1,4
256,176,11571,5,2
168,232,12071,1,0
160,128,12571,1,0
72,184,13071,6,0,B|72:64|128:0|256:-16|384:0|440:64|440:184|440:184|440:192,1,570,2|0
256,192,16905,12,0,18905
176,88,21905,6,0,B|280:112|168:192|256:280|344:192|232:112|336:88|336:88|344:88,1,300,2|0
408,112,23905,1,0
368,180,24238,1,2
408,248,24571,1,0
328,248,24905,2,0,B|312:296|255:301|200:296|184:248|184:248|184:240,1,180,2|0
256,212,26238,2,0,B|256:132,2,60,0|0|2
256,360,27571,1,2
256,360,27738,1,0
120,352,28238,5,2
168,288,28571,1,0
88,272,28905,2,0,B|88:88,1,180,0|2
424,242,31071,6,0,B|424:92,1,150,2|0
464,24,32238,1,2
384,24,32571,1,0
424,92,32905,6,0,B|424:280,1,180,2|0
424,348,34238,1,0
352,380,34571,1,0
268,368,34905,6,0,B|252:284|252:284|348:244|340:96|212:96,1,360,2|0
256,192,37905,12,0,39904
256,8,40238,5,8
208,72,40571,1,8
304,104,40905,1,8
256,192,41238,1,8
256,304,41571,1,8
112,304,41904,6,0,B|136:392|256:416|376:392|400:304|400:304|400:296,1,360,12|0
376,184,43238,1,2
376,184,43571,2,0,B|248:184,1,120,2|8
136,184,44238,1,2
136,184,44571,2,0,B|264:184,1,120,2|8
256,116,45071,1,0
256,48,45238,1,0
144,32,45571,5,0
80,60,45738,1,0
88,128,45905,2,0,B|88:264,1,120,2|0
144,328,46571,1,0
224,360,46904,1,2
296,316,47238,2,0,B|304:244|240:184,1,120
244,120,47904,2,0,B|236:48|300:-12,1,120,2|0
368,48,48571,6,0,B|456:72|480:192|456:312|368:336|368:336|360:336,1,360,12|0
304,360,49738,1,0
256,312,49905,2,0,B|256:176,1,120,2|2
256,72,50571,1,0
256,72,50905,2,0,B|256:208,1,120,8|8
256,312,51571,1,0
144,336,51905,6,0,B|56:312|32:192|56:72|144:48|144:48|152:48,1,360,2|0
208,132,53238,2,2,B|224:100|256:92|288:100|304:132|304:132|304:140,1,120
176,192,53905,5,2
240,192,54071,1,0
208,252,54238,2,0,B|224:284|256:292|288:284|304:252|304:252|304:244,1,120,2|0
336,192,54738,1,0
400,192,54905,1,2
360,320,55238,5,2
256,360,55571,1,0
152,320,55905,5,12
108,268,56071,1,0
104,200,56238,1,8
128,136,56405,1,0
192,112,56571,1,0
260,124,56738,1,0
256,192,56905,5,8
252,260,57071,1,0
320,272,57238,1,8
384,248,57405,1,0
408,184,57571,1,0
404,116,57738,1,0
360,64,57905,6,0,B|328:8|256:8|184:8|152:64|152:64|152:72,1,240,4|0
256,128,58905,1,0
384,208,59238,1,0
320,200,59405,1,0
256,224,59571,1,2
192,200,59738,1,0
128,208,59905,2,2,B|136:312|256:336|376:312|384:208|384:208|384:200,1,360
224,68,61571,5,0
288,68,61738,1,0
256,8,61905,2,0,B|256:224,1,180,2|0
256,256,62571,1,0
328,112,62905,5,0
184,112,63238,1,8
328,256,63571,5,0
184,256,63905,1,2
288,324,64238,5,8
224,324,64404,1,0
256,384,64571,2,0,B|256:216,1,120,0|2
256,96,65404,5,0
256,96,65571,1,0
312,192,65905,2,0,B|392:192|416:96,2,120,2|0|2
200,192,66905,2,0,B|120:192|96:280,2,120,6|0|2
184,72,67905,6,0,B|88:80|0:144|-8:264,1,240,2|0
32,328,68905,1,2
136,376,69238,1,0
256,376,69571,1,8
256,240,69904,6,0,B|256:116,2,120,2|2|0
140,184,70904,1,2
372,184,71571,1,0
256,192,71905,12,4,75904
