osu file format v9

[General]
AudioFilename: Akiko Shikata - Akakakushi.mp3
AudioLeadIn: 0
PreviewTime: 61840
Countdown: 0
SampleSet: Normal
StackLeniency: 0.7
Mode: 0
LetterboxInBreaks: 0

[Editor]
DistanceSpacing: 1
BeatDivisor: 4
GridSize: 4

[Metadata]
Title:Akakakushi
Artist:Akiko Shikata
Creator:Beren
Version:Yue
Source:Akaya Akashiya Ayakashino
Tags:vivicat Inori no Kanata Haccaworks

[Difficulty]
HPDrainRate:7
CircleSize:4
OverallDifficulty:7
ApproachRate:7
SliderMultiplier:2
SliderTickRate:2

[Events]
//Background and Video events
0,0,"BG.jpg"
//Break Periods
2,98678,117224
2,185757,201117
//Storyboard Layer 0 (Background)
//Storyboard Layer 1 (Fail)
//Storyboard Layer 2 (Pass)
//Storyboard Layer 3 (Foreground)
//Storyboard Sound Samples
//Background Colour Transformations
3,100,163,162,255

[TimingPoints]
695,530.973451327434,4,2,1,30,1,0
13592,-100,4,2,1,20,0,0
13990,-100,4,2,1,25,0,0
14367,-100,4,2,1,40,0,0
17375,-100,4,2,1,20,0,0
34366,-100,4,1,1,30,0,0
35075,-100,4,2,0,30,0,0
35274,-100,4,1,1,30,0,0
36137,-100,4,2,0,30,0,0
36336,-100,4,1,1,30,0,0
37199,-100,4,2,0,30,0,0
37398,-100,4,1,1,30,0,0
38649,-100,4,2,1,30,0,0
42897,-100,4,1,1,30,0,0
43526,-100,4,2,0,30,0,0
43791,-100,4,1,1,30,0,0
44588,-100,4,2,0,30,0,0
44853,-100,4,1,1,30,0,0
45650,-100,4,2,0,30,0,0
45915,-100,4,1,1,30,0,0
47144,-100,4,2,1,30,0,0
51357,-133.333333333333,4,2,1,20,0,0
51888,-133.333333333333,4,2,1,10,0,0
52419,-133.333333333333,4,2,1,15,0,0
52950,-133.333333333333,4,2,1,10,0,0
56978,571.428571428571,4,2,1,10,1,0
58692,845.070422535211,4,2,1,10,1,0
60248,530.973451327434,4,1,1,40,1,0
60384,-100,4,2,1,50,0,0
61579,-100,4,1,1,30,0,0
62728,-100,4,2,0,40,0,0
62993,-100,4,1,1,40,0,0
63790,-100,4,2,0,40,0,0
64055,-100,4,1,1,40,0,0
64894,-100,4,2,0,40,0,0
65093,-100,4,1,1,40,0,0
65955,-100,4,2,0,40,0,0
66155,-100,4,1,1,40,0,0
66976,-100,4,2,0,40,0,0
67241,-100,4,1,1,40,0,0
68037,-100,4,2,0,40,0,0
68303,-100,4,1,1,40,0,0
69099,-100,4,2,0,40,0,0
69365,-100,4,1,1,40,0,0
70161,-100,4,2,0,40,0,0
70427,-100,4,1,1,40,0,0
71223,-100,4,2,0,40,0,0
71489,-100,4,1,1,40,0,0
72327,-100,4,2,0,40,0,0
72526,-100,4,1,1,40,0,0
73389,-100,4,2,0,40,0,0
73588,-100,4,1,1,40,0,0
74451,-100,4,2,0,40,0,0
74650,-100,4,1,1,40,0,0
75513,-100,4,2,0,40,0,0
75778,-100,4,1,1,40,0,0
76533,-100,4,2,0,40,0,0
76799,-100,4,1,1,40,0,0
77595,-100,4,2,0,40,0,0
77860,-100,4,1,1,40,0,0
78524,-100,4,2,0,40,0,0
78898,-100,4,1,1,40,0,0
79719,-100,4,2,0,40,0,0
79984,-100,4,1,1,40,0,0
80781,-100,4,2,0,40,0,0
81022,-100,4,1,1,40,0,0
81843,-100,4,2,0,40,0,0
82108,-100,4,1,1,40,0,0
82772,-100,4,2,0,40,0,0
83146,-100,4,1,1,40,0,0
83967,-100,4,2,0,40,0,0
84232,-100,4,1,1,40,0,0
85029,-100,4,2,0,40,0,0
85270,-100,4,1,1,40,0,0
86091,-100,4,2,0,40,0,0
86332,-100,4,1,1,40,0,0
87020,-100,4,2,0,40,0,0
87394,-100,4,1,1,40,0,0
88214,-100,4,2,0,40,0,0
88480,-100,4,1,1,40,0,0
89276,-100,4,2,0,40,0,0
89542,-100,4,1,1,40,0,0
90338,-100,4,2,0,40,0,0
90604,-100,4,1,1,40,0,0
91268,-100,4,2,0,40,0,0
91641,-100,4,1,1,40,0,0
92462,-100,4,2,0,40,0,0
92728,-100,4,1,1,40,0,0
93524,-100,4,2,0,40,0,0
93765,-100,4,1,1,40,0,0
94586,-100,4,2,0,40,0,0
94852,-100,4,1,1,40,0,0
95648,-100,4,2,0,40,0,0
96221,-100,4,2,0,20,0,0
117816,-100,4,1,1,30,0,0
132153,-100,4,2,1,20,0,0
149144,-100,4,2,1,30,0,0
165737,-100,4,1,1,30,0,0
166799,-100,4,2,0,40,0,0
167064,-100,4,1,1,40,0,0
167860,-100,4,2,0,40,0,0
168101,-100,4,1,1,40,0,0
168922,-100,4,2,0,40,0,0
169188,-100,4,1,1,40,0,0
169852,-100,4,2,0,40,0,0
170225,-100,4,1,1,40,0,0
171046,-100,4,2,0,40,0,0
171312,-100,4,1,1,40,0,0
172108,-100,4,2,0,40,0,0
172374,-100,4,1,1,40,0,0
173170,-100,4,2,0,40,0,0
173436,-100,4,1,1,40,0,0
174099,-100,4,2,0,40,0,0
174473,-100,4,1,1,40,0,0
175294,-100,4,2,0,40,0,0
175560,-100,4,1,1,40,0,0
176356,-100,4,2,0,40,0,0
176622,-100,4,1,1,40,0,0
177418,-100,4,2,0,40,0,0
177683,-100,4,1,1,40,0,0
178347,-100,4,2,0,40,0,0
178721,-100,4,1,1,40,0,0
179409,-100,4,2,0,40,0,0
179807,-100,4,1,1,40,0,0
180604,-100,4,2,0,40,0,0
180869,-100,4,1,1,40,0,0
181666,-100,4,2,0,40,0,0
181931,-100,4,1,1,40,0,0
182595,-100,4,2,0,40,0,0
182993,-100,4,1,1,40,0,0
183367,-100,4,1,1,20,0,0
201733,-200,4,2,1,20,0,0
219141,-200,4,2,1,25,0,0
220981,-200,4,1,1,30,0,0
221512,-100,4,1,0,30,0,0
221777,-100,4,1,1,30,0,0
222020,-100,4,2,0,40,0,0
222285,-100,4,1,1,40,0,0
223082,-100,4,2,0,40,0,0
223347,-100,4,1,1,40,0,0
224144,-100,4,2,0,40,0,0
224409,-100,4,1,1,40,0,0
225206,-100,4,2,0,40,0,0
225447,-100,4,1,1,40,0,0
226268,-100,4,2,0,40,0,0
226533,-100,4,1,1,40,0,0
227330,-100,4,2,0,40,0,0
227595,-100,4,1,1,40,0,0
228391,-100,4,2,0,40,0,0
228657,-100,4,1,1,40,0,0
229453,-100,4,2,0,40,0,0
229719,-100,4,1,1,40,0,0
230515,-100,4,2,0,40,0,0
230781,-100,4,1,1,40,0,0
231577,-100,4,2,0,40,0,0
231843,-100,4,1,1,40,0,0
232639,-100,4,2,0,40,0,0
232880,-100,4,1,1,40,0,0
233701,-100,4,2,0,40,0,0
233942,-100,4,1,1,40,0,0
234763,-100,4,2,0,40,0,0
235029,-100,4,1,1,40,0,0
235825,-100,4,2,0,40,0,0
236091,-100,4,1,1,40,0,0
236887,-100,4,2,0,40,0,0
237153,-100,4,1,1,40,0,0
237949,-100,4,2,0,40,0,0
238214,-100,4,1,1,40,0,0
238522,-100,4,1,1,20,0,0

[Colours]
Combo1 : 193,132,255
Combo2 : 244,179,81
Combo3 : 207,20,20
Combo4 : 0,128,128

[HitObjects]
256,124,13438,1,8
184,256,13836,1,0
328,256,14234,1,2
256,192,14500,12,8,17155
64,64,17686,5,6
96,168,17951,1,0
200,136,18217,1,0
232,240,18482,1,0
336,208,18748,2,0,B|352:152|392:104,1,100,8|0
336,208,19279,5,4
448,208,19544,1,0
308,312,19810,1,8
476,312,20075,1,0
336,208,20341,1,0
392,368,20606,1,0
308,312,20871,2,0,B|304:376|244:400|160:376|184:272,1,200,8|0
88,48,21933,5,4
32,144,22199,1,0
104,224,22464,1,8
208,192,22730,1,0
192,80,22995,2,0,B|296:64|296:64|416:84,1,200
208,192,24057,5,0
304,144,24323,1,0
384,216,24588,1,4
320,312,24854,1,0
208,304,25119,2,0,B|104:320|104:320|-16:300,1,200,8|0
208,192,26181,5,8
112,136,26447,1,0
208,192,26712,1,4
192,80,26978,1,0
208,192,27243,2,0,B|172:224|172:224|104:256,1,100,8|0
192,80,27774,2,0,B|228:48|228:48|296:16,1,100,0|0
280,136,28305,5,8
440,192,28571,1,0
312,296,28836,1,4
344,208,29102,1,0
248,224,29367,2,0,B|216:256|216:296|216:312|216:312|172:292|112:312,1,200
64,96,30429,5,4
80,208,30694,1,0
176,240,30960,1,8
152,144,31225,1,0
160,44,31491,2,0,B|184:68|220:76|220:76|260:120|288:192,1,200
288,280,32553,5,0
392,312,32818,1,0
368,208,33084,1,4
272,180,33349,1,0
196,244,33615,2,0,B|124:256|124:256|84:208|88:124,1,200
40,40,34677,5,12
88,136,34942,1,0
192,96,35208,1,8
240,72,35341,1,0
296,72,35473,1,0
264,176,35739,5,8
160,224,36004,1,0
48,240,36270,1,8
64,288,36402,1,0
104,328,36535,1,0
216,328,36801,5,8
316,276,37066,1,0
264,176,37332,1,8
316,164,37464,1,0
368,176,37597,1,0
316,276,37863,2,0,B|352:312|416:344,2,100,4|4|4
200,88,38925,5,8
45,158,39190,1,0
87,46,39456,1,0
157,200,39721,1,0
200,88,39987,2,0,B|232:40|292:12,2,100,8|0|0
304,128,40783,5,0
264,232,41048,2,0,B|224:264|224:264|192:320,1,100,4|0
304,336,41579,2,0,B|344:304|344:304|376:248,1,100,8|0
264,232,42110,2,0,B|200:152|200:152|88:88,1,200
64,320,43172,5,8
96,272,43305,1,0
136,232,43438,1,0
176,336,43703,1,8
288,344,43969,1,0
264,232,44234,5,8
248,176,44367,1,0
216,128,44500,1,0
104,120,44765,1,8
168,28,45031,1,0
216,128,45296,5,8
256,96,45429,1,0
280,48,45562,1,0
376,104,45827,1,8
480,128,46093,1,0
376,104,46358,2,0,B|432:0,2,100,4|4|4
480,296,47420,5,8
408,208,47686,1,0
496,312,47951,1,0
392,192,48217,1,0
376,312,48482,2,0,B|320:360|320:360|288:360,2,100,8|0|0
280,256,49279,5,0
192,192,49544,1,4
296,144,49810,1,0
208,72,50075,2,0,B|160:48|160:48|128:-8,1,100,8|0
296,144,50606,2,0,B|344:168|344:168|376:224,2,100
112,240,51668,6,0,B|152:312|240:352,1,149.999995529652,2|0
400,144,52730,2,0,B|360:72|272:32,1,149.999995529652,2|0
160,200,53792,5,2
320,256,54057,1,0
224,112,54323,1,0
224,280,54588,1,0
320,144,54854,2,0,B|360:120|400:72,2,74.9999977648259,2|0|0
224,280,55916,6,0,B|200:320|152:360,2,74.9999977648259,2|0|0
160,80,56978,1,2
256,128,57263,1,0
352,80,57549,1,0
256,32,57835,1,0
256,128,58120,5,2
256,232,58406,1,0
256,336,58692,6,0,B|368:336,1,100,0|0
256,336,59325,2,0,B|248:328|248:328|240:344|240:344|232:328|232:328|224:344|224:344|216:328|216:328|208:344|208:344|200:328|200:328|192:344|192:344|184:328|184:328|176:344|176:344|168:328|168:328|160:344|160:344|152:336|152:336|152:336,1,200,0|0
256,64,60513,6,0,B|256:192,1,100,2|0
256,164,61309,1,4
448,320,61840,5,2
424,272,61973,1,0
392,232,62106,1,0
336,328,62371,6,0,B|296:360|240:376,1,100,12|0
232,232,62902,2,0,B|180:235|125:216,1,100,8|0
200,96,63433,2,0,B|156:69|122:22,1,100,0|0
200,96,63964,5,8
304,144,64230,1,0
288,32,64495,1,8
392,72,64761,1,0
304,144,65026,1,8
224,208,65292,1,0
200,96,65557,2,0,B|176:48|184:0,1,100,0|0
288,32,66088,5,8
304,88,66221,1,0
304,144,66354,1,0
224,208,66619,2,0,B|168:216|128:256,2,100,8|0|8
224,320,67416,1,0
308,248,67681,2,0,B|337:296|331:352,2,100,0|0|8
308,136,68478,5,0
408,192,68743,2,0,B|456:192,2,50,8|0|0
404,80,69274,1,8
408,192,69540,1,0
308,248,69805,2,0,B|288:288|248:328,1,100,0|0
176,208,70336,5,8
256,56,70601,1,0
88,64,70867,2,0,B|40:48|0:8,2,100,12|0|8
174,110,71663,5,0
176,208,71929,2,0,B|229:193|260:152,1,100
348,108,72460,1,8
368,208,72725,1,0
348,108,72991,5,8
444,140,73256,1,0
368,208,73522,1,8
328,304,73787,1,0
224,268,74053,2,0,B|184:300|120:312,1,100,0|0
140,200,74584,5,8
88,112,74849,1,0
200,104,75115,2,0,B|240:72|304:60,2,100,8|0|8
288,176,75911,5,0
224,268,76177,2,0,B|184:300|120:312,1,100,0|0
256,192,76708,5,8
400,104,76973,1,0
400,272,77239,2,0,B|440:320,2,50,8|0|0
472,188,77770,5,8
292,88,78035,1,0
292,288,78301,1,0
292,88,78832,5,8
248,56,78964,1,0
192,40,79097,1,0
200,152,79363,2,0,B|160:184|128:232,1,100,8|0
35,203,79894,2,0,B|82:221|140:225,1,100,8|0
162,320,80424,2,0,B|154:269|128:217,1,100,0|0
200,152,80955,1,8
200,152,81221,1,0
256,64,81486,5,8
256,176,81752,1,0
312,88,82017,1,8
200,88,82283,1,0
312,152,82548,1,0
120,256,83079,5,8
200,320,83345,1,0
216,208,83610,2,0,B|264:232|264:232|320:288,2,100,8|0|8
120,256,84407,5,0
128,144,84672,2,0,B|168:112|168:112|232:96,1,100,0|0
312,152,85203,1,8
312,152,85469,1,0
256,312,85734,5,8
200,152,86000,1,0
160,256,86265,1,8
208,232,86398,1,0
256,224,86531,1,0
304,232,86663,1,0
352,256,86796,1,0
256,56,87327,6,0,B|200:0,2,50,8|0|0
416,120,87858,2,0,B|432:176|432:232,2,100,12|0|8
256,192,88655,1,0
96,264,88920,2,0,B|80:208|80:152,1,100,0|0
256,192,89451,2,0,B|272:248|272:304,1,100,8|0
176,336,89982,5,8
156,228,90247,1,0
112,328,90513,1,8
208,276,90778,1,0
96,264,91044,1,0
316,276,91575,5,8
264,192,91840,1,0
176,120,92106,2,0,B|120:104|72:56,2,100,12|0|8
176,8,92902,5,0
176,120,93168,2,0,B|232:104|280:56,1,100,0|0
360,128,93699,1,8
420,212,93964,1,0
300,232,94230,5,8
180,252,94495,1,0
288,308,94761,1,8
232,200,95026,1,0
212,320,95292,2,0,B|184:340|168:344|168:344|136:324|120:288,3,100,0|0|8|0
256,192,96354,12,0,98478
256,144,118124,6,0,B|224:104|168:64,1,100,10|0
312,232,118655,2,0,B|362:224|425:195,1,100
208,232,119186,2,0,B|189:279|182:348,2,100
208,232,120247,5,10
304,152,120778,1,0
200,124,121309,5,0
216,336,121575,1,0
400,184,121840,1,10
64,192,122371,6,0,B|72:240|112:296,1,100,10|0
103,283,122902,2,0,B|152:304|200:344,1,100
188,334,123433,2,0,B|240:312|280:272,1,100
184,208,123964,6,0,B|184:152,2,50
272,280,124495,1,10
272,280,125026,1,0
332,88,125557,2,0,B|380:104|420:152,1,100
413,144,126088,1,10
200,92,126619,5,8
256,284,127150,1,0
224,188,127416,1,0
304,248,127681,1,0
208,248,127947,1,0
288,188,128212,1,0
448,68,128743,5,10
256,120,129274,1,0
256,152,129540,1,0
256,180,129805,1,0
256,212,130071,1,2
256,96,132460,6,0,B|208:112|168:144,1,100,2|0
256,208,132991,2,0,B|304:192|344:160,1,100,8|0
256,96,133522,6,0,B|224:32,2,50,4|0|0
256,208,134053,2,0,B|272:256|304:296,1,100
368,200,134584,5,0
416,296,134849,1,0
304,296,135115,1,0
368,200,135380,1,0
256,208,135646,1,0
256,208,136177,5,2
256,208,136708,6,0,B|216:240|144:264,1,100,8|0
168,144,137239,2,0,B|160:93|175:19,1,100,4|0
272,96,137770,2,0,B|319:114|376:164,1,100
170,44,138301,5,2
168,255,138566,1,2
56,264,138832,6,0,B|72:312|72:312|120:368,1,100,0|0
280,248,139363,2,0,B|264:200|264:200|216:144,1,100,0|0
168,255,139894,1,0
120,168,140159,1,0
168,72,140424,2,0,B|208:40|256:24|256:24|312:40|360:88,1,200,0|10
392,168,141221,5,0
280,168,141486,2,0,B|288:224|344:280,1,100,8|0
504,168,142017,2,0,B|496:112|440:56,1,100,4|0
392,284,142548,2,0,B|448:276|504:220,1,100
392,52,143079,6,0,B|336:60|280:116,1,100,8|0
256,192,143610,1,0
192,104,143876,1,0
144,200,144141,1,0
256,192,144407,5,2
156,148,144672,1,2
168,256,144938,1,2
256,320,145203,5,0
368,320,145469,1,0
368,192,145734,1,8
256,256,146000,1,0
368,256,146265,2,0,B|424:256,2,50,4|0|0
276,196,146796,5,0
344,112,147062,1,0
256,176,147327,1,8
256,64,147593,1,0
236,196,147858,1,0
168,112,148124,1,0
256,216,148389,2,0,B|256:336,2,100,8|0|0
72,96,149451,6,0,B|40:48,2,50,2|0|0
48,200,149982,2,0,B|0:232,2,50
152,224,150513,2,0,B|184:272,2,50,2|0|0
176,120,151044,2,0,B|224:88,2,50
152,224,151575,6,0,B|176:272|232:320,1,100,4|0
260,204,152106,2,0,B|296:168|360:144,1,100,8|0
356,260,152637,1,0
336,360,152902,1,0
356,260,153168,2,0,B|408:240|448:200,1,100,0|0
345,151,153699,5,2
256,72,153964,1,0
128,40,154230,1,0
200,160,154495,1,0
256,256,154761,2,0,B|240:312|192:360,1,100,2|0
144,248,155292,2,0,B|80:216,2,50
200,160,155823,5,4
256,144,155955,1,0
312,160,156088,1,0
368,64,156354,2,0,B|408:24|464:0,1,100,8|0
368,64,156885,2,0,B|408:104|432:168,1,100,0|0
423,146,157283,1,0
423,146,157416,1,12
256,296,157947,6,0,B|308:288|356:256,1,100,2|0
256,296,158478,2,0,B|204:288|156:256,1,100
56,280,159009,1,2
96,176,159274,1,0
56,72,159540,1,0
168,88,159805,1,0
200,192,160071,6,0,B|248:168|280:104,1,100,4|0
248,16,160601,2,0,B|304:16|360:56,1,100,8|0
343,44,161132,1,0
343,44,161398,1,0
448,64,161663,2,0,B|424:112|368:160,1,100
312,224,162194,5,2
387,142,162460,1,0
416,248,162725,2,0,B|448:288|456:352,1,100
344,328,163256,1,2
312,280,163389,1,0
312,224,163522,1,0
344,328,163787,2,0,B|304:360|256:376,1,100
200,280,164318,5,4
104,224,164584,1,0
104,336,164849,1,8
200,168,165115,1,8
104,112,165380,2,0,B|144:64|208:48,1,100
200,168,165911,5,2
256,184,166044,1,0
296,224,166177,1,0
344,128,166442,2,0,B|368:80|408:40,1,100,8|0
448,144,166973,2,0,B|424:192|384:232,1,100,8|0
344,128,167504,2,0,B|296:104|256:64,1,100,0|0
448,144,168035,2,0,B|480:152|504:176,2,50,8|0|0
384,232,168566,5,8
256,312,168832,1,0
128,232,169097,1,8
180,92,169363,1,0
332,92,169628,1,0
196,264,170159,6,0,B|160:312,2,50,8|0|0
153,162,170690,2,0,B|101:138|64:104,2,100,8|0|8
256,208,171486,1,0
359,162,171752,2,0,B|411:138|448:104,1,100,0|0
352,56,172283,5,8
248,96,172548,1,0
352,56,172814,2,0,B|400:32,2,50,8|0|0
352,224,173345,1,8
184,256,173610,1,0
88,120,173876,1,0
272,248,174407,5,8
304,288,174540,1,0
352,312,174672,1,0
376,208,174938,2,0,B|416:176|448:128,2,100,8|0|8
336,104,175734,1,0
296,0,176000,2,0,B|256:32|224:80,2,100,0|0|8
336,104,176796,1,0
256,176,177062,5,8
228,73,177327,1,0
305,150,177593,5,8
228,300,177858,1,0
136,160,178124,1,0
332,260,178655,6,0,B|376:312,2,50,8|0|0
228,300,179186,2,0,B|120:288|40:224,1,200,8|8
136,160,179982,1,0
44,227,180247,2,0,B|24:176|28:104,1,100,0|0
27,128,180778,1,8
108,52,181044,1,0
216,80,181309,5,8
248,184,181575,1,0
136,160,181840,1,8
156,268,182106,1,0
248,184,182371,2,0,B|312:264|408:312,1,200,0|8
402,309,183168,1,0
402,309,183433,1,0
256,192,183566,12,10,185557
256,72,202017,5,2
256,72,202283,1,0
184,144,202548,2,0,B|112:232,1,100,0|0
256,216,203345,1,0
256,216,203610,2,0,B|256:288,1,50
256,72,204141,5,2
256,72,204407,1,0
328,144,204672,2,0,B|400:232,1,100,8|0
256,216,205469,1,0
256,216,205734,2,0,B|256:328,1,100,4|0
256,216,206531,5,0
176,160,206796,1,8
208,64,207062,1,0
304,64,207327,1,0
336,160,207593,1,0
256,132,207858,1,4
144,296,208389,5,0
144,296,208655,1,0
144,192,208920,2,0,B|128:128|152:72,1,100,8|0
256,192,209717,1,0
368,192,209982,2,0,B|384:256|360:312,1,100,4|0
256,192,210778,1,0
184,120,211044,5,8
256,56,211309,1,0
328,120,211575,1,0
256,192,211840,2,0,B|256:296,1,100
256,192,212637,5,4
256,192,212902,1,0
256,288,213168,2,0,B|216:288|216:288|192:280|192:280|152:280,1,100,8|0
104,192,213964,1,0
158,108,214230,2,0,B|198:108|198:108|222:116|222:116|262:116,1,100,4|0
360,112,215026,1,0
424,192,215292,5,8
360,272,215557,1,0
424,192,215823,1,0
460,284,216088,1,0
360,272,216354,1,2
176,192,216885,5,0
140,104,217150,1,0
240,112,217416,2,0,B|280:80|344:64,1,100,4|0
320,168,218212,1,0
256,248,218478,2,0,B|256:296,1,50,4|0
256,298,219009,1,0
256,192,219274,12,0,220867
280,40,221132,5,0
328,64,221265,1,0
360,104,221398,1,0
256,152,221663,2,0,B|208:168|152:208,1,100,4|0
256,264,222194,2,0,B|272:312|312:368,1,100,8|0
368,264,222725,2,0,B|416:248|472:208,2,100,0|0|8
368,152,223522,1,0
256,264,223787,5,8
256,264,224053,1,0
144,152,224318,1,8
256,40,224584,1,0
368,152,224849,2,0,B|408:208,2,50,0|0|0
256,152,225380,5,8
176,232,225646,1,0
256,312,225911,2,0,B|368:312,2,100,8|0|8
256,192,226708,1,0
256,80,226973,2,0,B|152:80,1,100,0|0
60,132,227504,1,8
60,252,227770,1,0
152,192,228035,5,8
152,192,228168,1,0
152,192,228301,1,0
152,80,228566,1,8
152,304,228832,1,0
152,192,229097,2,0,B|256:192,1,100,0|0
344,136,229628,6,0,B|416:48,1,100,8|0
344,248,230159,2,0,B|416:336,2,100,12|0|8
440,192,230955,1,0
344,136,231221,2,0,B|272:48,1,100,0|0
344,248,231752,2,0,B|272:336,1,100,8|0
344,248,232283,5,8
248,192,232548,1,0
248,80,232814,1,8
152,136,233079,1,0
152,248,233345,2,0,B|120:296|48:320,1,100,0|0
48,200,233876,5,8
104,216,234009,1,0
152,248,234141,1,0
248,192,234407,2,0,B|272:240|248:320,2,100,8|0|8
152,248,235203,1,0
152,136,235469,2,0,B|184:96|256:72,1,100,0|0
256,304,236000,5,8
152,136,236265,1,0
152,248,236531,2,0,B|104:280,2,50,8|0|0
352,136,237062,1,8
256,304,237327,1,0
352,248,237593,2,0,B|448:312,3,100,0|0|8|0
256,192,238655,12,8,240778
