osu file format v9

[General]
AudioFilename: Akiko Shikata - Akakakushi.mp3
AudioLeadIn: 0
PreviewTime: 61840
Countdown: 0
SampleSet: Soft
StackLeniency: 0.7
Mode: 0
LetterboxInBreaks: 0

[Editor]
DistanceSpacing: 0.8
BeatDivisor: 4
GridSize: 4

[Metadata]
Title:Akakakushi
Artist:Akiko Shikata
Creator:Beren
Version:Tochika
Source:Akaya Akashiya Ayakashino
Tags:vivicat Inori no Kanata Haccaworks

[Difficulty]
HPDrainRate:3
CircleSize:4
OverallDifficulty:3
ApproachRate:3
SliderMultiplier:1.1
SliderTickRate:1

[Events]
//Background and Video events
0,0,"BG.jpg"
//Break Periods
2,98678,116684
2,185757,200577
//Storyboard Layer 0 (Background)
//Storyboard Layer 1 (Fail)
//Storyboard Layer 2 (Pass)
//Storyboard Layer 3 (Foreground)
//Storyboard Sound Samples
//Background Colour Transformations
3,100,163,162,255

[TimingPoints]
695,530.973451327434,4,2,1,30,1,0
13592,-100,4,2,1,20,0,0
13990,-100,4,2,1,25,0,0
16844,-100,4,2,1,40,0,0
17375,-100,4,2,1,20,0,0
34101,-100,4,1,1,30,0,0
34897,-100,4,2,0,30,0,0
35428,-100,4,1,1,30,0,0
35959,-100,4,2,0,30,0,0
36490,-100,4,1,1,30,0,0
38349,-100,4,2,1,30,0,0
42862,-100,4,1,1,30,0,0
43393,-100,4,2,0,30,0,0
43924,-100,4,1,1,30,0,0
44455,-100,4,2,0,30,0,0
44986,-100,4,1,1,30,0,0
46844,-100,4,2,1,30,0,0
51357,-100,4,2,1,30,0,0
51888,-100,4,2,1,10,0,0
52419,-100,4,2,1,30,0,0
52950,-100,4,2,1,10,0,0
56978,571.428571428571,4,2,1,10,1,0
58692,845.070422535211,4,2,1,10,1,0
60248,530.973451327434,4,2,1,50,1,0
61579,-100,4,1,1,30,0,0
61977,-100,4,1,1,20,0,0
62595,-100,4,2,0,40,0,0
63126,-100,4,1,1,40,0,0
63657,-100,4,2,0,40,0,0
64055,-100,4,1,1,40,0,0
64852,-100,4,2,0,40,0,0
65117,-100,4,1,1,40,0,0
65781,-100,4,2,0,40,0,0
66312,-100,4,1,1,40,0,0
66843,-100,4,2,0,40,0,0
67374,-100,4,1,1,40,0,0
67905,-100,4,2,0,40,0,0
68303,-100,4,1,1,40,0,0
69099,-100,4,2,0,40,0,0
69365,-100,4,1,1,40,0,0
70029,-100,4,2,0,40,0,0
70560,-100,4,1,1,40,0,0
71091,-100,4,2,0,40,0,0
71489,-100,4,1,1,40,0,0
72285,-100,4,2,0,40,0,0
72683,-100,4,1,1,40,0,0
73214,-100,4,2,0,40,0,0
73745,-100,4,1,1,40,0,0
74276,-100,4,2,0,40,0,0
74807,-100,4,1,1,40,0,0
75338,-100,4,2,0,40,0,0
75869,-100,4,1,1,40,0,0
76400,-100,4,2,0,40,0,0
76799,-100,4,1,1,40,0,0
77462,-100,4,2,0,40,0,0
77993,-100,4,1,1,40,0,0
78524,-100,4,2,0,40,0,0
79055,-100,4,1,1,40,0,0
79586,-100,4,2,0,40,0,0
80117,-100,4,1,1,40,0,0
80781,-100,4,2,0,40,0,0
81179,-100,4,1,1,40,0,0
81710,-100,4,2,0,40,0,0
82241,-100,4,1,1,40,0,0
82772,-100,4,2,0,40,0,0
83303,-100,4,1,1,40,0,0
83834,-100,4,2,0,40,0,0
84232,-100,4,1,1,40,0,0
84896,-100,4,2,0,40,0,0
85427,-100,4,1,1,40,0,0
85937,-100,4,2,0,40,0,0
86489,-100,4,1,1,40,0,0
87020,-100,4,2,0,40,0,0
87551,-100,4,1,1,40,0,0
88082,-100,4,2,0,40,0,0
88480,-100,4,1,1,40,0,0
89276,-100,4,2,0,40,0,0
89675,-100,4,1,1,40,0,0
90206,-100,4,2,0,40,0,0
90737,-100,4,1,1,40,0,0
91268,-100,4,2,0,40,0,0
91666,-100,4,1,1,40,0,0
92330,-100,4,2,0,40,0,0
92860,-100,4,1,1,40,0,0
93391,-100,4,2,0,40,0,0
93790,-100,4,1,1,40,0,0
94453,-100,4,2,0,40,0,0
95026,-100,4,2,0,20,0,0
117551,-100,4,1,1,30,0,0
132153,-100,4,2,1,20,0,0
149144,-100,4,1,0,25,0,0
149675,-100,4,2,1,30,0,0
165604,-100,4,1,1,30,0,0
166158,-100,4,1,0,45,0,0
166666,-100,4,2,0,40,0,0
167197,-100,4,1,1,40,0,0
167728,-100,4,2,0,40,0,0
168259,-100,4,1,1,40,0,0
168922,-100,4,2,0,40,0,0
169188,-100,4,1,1,40,0,0
169852,-100,4,2,0,40,0,0
170250,-100,4,1,1,40,0,0
170914,-100,4,2,0,40,0,0
171445,-100,4,1,1,40,0,0
171976,-100,4,2,0,40,0,0
172506,-100,4,1,1,40,0,0
173170,-100,4,2,0,40,0,0
173436,-100,4,1,1,40,0,0
174099,-100,4,2,0,40,0,0
174498,-100,4,1,1,40,0,0
175161,-100,4,2,0,40,0,0
175560,-100,4,1,1,40,0,0
176223,-100,4,2,0,40,0,0
176754,-100,4,1,1,40,0,0
177418,-100,4,2,0,40,0,0
177683,-100,4,1,1,40,0,0
178347,-100,4,2,0,40,0,0
178745,-100,4,1,1,40,0,0
179409,-100,4,2,0,40,0,0
179807,-100,4,1,1,40,0,0
180471,-100,4,2,0,40,0,0
180869,-100,4,1,1,40,0,0
181666,-100,4,2,0,40,0,0
181931,-100,4,1,1,40,0,0
182239,-100,4,2,0,20,0,0
201733,-100,4,2,1,20,0,0
220294,-100,4,2,1,25,0,0
221379,-100,4,1,0,30,0,0
221777,-100,4,1,1,40,0,0
222020,-100,4,2,0,40,0,0
222418,-100,4,1,1,40,0,0
222949,-100,4,2,0,40,0,0
223480,-100,4,1,1,40,0,0
224144,-100,4,2,0,40,0,0
224409,-100,4,1,1,40,0,0
225073,-100,4,2,0,40,0,0
225604,-100,4,1,1,40,0,0
226135,-100,4,2,0,40,0,0
226666,-100,4,1,1,40,0,0
227197,-100,4,2,0,40,0,0
227728,-100,4,1,1,40,0,0
228391,-100,4,2,0,40,0,0
228657,-100,4,1,1,40,0,0
229321,-100,4,2,0,40,0,0
229852,-100,4,1,1,40,0,0
230383,-100,4,2,0,40,0,0
230914,-100,4,1,1,40,0,0
231445,-100,4,2,0,40,0,0
231976,-100,4,1,1,40,0,0
232639,-100,4,2,0,40,0,0
232905,-100,4,1,1,40,0,0
233568,-100,4,2,0,40,0,0
234099,-100,4,1,1,40,0,0
234630,-100,4,2,0,40,0,0
235029,-100,4,1,1,40,0,0
235692,-100,4,2,0,40,0,0
236223,-100,4,1,1,40,0,0
236887,-100,4,2,0,40,0,0
237153,-100,4,1,1,40,0,0
237460,-100,4,1,1,20,0,0

[Colours]
Combo1 : 193,132,255
Combo2 : 244,179,81
Combo3 : 207,20,20
Combo4 : 0,128,128

[HitObjects]
256,152,13438,2,0,B|256:244,2,82.5,8|0|2
256,192,14500,12,8,17155
320,32,17686,6,0,B|264:56|216:104,1,110,6|0
304,136,18748,2,0,B|360:160|400:192,1,110,0|4
320,240,19810,2,0,B|296:296|256:344,1,110,8|0
176,320,20871,1,0
72,176,21933,5,4
144,232,22464,1,8
232,248,22995,1,0
352,120,24057,1,0
288,176,24588,1,4
232,248,25119,1,8
216,72,26181,6,0,B|96:96,1,110,8|4
152,168,27243,2,0,B|64:256,1,110,0|0
160,272,28305,2,0,B|128:392,1,110,8|0
216,360,29367,1,0
384,312,30429,6,0,B|432:288|480:232,2,110,4|8|0
328,144,32553,2,0,B|279:121|224:80,2,110,0|4|4
480,232,34677,5,0
392,216,35208,1,8
312,256,35739,1,0
232,288,36270,1,8
144,280,36801,2,0,B|88:248|56:200,2,110,4|12|4
120,104,38925,5,2
200,72,39456,1,8
284,92,39987,2,0,B|332:124|400:148,1,110,0|0
420,164,40783,2,0,B|444:188|452:212,1,55,0|2
368,236,41579,2,0,B|356:288|332:344,2,110,4|4|4
280,256,43172,5,4
280,256,43703,1,8
196,232,44234,1,0
196,232,44765,1,8
132,172,45296,2,0,B|99:126|76:68,2,110,4|4|4
308,156,47420,5,2
372,216,47951,1,8
392,300,48482,2,0,B|352:336|300:364,1,110
264,340,49279,2,0,B|236:328|208:296,1,55,0|2
144,264,50075,2,0,B|96:300|60:360,2,110,4|8|0
164,180,51668,6,0,B|220:168|272:136,1,110,2|0
324,72,52730,2,0,B|376:96|416:132,1,110
380,212,53792,2,0,B|416:208|440:224,2,55
300,172,54854,1,2
316,260,55385,1,0
392,300,55916,6,0,B|360:340|300:376,1,110,2|0
232,336,56978,6,0,B|212:316|180:300,3,55
152,280,58120,2,0,B|104:244|76:200,1,110
144,144,59325,6,0,B|188:108|232:56,1,110,2|0
276,88,60513,6,0,B|284:124|308:160,1,55,2|0
340,216,61309,1,4
424,248,61840,6,0,B|408:280|372:304,2,55,4|0|12
340,216,62902,2,0,B|284:236|216:244,1,110,8|0
176,308,63964,1,8
140,228,64495,2,0,B|132:192|136:164,2,55
220,188,65557,1,0
220,188,66088,6,0,B|252:136|304:100,1,110,8|0
376,144,67150,2,0,B|408:196|456:228,2,110,8|0|8
288,156,68743,1,0
224,96,69274,1,8
304,60,69805,1,0
388,64,70336,6,0,B|456:68|504:116,1,110
416,148,71398,1,8
400,188,71663,1,0
408,232,71929,2,0,B|416:260|440:284,2,55,0|0|8
496,220,72991,1,0
408,232,73522,1,8
320,224,74053,1,0
240,260,74584,6,0,B|192:292|144:340,1,110,8|0
104,256,75646,2,0,B|72:208|56:144,1,110,8|0
140,124,76708,2,0,B|160:104|176:76,1,55,8|0
200,48,77239,1,0
284,68,77770,1,8
352,124,78301,1,0
396,200,78832,6,0,B|376:252|376:324,1,110,8|4
460,340,79894,1,8
376,308,80424,2,0,B|352:324|312:332,2,55,0|0|8
324,240,81486,1,0
284,160,82017,1,8
220,100,82548,1,0
132,96,83079,6,0,B|84:72|40:16,2,110,8|0|8
140,140,84407,1,0
156,180,84672,2,0,B|164:236|208:304,1,110,0|8
248,352,85734,1,0
336,336,86265,1,8
404,280,86796,1,0
420,192,87327,6,0,B|420:136|444:80,2,110,8|4|8
376,196,88655,1,0
336,212,88920,2,0,B|308:228|288:252,2,55,0|0|8
320,124,89982,1,0
244,80,90513,1,8
160,60,91044,1,0
140,144,91575,5,8
152,188,91840,1,0
176,224,92106,2,0,B|144:272|96:312,2,110,0|8|0
244,168,93699,1,8
276,196,93964,1,0
308,228,94230,2,0,B|352:260|400:308,1,110
256,192,95292,12,0,98478
232,88,118124,5,10
164,144,118655,2,0,B|120:172|72:232,2,110,0|2|0
220,212,120247,5,10
256,292,120778,1,0
332,340,121309,2,0,B|360:360|392:372,2,55,0|0|8
336,252,122371,6,0,B|380:212|416:160,2,110,10|0|2
256,292,123964,2,0,B|228:308|196:312,1,55,0|0
160,316,124495,5,10
96,256,125026,1,0
96,168,125557,2,0,B|68:120|20:64,2,110,2|0|10
184,168,127150,1,0
224,148,127416,1,0
256,116,127681,1,2
328,64,128212,5,0
404,108,128743,1,2
440,188,129274,2,0,B|440:232|448:264,1,55
432,284,129805,2,0,B|416:328|404:348,1,55,0|8
96,140,132460,6,0,B|88:192|72:248,1,110,0|8
136,308,133522,2,0,B|188:340|240:360,1,110,4|0
288,288,134584,2,0,B|312:276|336:256,2,55
268,204,135646,1,0
192,248,136177,1,2
168,164,136708,6,0,B|168:104|188:48,2,110,0|8|4
256,164,138301,2,0,B|284:177|312:200,1,55
340,216,138832,6,0,B|348:256|376:280,3,55
404,276,139894,2,0,B|448:308|488:360,2,110,0|0|10
362,266,141221,5,0
324,288,141486,1,8
244,328,142017,1,4
244,240,142548,2,0,B|204:248|172:264,1,55
148,268,143079,2,0,B|96:244|48:204,2,110,8|0|0
191,256,144407,2,0,B|171:192,2,55,2|2|2
232,244,145203,6,0,B|280:224|332:188,2,110,0|8|4
304,296,146796,2,0,B|320:320|356:344,1,55,0|0
380,356,147327,1,8
440,292,147858,1,0
408,208,148389,2,0,B|416:156|448:92,1,110,8|0
388,32,149451,5,4
300,52,149982,2,0,B|268:56|236:72,1,55
208,88,150513,1,8
144,148,151044,2,0,B|120:176|80:192,1,55
80,220,151575,2,0,B|80:276|96:332,2,110,8|0|8
124,228,152902,2,0,B|152:248|184:260,1,55
256,284,153699,5,2
340,312,154230,2,0,B|372:328|412:328,1,55
432,304,154761,2,0,B|464:256|492:196,1,110,2|0
496,164,155557,1,0
480,124,155823,5,2
416,64,156354,1,0
368,136,156885,2,0,B|340:184|300:224,1,110,2|2
232,276,157947,5,8
160,328,158478,2,0,B|180:352|220:372,1,55
244,372,159009,1,8
312,316,159540,2,0,B|368:292,1,55,0|0
404,276,160071,5,8
448,200,160601,2,0,B|427:175|396:156,1,55,0|0
368,140,161132,1,8
332,116,161398,1,0
296,96,161663,1,2
220,52,162194,6,0,B|192:100|144:152,1,110,2|2
104,212,163256,1,2
152,288,163787,1,0
164,332,164053,1,0
200,360,164318,6,0,B|256:336|324:320,1,110,2|2
348,316,165115,1,0
392,308,165380,1,0
428,228,165911,6,0,B|416:172|384:104,1,110,4|4
348,48,166973,1,8
304,124,167504,1,0
236,180,168035,1,8
160,224,168566,6,0,B|129:205|108:172,2,55
152,312,169628,1,0
232,276,170159,5,8
260,244,170424,1,0
284,208,170690,2,0,B|315:160|340:84,1,110,0|8
244,104,171752,2,0,B|208:64|140:24,1,110,0|8
120,116,172814,6,0,B|91:139|52:152,2,55
196,160,173876,1,0
124,204,174407,6,0,B|136:240|168:268,1,55,8|0
180,284,174938,2,0,B|232:308|280:360,1,110,4|8
312,336,175734,1,0
352,320,176000,2,0,B|396:280|440:224,1,110,0|8
340,232,177062,6,0,B|320:208|304:172,1,55
320,144,177593,2,0,B|340:104|344:88,1,55,8|0
324,52,178124,2,0,B|292:24|256:16,1,55
200,64,178655,6,0,B|144:112,1,55,8|0
132,136,179186,2,0,B|160:184|180:260,1,110,0|8
192,276,179982,2,0,B|204:308|240:328,1,55,0|0
300,364,180778,1,8
328,328,181044,1,0
360,296,181309,6,0,B|384:264|416:244,1,55
436,232,181840,2,0,B|464:192|468:168,1,55,8|4
256,192,182371,12,10,185557
256,64,202017,5,2
328,116,202548,2,0,B|368:148|404:196,1,110
344,260,203610,2,0,B|305:306|256:352,1,110,2|0
224,264,204672,6,0,B|112:300,1,110,8|0
132,212,205734,2,0,B|76:188|32:136,1,110,4|0
16,72,206796,2,0,B|40:52|56:16,2,55
100,96,207858,1,4
176,52,208389,6,0,B|252:44,1,55
276,48,208920,2,0,B|332:55|408:76,1,110,8|0
420,152,209982,2,0,B|449:201|472:268,1,110,4|0
416,324,211044,2,0,B|430:353|452:384,2,55,8|0|0
380,296,211840,2,0,B|331:275|260:260,1,110
232,252,212637,5,4
144,256,213168,2,0,B|98:293|40:324,1,110,8|0
40,232,214230,2,0,B|54:174|56:116,1,110,4|0
136,88,215292,2,0,B|188:64|260:48,2,110,8|0|4
144,176,216885,5,0
156,216,217150,1,0
180,252,217416,2,0,B|224:290|284:320,1,110,8|0
296,228,218478,2,0,B|328:178|380:132,1,110,4|0
256,192,219274,12,0,220601
98,296,221132,5,4
136,216,221663,2,0,B|152:192|160:152,1,55,4|0
168,124,222194,1,8
160,36,222725,1,0
244,68,223256,1,8
316,116,223787,6,0,B|348:140|368:172,2,55
276,196,224849,1,4
276,196,225380,5,8
200,244,225911,2,0,B|152:280|104:328,1,110,0|8
100,228,226973,2,0,B|76:175|40:124,1,110,0|8
112,72,228035,6,0,B|124:44|152:24,2,55
196,100,229097,1,4
196,100,229628,5,8
268,152,230159,2,0,B|288:203|328:260,1,110,0|8
388,304,231221,2,0,B|344:344|280:376,1,110,0|8
216,328,232283,6,0,B|180:324|152:300,2,55
292,280,233345,1,4
216,236,233876,5,8
128,224,234407,2,0,B|144:168|176:112,1,110,0|12
196,88,235203,1,0
236,68,235469,2,0,B|292:60|360:40,1,110,0|8
384,32,236265,1,0
400,72,236531,6,0,B|432:128,3,55,0|0|8|4
256,192,237593,12,0,240778
