osu file format v13

[General]
AudioFilename: Shinriavigation [Akiakane].mp3
AudioLeadIn: 0
PreviewTime: -1
Countdown: 1
SampleSet: Normal
StackLeniency: 0.7
Mode: 0
LetterboxInBreaks: 1
WidescreenStoryboard: 1

[Editor]
Bookmarks: 5137,11353,20002,28650,45948,63245,78380,100002,117299,132434,135694,147569,167029,184326,186505,195137,216759,225424,234073
DistanceSpacing: 1
BeatDivisor: 4
GridSize: 8
TimelineZoom: 1.4

[Metadata]
Title:Shinria x Navigation
TitleUnicode:Shinri×Иavigation
Artist:Akiakane
ArtistUnicode:Akiakane
Creator:Xellie
Version:Insane
Source:
Tags:J-rock Japanese Rock Gumi
BeatmapID:545309
BeatmapSetID:206296

[Difficulty]
HPDrainRate:7
CircleSize:4
OverallDifficulty:8
ApproachRate:9
SliderMultiplier:1.7
SliderTickRate:2

[Events]
//Background and Video events
0,0,"wallpaper_562.jpg",0,0
//Break Periods
//Storyboard Layer 0 (Background)
//Storyboard Layer 1 (Fail)
//Storyboard Layer 2 (Pass)
//Storyboard Layer 3 (Foreground)
//Storyboard Sound Samples
//Background Colour Transformations
3,100,163,162,255

[TimingPoints]
2694,270.27027027027,4,2,0,30,1,0
10948,-100,4,1,2,55,0,0
20002,-100,4,1,2,55,0,0
63245,-100,4,1,2,70,0,1
78380,-100,4,1,2,70,0,0
82434,-66.6666666666667,4,1,0,50,0,0
82704,-100,4,1,0,70,0,0
117299,-100,4,1,0,70,0,1
132434,-100,4,1,0,70,0,0
134596,-200,4,1,0,70,0,0
135694,-100,4,1,0,70,0,0
136759,-200,4,1,0,70,0,0
137434,-100,4,1,0,70,0,0
138921,-200,4,1,0,70,0,0
140002,-100,4,1,0,70,0,0
149867,-100,4,1,0,55,0,1
160002,-100,4,1,0,55,0,0
192975,-200,4,1,0,50,0,0
194191,-166.666666666667,4,1,0,50,0,0
194461,-142.857142857143,4,1,0,50,0,0
194732,-117.647058823529,4,1,0,50,0,0
195137,-100,4,1,0,70,0,1
216759,-100,4,1,0,70,0,0

[Colours]
Combo1 : 181,106,255
Combo2 : 162,162,223
Combo3 : 255,255,166
Combo4 : 215,134,174

[HitObjects]
432,68,2705,5,2,0:0:0:0:
320,96,2975,2,0,L|216:164,1,85,0|0,0:0|0:0,0:0:0:0:
368,156,3245,2,0,L|296:236,1,85
440,180,3515,2,0,L|440:276,1,85
440,265,3786,1,2,0:0:0:0:
120,72,4867,5,2,0:0:0:0:
104,192,5137,2,0,P|148:177|208:200,2,85,0|0|0,0:0|0:0|0:0,0:0:0:0:
148,268,5542,2,0,P|190:274|230:261,2,85,0|0|0,0:0|0:0|0:0,0:0:0:0:
148,268,5948,1,2,0:0:0:0:
424,312,7029,5,2,0:0:0:0:
424,192,7299,1,0,0:0:0:0:
392,112,7434,1,0,0:0:0:0:
368,192,7569,1,0,0:0:0:0:
336,112,7704,2,0,P|311:63|256:56,2,85,0|0|0,0:0|0:0|0:0,0:0:0:0:
336,112,8110,1,2,0:0:0:0:
256,192,9191,12,0,10948,0:0:0:0:
48,104,11353,6,0,L|160:160,1,85,4|0,0:0|0:0,0:0:0:0:
207,179,11623,2,0,P|179:212|104:232,2,85,0|8|8,0:0|0:0|0:0,0:0:0:0:
256,80,12029,1,0,0:0:0:0:
344,24,12164,1,4,0:0:0:0:
432,80,12299,1,0,0:0:0:0:
508,102,12434,6,0,P|476:146|411:159,1,85,0|0,0:0|0:0,0:0:0:0:
368,184,12704,2,0,P|331:204|309:240,1,85,0|8,0:0|0:0,0:0:0:0:
280,320,12975,1,8,0:0:0:0:
184,376,13110,1,0,0:0:0:0:
88,320,13245,1,4,0:0:0:0:
184,264,13380,1,8,0:0:0:0:
248,199,13515,6,0,P|206:175|154:178,1,85
120,104,13786,1,0,0:0:0:0:
120,104,13921,1,8,0:0:0:0:
88,32,14056,2,0,P|143:27|192:64,1,85,8|0,0:0|0:0,0:0:0:0:
248,112,14326,1,4,0:0:0:0:
176,184,14461,1,0,0:0:0:0:
248,272,14596,6,0,L|320:344,1,85,4|0,0:0|0:0,0:0:0:0:
408,320,14867,1,4,0:0:0:0:
408,320,15002,2,0,L|336:248,1,85,8|8,0:0|0:0,0:0:0:0:
176,328,15272,1,0,0:0:0:0:
176,328,15340,1,0,0:0:0:0:
176,328,15407,1,4,0:0:0:0:
64,192,15542,1,8,0:0:0:0:
75,103,15677,6,0,P|114:115|146:155,1,85,4|0,0:0|0:0,0:0:0:0:
236,100,15948,2,0,P|264:132|284:204,1,85
319,232,16218,2,0,P|347:200|353:158,1,85,0|0,0:0|0:0,2:0:0:0:
382,89,16488,2,0,P|414:118|426:173,1,85
472,328,16759,6,0,L|432:232,1,85
353,159,17029,1,0,0:0:0:0:
448,80,17164,1,0,0:0:0:0:
328,40,17299,1,0,0:0:0:0:
160,144,17434,1,0,0:0:0:0:
160,144,17502,1,0,0:0:0:0:
160,144,17569,1,0,0:0:0:0:
88,248,17704,1,0,0:0:0:0:
48,328,17840,6,0,P|95:338|161:307,1,85
256,288,18110,1,0,0:0:0:0:
232,160,18245,1,0,0:0:0:0:
256,288,18380,1,0,0:0:0:0:
346,345,18515,2,0,P|361:288|353:249,1,85
336,152,18786,1,0,0:0:0:0:
331,49,18921,6,0,P|258:84|240:112,1,85
176,136,19191,1,0,0:0:0:0:
176,136,19326,1,0,0:0:0:0:
104,184,19461,2,0,L|64:160,2,42.5,0|0|0,0:0|0:0|0:0,0:0:0:0:
208,256,19732,1,0,0:0:0:0:
360,336,20002,6,0,L|392:232,1,85,4|0,0:0|0:0,0:0:0:0:
304,216,20272,1,0,0:0:0:0:
376,168,20407,1,8,0:0:0:0:
312,128,20542,1,0,0:0:0:0:
200,96,20677,2,0,L|160:56,2,42.5,0|0|0,0:0|0:0|0:0,0:0:0:0:
312,128,20948,1,8,0:0:0:0:
376,168,21083,5,4,0:0:0:0:
360,336,21353,2,0,P|312:352|256:328,1,85
136,272,21623,1,0,0:0:0:0:
64,320,21759,1,0,0:0:0:0:
64,320,21826,1,0,0:0:0:0:
64,320,21894,1,0,0:0:0:0:
64,320,21961,1,0,0:0:0:0:
64,320,22029,1,0,0:0:0:0:
