osu file format v10

[General]
AudioFilename: FlashBack.mp3
AudioLeadIn: 0
PreviewTime: 165182
Countdown: 0
SampleSet: Soft
StackLeniency: 0.7
Mode: 0
LetterboxInBreaks: 0

[Editor]
Bookmarks: 11759,22152,32539,42917,53295,63674,74052,76647,87025,97403,107782,128539,144106,154484,166160,176539,192106,204593
DistanceSpacing: 1
BeatDivisor: 4
GridSize: 4

[Metadata]
Title:FlashBack
TitleUnicode:
Artist:Akiakane
ArtistUnicode:
Creator:winber1
Version:Flashback
Source:
Tags:
BeatmapID:172029
BeatmapSetID:56979

[Difficulty]
HPDrainRate:7
CircleSize:4
OverallDifficulty:8
ApproachRate:9
SliderMultiplier:2
SliderTickRate:2

[Events]
//Background and Video events
0,0,"BG.png"
//Break Periods
//Storyboard Layer 0 (Background)
//Storyboard Layer 1 (Fail)
//Storyboard Layer 2 (Pass)
//Storyboard Layer 3 (Foreground)
//Storyboard Sound Samples
//Background Colour Transformations
3,100,163,162,255

[TimingPoints]
6584,324.324324324324,4,2,1,40,1,0
11286,-100,4,2,1,80,0,0
11773,-100,4,1,0,90,0,1
11936,-100,4,2,1,80,0,1
22151,-111.111111111111,4,1,0,75,0,0
22259,-111.111111111111,4,2,1,60,0,0
51989,-200,4,2,1,60,0,0
52556,-200,4,2,1,5,0,0
52638,-80,4,2,1,85,0,0
53287,-80,4,1,0,90,0,1
53368,-80,4,2,1,80,0,1
72421,-111.111111111111,4,2,1,80,0,1
73556,-111.111111111111,4,2,1,70,0,1
73963,-111.111111111111,4,2,1,60,0,0
76639,-111.111111111111,4,2,1,60,0,0
107124,-80,4,2,1,60,0,0
107448,-200,4,2,1,60,0,0
107692,-200,4,2,1,5,0,0
107773,-80,4,1,0,90,0,1
107855,-80,4,2,1,80,0,1
126908,-111.111111111111,4,2,1,80,0,1
128529,-90.9090909090909,4,2,1,80,0,0
144098,-100,4,2,1,70,0,0
145071,-100,4,2,1,50,0,0
145395,-100,4,2,1,70,0,0
147666,-100,4,2,1,50,0,0
147990,-100,4,2,1,70,0,0
148963,-100,4,2,1,22,0,0
149044,-100,4,2,1,34,0,0
149125,-100,4,2,1,46,0,0
149206,-100,4,2,1,58,0,0
149287,-100,4,2,1,70,0,0
164855,-100,4,2,0,70,0,0
165502,-200,4,2,0,5,0,0
166151,-80,4,1,1,100,0,1
166233,-80,4,2,1,80,0,1
192017,-80,4,2,1,5,0,1
192098,-90.9090909090909,4,2,1,80,0,0

[Colours]
Combo1 : 44,136,211
Combo2 : 75,75,75
Combo3 : 251,249,251
Combo4 : 209,54,136
Combo5 : 159,38,176
Combo6 : 60,37,188

[HitObjects]
256,192,6583,12,0,11286,0:0:0
256,192,11448,5,8,0:0:0
256,100,11773,6,0,B|308:100|353:78,1,100,4|2,0:0|0:0,0:0:0
460,32,12097,2,0,B|477:65|472:120|444:152|444:152|464:184|456:228,1,200,8|2,0:0|0:0,0:0:0
428,340,12584,1,2,0:0:0
340,260,12746,2,0,B|288:264|240:300,1,100,8|0,0:0|0:0,0:0:0
144,356,13070,69,2,0:0:0
28,268,13232,1,2,0:0:0
160,216,13394,1,8,0:0:0
232,108,13556,6,0,B|148:44|40:72,1,200,2|2,0:0|0:0,0:0:0
112,280,14043,2,0,B|172:332|252:320,1,150,8|8,0:0|0:0,0:0:0
251,320,14367,69,6,0:0:0
336,236,14529,1,2,0:0:0
440,292,14692,2,0,B|444:240|476:196,1,100,8|0,0:0|0:0,0:0:0
412,96,15016,2,0,B|384:48|336:32,1,100,2|2,0:0|0:0,0:0:0
216,36,15340,1,8,0:0:0
216,36,15502,1,0,0:0:0
100,131,15665,6,0,B|116:208|112:284,1,150,2|0,0:0|0:0,0:0:0
100,352,15989,2,0,B|152:356|200:368,1,100,8|2,0:0|0:0,0:0:0
336,284,16313,2,0,B|284:280|236:268,1,100,8|2,0:0|0:0,0:0:0
188,148,16638,1,8,0:0:0
308,160,16800,1,8,0:0:0
308,160,16881,1,8,0:0:0
308,160,16962,70,0,B|392:156|432:88,1,150,12|2,0:0|0:0,0:0:0
434,71,17286,2,0,B|435:123|444:180,1,100,8|2,0:0|0:0,0:0:0
496,276,17611,1,0,0:0:0
376,272,17773,1,2,0:0:0
252,300,17935,2,0,B|180:332|104:336,1,150,8|8,0:0|0:0,0:0:0
36,308,18259,6,0,B|31:252|16:204,1,100,2|2,0:0|0:0,0:0:0
112,136,18584,1,8,0:0:0
48,28,18746,2,0,B|144:16|252:24,1,200,2|2,0:0|0:0,0:0:0
360,68,19232,1,8,0:0:0
476,36,19394,1,0,0:0:0
448,152,19556,70,0,B|460:204|464:252,1,100,6|2,0:0|0:0,0:0:0
388,344,19881,2,0,B|320:312|240:312,1,150,8|2,0:0|0:0,0:0:0
223,313,20205,2,0,B|272:304|308:264,1,100,2|2,0:0|0:0,0:0:0
332,148,20529,2,0,B|248:160|184:124,1,150,8|8,0:0|0:0,0:0:0
172,120,20854,6,0,B|183:166|184:220,1,100,2|2,0:0|0:0,0:0:0
72,348,21178,2,0,B|60:301|60:248,1,100,8|2,0:0|0:0,0:0:0
60,128,21502,1,8,0:0:0
60,128,21583,1,8,0:0:0
60,128,21665,1,8,0:0:0
120,24,21827,1,8,0:0:0
136,28,21908,1,8,0:0:0
152,32,21989,1,8,0:0:0
168,36,22070,1,8,0:0:0
184,40,22151,70,0,B|228:52|260:88,1,89.9999972534181,4|2,0:0|0:0,0:0:0
312,172,22475,2,0,B|360:172|396:140,1,89.9999972534181,8|0,0:0|0:0,0:0:0
444,56,22800,2,0,B|432:124|464:188,1,134.999995880127,2|0,0:0|0:0,0:0:0
472,200,23124,2,0,B|444:244|432:296,1,89.9999972534181,8|0,0:0|0:0,0:0:0
400,376,23448,5,2,0:0:0
288,312,23611,1,2,0:0:0
176,256,23773,2,0,B|116:216|44:216,1,134.999995880127,8|0,0:0|0:0,0:0:0
49,216,24097,2,0,B|36:172|36:120,1,89.9999972534181,0|0,0:0|0:0,0:0:0
92,44,24421,69,8,0:0:0
176,136,24583,1,2,0:0:0
288,76,24746,2,0,B|332:72|380:80,1,89.9999972534181
436,176,25070,2,0,B|392:180|344:172,1,89.9999972534181,8|0,0:0|0:0,0:0:0
292,64,25394,2,0,B|345:59|403:69,1,89.9999972534181,2|0,0:0|0:0,0:0:0
432,188,25719,2,0,B|379:193|321:183,1,89.9999972534181,8|0,0:0|0:0,0:0:0
244,176,26043,2,0,B|252:248|240:320,1,134.999995880127,2|0,0:0|0:0,0:0:0
236,336,26367,6,0,B|172:320|100:324,1,134.999995880127,8|0,0:0|0:0,0:0:0
140,244,26692,2,0,B|144:176|128:108,1,134.999995880127,2|0,0:0|0:0,0:0:0
212,136,27016,2,0,B|280:132|348:148,1,134.999995880127,8|0,0:0|0:0,0:0:0
432,164,27340,70,0,B|432:212|424:256,1,89.9999972534181,6|2,0:0|0:0,0:0:0
384,344,27665,2,0,B|312:352|240:296,1,134.999995880127,8|0,0:0|0:0,0:0:0
248,300,27989,2,0,B|292:284|336:284,1,89.9999972534181,2|2,0:0|0:0,0:0:0
436,280,28313,2,0,B|444:216|444:136,1,134.999995880127,8|0,0:0|0:0,0:0:0
444,128,28638,5,2,0:0:0
348,48,28800,1,2,0:0:0
224,68,28962,2,0,B|160:56|88:60,1,134.999995880127,8|0,0:0|0:0,0:0:0
32,112,29286,2,0,B|44:176|40:248,1,134.999995880127,2|0,0:0|0:0,0:0:0
36,268,29611,2,0,B|80:272|128:252,1,89.9999972534181,8|0,0:0|0:0,0:0:0
192,204,29935,69,2,0:0:0
232,292,30259,1,8,0:0:0
322,339,30583,1,2,0:0:0
422,333,30908,1,8,0:0:0
422,333,31556,6,0,B|424:264|436:200,1,134.999995880127,8|0,0:0|0:0,0:0:0
444,172,31881,1,8,0:0:0
468,76,32043,1,2,0:0:0
340,136,32205,1,8,0:0:0
328,36,32367,1,8,0:0:0
292,224,32529,70,0,B|220:292|124:284,1,179.999994506836,6|8,0:0|0:0,0:0:0
32,256,33016,1,2,0:0:0
80,168,33178,2,0,B|152:100|248:108,1,179.999994506836,2|8,0:0|0:0,0:0:0
340,136,33665,1,2,0:0:0
380,48,33827,6,0,B|352:132|368:228,1,179.999994506836,2|8,0:0|0:0,0:0:0
456,184,34313,1,2,0:0:0
456,184,34475,2,0,B|484:268|468:364,1,179.999994506836,2|8,0:0|0:0,0:0:0
372,336,34962,1,2,0:0:0
372,336,35124,70,0,B|288:308|188:320,1,179.999994506836,2|8,0:0|0:0,0:0:0
100,352,35611,1,2,0:0:0
100,352,35773,2,0,B|79:292|120:248|120:248|104:224|100:184,1,179.999994506836,2|8,0:0|0:0,0:0:0
124,88,36259,1,2,0:0:0
124,88,36421,6,0,B|304:64,1,179.999994506836,2|8,0:0|0:0,0:0:0
408,192,36908,1,2,0:0:0
408,192,37070,2,0,B|228:216,1,179.999994506836,2|8,0:0|0:0,0:0:0
132,236,37556,1,2,0:0:0
60,336,37719,70,0,B|128:328|196:344,1,134.999995880127,6|0,0:0|0:0,0:0:0
264,312,38043,2,0,B|332:324|400:304,1,134.999995880127,8|0,0:0|0:0,0:0:0
468,276,38367,2,0,B|516:196|504:100,1,179.999994506836,2|8,0:0|0:0,0:0:0
432,36,38854,1,2,0:0:0
336,116,39016,6,0,B|272:84|204:84,1,134.999995880127,2|0,0:0|0:0,0:0:0
184,88,39340,2,0,B|244:124|268:192,1,134.999995880127,8|0,0:0|0:0,0:0:0
268,220,39665,2,0,B|204:204|168:308|104:284,1,179.999994506836,2|8,0:0|0:0,0:0:0
24,232,40151,1,2,0:0:0
12,88,40313,70,0,B|48:68|104:64,1,89.9999972534181,2|2,0:0|0:0,0:0:0
188,160,40638,2,0,B|152:180|96:184,1,89.9999972534181,8|0,0:0|0:0,0:0:0
284,88,40962,2,0,B|322:102|361:143,1,89.9999972534181,2|2,0:0|0:0,0:0:0
342,270,41286,2,0,B|303:255|264:214,1,89.9999972534181,8|0,0:0|0:0,0:0:0
216,324,41611,6,0,B|148:328|76:356,1,134.999995880127,2|0,0:0|0:0,0:0:0
32,252,41935,2,0,B|76:264|124:256,1,89.9999972534181,8|8,0:0|0:0,0:0:0
121,256,42178,1,8,0:0:0
121,256,42259,1,8,0:0:0
252,252,42421,1,8,0:0:0
288,248,42502,1,8,0:0:0
324,256,42583,1,8,0:0:0
356,272,42665,1,8,0:0:0
392,268,42746,1,8,0:0:0
424,248,42827,1,8,0:0:0
444,216,42908,70,0,B|452:132|472:32,1,179.999994506836,12|8,0:0|0:0,0:0:0
376,12,43394,1,2,0:0:0
376,12,43475,1,2,0:0:0
376,12,43556,1,2,0:0:0
356,108,43719,1,2,0:0:0
280,44,43881,2,0,B|192:72|100:68,1,179.999994506836,8|2,0:0|0:0,0:0:0
20,124,44367,1,2,0:0:0
108,172,44529,1,8,0:0:0
40,284,44692,6,0,B|84:280|136:292,1,89.9999972534181,2|0,0:0|0:0,0:0:0
212,348,45016,1,2,0:0:0
292,288,45178,2,0,B|388:288|452:216,1,179.999994506836,8|2,0:0|0:0,0:0:0
480,120,45665,1,2,0:0:0
440,28,45827,1,8,0:0:0
348,64,45989,2,0,B|300:56,2,44.999998626709,2|2|2,0:0|0:0|0:0,0:0:0
384,156,46313,1,2,0:0:0
256,192,46475,70,0,B|172:160|76:156,1,179.999994506836,8|2,0:0|0:0,0:0:0
60,60,46962,1,2,0:0:0
152,92,47124,2,0,B|132:164|136:232,1,134.999995880127,8|2,0:0|0:0,0:0:0
140,260,47448,6,0,B|184:260|228:284,1,89.9999972534181,8|2,0:0|0:0,0:0:0
296,356,47773,2,0,B|344:360|388:332,1,89.9999972534181,8|8,0:0|0:0,0:0:0
452,264,48097,70,2,B|432:200|432:128,1,134.999995880127,4|0,0:0|0:0,0:0:0
433,112,48421,1,8,0:0:0
324,60,48583,2,0,B|232:40|144:96,1,179.999994506836,2|2,0:0|0:0,0:0:0
104,180,49070,2,0,B|152:188|184:216,1,89.9999972534181,8|0,0:0|0:0,0:0:0
244,296,49394,5,2,0:0:0
308,220,49556,1,2,0:0:0
400,188,49719,2,0,B|468:156|472:72,1,134.999995880127,8|0,0:0|0:0,0:0:0
468,55,50043,2,0,B|397:64|342:13,1,134.999995880127,2|0,0:0|0:0,0:0:0
272,40,50367,2,0,B|228:32|176:32,1,89.9999972534181,8|0,0:0|0:0,0:0:0
52,72,50692,69,2,0:0:0
80,148,50854,1,2,0:0:0
56,224,51016,1,8,0:0:0
76,304,51178,1,2,0:0:0
180,352,51340,5,2,0:0:0
196,264,51502,1,2,0:0:0
268,212,51665,1,8,0:0:0
268,124,51827,1,2,0:0:0
408,32,51989,70,0,B|464:104|456:204,1,175,4|0,0:0|0:0,0:0:0
452,216,52638,22,0,B|388:220|336:256,1,125,8|2,0:0|0:0,0:0:0
216,336,52962,1,8,0:0:0
200,332,53043,1,8,0:0:0
184,340,53124,1,8,0:0:0
168,340,53205,1,8,0:0:0
156,348,53286,6,0,B|108:308|36:308,1,125,4|2,0:0|0:0,0:0:0
4,192,53611,1,8,0:0:0
64,80,53773,2,0,B|118:37|180:39,1,125,2|0,0:0|0:0,0:0:0
304,60,54097,1,2,0:0:0
264,176,54259,2,0,B|324:192|368:240,1,119.999996337891,8|0,0:0|0:0,0:0:0
428,352,54583,5,2,0:0:0
468,168,54746,1,2,0:0:0
428,352,54908,1,8,0:0:0
468,168,55070,1,2,0:0:0
392,68,55232,54,0,B|296:68|200:88,1,187.5,2|2,0:0|0:0,0:0:0
148,160,55556,2,0,B|244:160|340:180,1,187.5,8|2,0:0|0:0,0:0:0
380,240,55881,6,0,B|352:304|288:324,1,125,2|0,0:0|0:0,0:0:0
168,336,56205,1,8,0:0:0
60,272,56367,2,0,B|56:172|32:84,1,187.5,2|0,0:0|0:0,0:0:0
24,56,56692,2,0,B|80:72|148:56,1,125,2|8,0:0|0:0,0:0:0
268,24,57016,1,0,0:0:0
388,60,57178,5,2,0:0:0
272,176,57340,1,2,0:0:0
432,216,57502,2,0,B|396:312|284:320,1,187.5,8|0,0:0|0:0,0:0:0
264,316,57827,54,0,B|324:320|392:348,1,125,8|2,0:0|0:0,0:0:0
196,224,58151,2,0,B|136:220|68:192,1,125,8|8,0:0|0:0,0:0:0
36,176,58394,1,8,0:0:0
36,176,58475,6,0,B|140:156|168:56,1,187.5,12|2,0:0|0:0,0:0:0
172,36,58800,1,8,0:0:0
252,132,58962,2,0,B|320:192|420:168|420:168|420:208|448:240,1,250,2|2,0:0|0:0,0:0:0
512,312,59448,2,0,B|420:312|316:348,1,187.5,8|2,0:0|0:0,0:0:0
256,364,59773,6,0,B|200:329|124:320,1,125,2|2,0:0|0:0,0:0:0
12,256,60097,2,0,B|96:200|196:208,1,187.5,8|2,0:0|0:0,0:0:0
264,228,60421,53,2,0:0:0
208,88,60583,1,2,0:0:0
340,168,60746,1,8,0:0:0
372,20,60908,1,2,0:0:0
468,212,61070,6,0,B|380:196|280:196,1,187.5,2|0,0:0|0:0,0:0:0
264,196,61394,1,8,0:0:0
68,316,61556,6,0,B|156:300|256:300,1,187.5,2|0,0:0|0:0,0:0:0
272,300,61881,1,2,0:0:0
384,348,62043,1,8,0:0:0
372,224,62205,1,2,0:0:0
400,104,62367,2,0,B|292:32|160:40,1,250,2|8,0:0|0:0,0:0:0
48,132,62854,54,0,B|80:220|68:320,1,187.5,2|8,0:0|0:0,0:0:0
64,332,63178,1,8,0:0:0
184,360,63340,1,8,0:0:0
184,360,63421,1,8,0:0:0
152,240,63583,1,8,0:0:0
152,240,63665,6,0,B|160:152|172:54,1,187.5,14|0,0:0|0:0,0:0:0
172,53,63989,2,0,B|228:24|300:36,1,125,8|2,0:0|0:0,0:0:0
408,84,64313,1,0,0:0:0
312,164,64475,1,2,0:0:0
432,204,64638,2,0,B|384:300|276:288,1,187.5,8|0,0:0|0:0,0:0:0
260,284,64962,6,0,B|316:296|376:332,1,125,2|2,0:0|0:0,0:0:0
200,192,65286,2,0,B|144:180|84:144,1,125,8|0,0:0|0:0,0:0:0
84,144,65529,1,8,0:0:0
84,144,65611,2,0,B|88:236|48:332,1,187.5,2|0,0:0|0:0,0:0:0
136,316,65935,2,0,B|224:340|324:324,1,187.5,8|2,0:0|0:0,0:0:0
392,288,66259,54,0,B|373:228|380:164,1,125,2|2,0:0|0:0,0:0:0
420,44,66583,1,8,0:0:0
300,76,66746,2,0,B|236:88|176:60,1,125,2|0,0:0|0:0,0:0:0
64,12,67070,1,2,0:0:0
24,132,67232,2,0,B|12:196|36:260,1,125,8|0,0:0|0:0,0:0:0
120,348,67556,5,2,0:0:0
152,188,67719,1,2,0:0:0
288,276,67881,2,0,B|380:276|464:332,1,187.5,8|2,0:0|0:0,0:0:0
480,344,68205,6,0,B|468:284|468:220,1,125,8|2,0:0|0:0,0:0:0
360,28,68529,2,0,B|372:88|372:152,1,125,8|8,0:0|0:0,0:0:0
372,204,68773,1,8,0:0:0
372,204,68854,54,0,B|344:304|248:332,1,187.5,12|2,0:0|0:0,0:0:0
200,344,69178,1,8,0:0:0
44,84,69340,2,0,B|160:24|292:64,1,250,2|2,0:0|0:0,0:0:0
464,204,69827,2,0,B|433:301|336:344|231:368|144:332,1,375,8|2,0:0|0:0,0:0:0
88,340,70394,1,2,0:0:0
56,284,70475,6,0,B|64:218|123:178,1,125,8|0,0:0|0:0,0:0:0
240,148,70800,2,0,B|272:204|344:216,1,125,2|2,0:0|0:0,0:0:0
464,204,71124,2,0,B|444:112|480:16,1,187.5,8|0,0:0|0:0,0:0:0
484,8,71448,6,0,B|428:36|357:40,1,125,2|0,0:0|0:0,0:0:0
240,36,71773,1,8,0:0:0
44,188,71935,54,0,B|100:216|170:220,1,125,2|0,0:0|0:0,0:0:0
288,216,72259,1,2,0:0:0
420,172,72421,38,0,B|472:172|512:224|540:348|424:392|264:376|240:232|320:124|508:196|472:416|264:372|232:320,1,539.999983520508,8|10,0:0|0:0,0:0:0
160,300,73556,21,10,0:0:0
148,288,73638,1,8,0:0:0
132,288,73719,1,8,0:0:0
116,280,73800,1,8,0:0:0
100,280,73881,1,10,0:0:0
84,272,73962,1,8,0:0:0
80,272,76313,86,0,B|76:204|64:136,1,134.999995880127,8|2,0:0|0:0,0:0:0
80,272,76638,70,0,B|92:228|128:196,1,89.9999972534181,4|2,0:0|0:0,0:0:0
220,160,76962,1,8,0:0:0
208,256,77124,2,0,B|280:256|344:304,1,134.999995880127,2|0,0:0|0:0,0:0:0
356,312,77448,2,0,B|384:276|396:224,1,89.9999972534181,2|8,0:0|0:0,0:0:0
356,80,77773,2,0,B|328:116|316:168,1,89.9999972534181,2|2,0:0|0:0,0:0:0
220,160,78097,1,2,0:0:0
264,72,78259,2,0,B|192:66|129:101,1,134.999995880127,8|2,0:0|0:0,0:0:0
133,98,78583,2,0,B|100:65|75:20,1,89.9999972534181,2|2,0:0|0:0,0:0:0
100,192,78908,5,8,0:0:0
68,284,79070,1,2,0:0:0
144,348,79232,2,0,B|188:344|236:352,1,89.9999972534181
332,364,79556,1,8,0:0:0
448,284,79719,2,0,B|380:292|300:276,1,134.999995880127,0|2,0:0|0:0,0:0:0
300,268,80043,2,0,B|284:224|256:184,2,89.9999972534181,2|8|2,0:0|0:0|0:0,0:0:0
364,204,80529,2,0,B|356:132|368:60,1,134.999995880127,2|0,0:0|0:0,0:0:0
372,48,80854,70,0,B|328:60|276:64,1,89.9999972534181,2|8,0:0|0:0,0:0:0
188,80,81178,1,0,0:0:0
92,100,81340,1,0,0:0:0
164,168,81502,2,0,B|232:164|300:180,1,134.999995880127,8|0,0:0|0:0,0:0:0
316,184,81827,6,0,B|316:232|308:276,1,89.9999972534181,6|2,0:0|0:0,0:0:0
272,364,82151,1,8,0:0:0
208,288,82313,2,0,B|156:240|84:252,1,134.999995880127,0|2,0:0|0:0,0:0:0
60,260,82638,2,0,B|88:224|100:180,1,89.9999972534181,2|8,0:0|0:0,0:0:0
44,40,82962,70,0,B|132:64|228:60,1,179.999994506836,2|2,0:0|0:0,0:0:0
392,116,83448,2,0,B|328:128|264:160,1,134.999995880127,8|8,0:0|0:0,0:0:0
240,176,83773,1,0,0:0:0
316,240,83935,1,0,0:0:0
224,280,84097,2,0,B|180:284|132:264,1,89.9999972534181,8|8,0:0|0:0,0:0:0
300,344,84421,6,0,B|372:328|436:348,1,134.999995880127,2|2,0:0|0:0,0:0:0
448,352,84746,1,8,0:0:0
432,256,84908,2,0,B|432:156|476:80,1,179.999994506836
388,36,85394,1,8,0:0:0
56,104,85719,69,2,0:0:0
116,304,86043,1,0,0:0:0
212,272,86205,2,0,B|256:272|308:288,1,89.9999972534181,8|2,0:0|0:0,0:0:0
314,289,86448,1,2,0:0:0
330,293,86529,1,0,0:0:0
424,328,86692,1,8,0:0:0
404,232,86854,1,8,0:0:0
456,148,87016,6,0,B|404:72|304:56,1,179.999994506836,4|8,0:0|0:0,0:0:0
208,72,87502,2,0,B|136:76|56:68,1,134.999995880127,2|2,0:0|0:0,0:0:0
50,66,87827,2,0,B|58:114|58:158,1,89.9999972534181,2|8,0:0|0:0,0:0:0
28,252,88151,70,0,B|100:300|200:296,1,179.999994506836,2|2,0:0|0:0,0:0:0
280,356,88638,2,0,B|344:324|416:324,1,134.999995880127,8|8,0:0|0:0,0:0:0
460,324,88962,2,0,B|464:280|480:236,1,89.9999972534181,2|0,0:0|0:0,0:0:0
468,140,89286,6,0,B|456:92|428:56,1,89.9999972534181,8|8,0:0|0:0,0:0:0
424,52,89529,1,8,0:0:0
418,46,89611,2,0,B|364:76|276:64,1,134.999995880127,2|2,0:0|0:0,0:0:0
252,60,89935,1,8,0:0:0
80,32,90097,2,0,B|96:120|100:216,1,179.999994506836,2|2,0:0|0:0,0:0:0
40,292,90583,1,8,0:0:0
116,356,90746,70,0,B|184:340|264:348,1,134.999995880127,10|2,0:0|0:0,0:0:0
270,352,91070,2,0,B|258:312|258:264,1,89.9999972534181,0|8,0:0|0:0,0:0:0
260,164,91394,1,8,0:0:0
340,220,91556,5,2,0:0:0
460,184,91719,1,2,0:0:0
372,96,91881,2,0,B|296:100|248:36,1,134.999995880127,8|0,0:0|0:0,0:0:0
248,24,92205,70,0,B|184:56|112:52,1,134.999995880127,6|0,0:0|0:0,0:0:0
96,48,92529,1,8,0:0:0
20,112,92692,2,0,B|27:178|28:252,1,134.999995880127,2|0,0:0|0:0,0:0:0
28,272,93016,1,2,0:0:0
24,372,93178,1,0,0:0:0
180,324,93340,6,0,B|252:304|324:312,1,134.999995880127,8|0,0:0|0:0,0:0:0
336,312,93665,1,0,0:0:0
388,228,93827,2,0,B|328:192|304:124,1,134.999995880127,8|0,0:0|0:0,0:0:0
304,108,94151,2,0,B|240:92|204:196|140:172,1,179.999994506836,2|8,0:0|0:0,0:0:0
72,108,94638,1,2,0:0:0
48,204,94800,70,0,B|40:256|72:296,1,89.9999972534181,2|2,0:0|0:0,0:0:0
152,340,95124,1,8,0:0:0
248,320,95286,2,0,B|296:308|344:316,1,89.9999972534181,2|0,0:0|0:0,0:0:0
436,328,95611,1,2,0:0:0
400,240,95773,2,0,B|400:196|412:152,1,89.9999972534181,8|0,0:0|0:0,0:0:0
420,60,96097,6,0,B|352:64|280:92,1,134.999995880127,2|0,0:0|0:0,0:0:0
224,48,96421,2,0,B|180:36|132:44,1,89.9999972534181,8|8,0:0|0:0,0:0:0
135,44,96665,1,8,0:0:0
134,43,96746,1,8,0:0:0
60,108,96908,1,8,0:0:0
52,144,96989,1,8,0:0:0
56,180,97070,1,8,0:0:0
84,204,97151,1,8,0:0:0
116,216,97232,1,8,0:0:0
140,244,97313,1,8,0:0:0
148,280,97394,70,0,B|232:288|324:328,1,179.999994506836,12|8,0:0|0:0,0:0:0
408,372,97881,1,2,0:0:0
428,368,97962,1,2,0:0:0
444,364,98043,1,2,0:0:0
484,276,98205,1,2,0:0:0
428,196,98367,2,0,B|340:224|248:220,1,179.999994506836,8|2,0:0|0:0,0:0:0
216,128,98854,1,2,0:0:0
140,192,99016,1,8,0:0:0
60,56,99178,6,0,B|64:100|52:152,1,89.9999972534181,2|0,0:0|0:0,0:0:0
4,232,99502,1,2,0:0:0
64,312,99665,2,0,B|158:328|234:268,1,179.999994506836,8|2,0:0|0:0,0:0:0
304,200,100151,1,2,0:0:0
332,296,100313,1,8,0:0:0
400,224,100475,2,0,B|448:216,2,44.999998626709,2|2|2,0:0|0:0|0:0,0:0:0
372,128,100800,1,2,0:0:0
248,64,100962,70,0,B|164:32|68:28,1,179.999994506836,8|2,0:0|0:0,0:0:0
12,108,101448,1,2,0:0:0
72,188,101611,2,0,B|52:260|56:328,1,134.999995880127,8|2,0:0|0:0,0:0:0
60,348,101935,6,0,B|104:348|148:372,1,89.9999972534181,8|2,0:0|0:0,0:0:0
232,324,102259,2,0,B|280:328|324:300,1,89.9999972534181,8|8,0:0|0:0,0:0:0
396,244,102583,70,2,B|376:180|376:108,1,134.999995880127,4|0,0:0|0:0,0:0:0
384,92,102908,1,8,0:0:0
300,44,103070,2,0,B|208:24|120:80,1,179.999994506836,2|2,0:0|0:0,0:0:0
88,168,103556,2,0,B|136:176|168:204,1,89.9999972534181,8|0,0:0|0:0,0:0:0
216,292,103881,5,2,0:0:0
280,216,104043,1,2,0:0:0
372,180,104205,2,0,B|416:164|464:148,1,89.9999972534181,8|2,0:0|0:0,0:0:0
484,32,104529,2,0,B|436:84|360:80,1,134.999995880127,2|0,0:0|0:0,0:0:0
288,68,104854,2,0,B|244:60|192:60,1,89.9999972534181,8|0,0:0|0:0,0:0:0
64,40,105178,69,12,0:0:0
104,132,105340,1,8,0:0:0
96,148,105421,1,8,0:0:0
88,164,105502,1,2,0:0:0
96,264,105665,1,2,0:0:0
60,376,105827,1,8,0:0:0
60,376,105908,1,8,0:0:0
60,376,105989,1,2,0:0:0
172,348,106151,1,8,0:0:0
172,348,106232,1,8,0:0:0
172,348,106313,1,2,0:0:0
324,352,106475,5,8,0:0:0
356,336,106556,1,8,0:0:0
380,312,106638,1,2,0:0:0
396,280,106719,1,2,0:0:0
400,244,106800,1,8,0:0:0
388,212,106881,1,8,0:0:0
396,180,106962,1,2,0:0:0
392,144,107043,1,2,0:0:0
400,112,107124,6,0,B|336:116|276:80,1,125,8|2,0:0|0:0,0:0:0
172,36,107448,6,0,B|184:120,1,75,8|8,0:0|0:0,0:0:0
184,136,107773,6,0,B|136:96|64:96,1,125,4|2,0:0|0:0,0:0:0
96,192,108097,1,8,0:0:0
132,284,108259,2,0,B|224:252|320:272,1,187.5,0|0,0:0|0:0,0:0:0
336,276,108583,1,2,0:0:0
432,308,108746,2,0,B|448:248|496:204,1,119.999996337891,8|0,0:0|0:0,0:0:0
428,92,109070,54,0,B|380:44|312:40,1,125
212,108,109394,1,8,0:0:0
88,84,109556,1,2,0:0:0
8,224,109719,6,0,B|104:224|192:272,1,187.5,2|2,0:0|0:0,0:0:0
304,328,110043,2,0,B|208:328|120:280,1,187.5,8|2,0:0|0:0,0:0:0
108,188,110367,6,0,B|100:118|145:69,1,125,2|0,0:0|0:0,0:0:0
264,36,110692,1,8,0:0:0
416,124,110854,2,0,B|316:128|228:152,1,187.5,2|0,0:0|0:0,0:0:0
208,160,111178,2,0,B|272:184|304:240,1,125,2|8,0:0|0:0,0:0:0
352,352,111502,1,0,0:0:0
228,328,111665,53,2,0:0:0
48,360,111827,1,2,0:0:0
108,188,111989,2,0,B|144:92|256:84,1,187.5,8|0,0:0|0:0,0:0:0
276,84,112313,6,0,B|216:80|148:52,1,125,8|2,0:0|0:0,0:0:0
344,176,112638,2,0,B|404:180|472:208,1,125,8|8,0:0|0:0,0:0:0
488,264,112881,1,8,0:0:0
444,308,112962,6,0,B|348:296|260:348,1,187.5,12|2,0:0|0:0,0:0:0
248,356,113286,1,8,0:0:0
124,348,113448,2,0,B|76:270|117:176|117:176|78:169|51:136,1,250,2|2,0:0|0:0,0:0:0
44,16,113935,2,0,B|136:16|240:52,1,187.5,8|2,0:0|0:0,0:0:0
296,88,114259,54,0,B|352:53|428:44,1,125,2|2,0:0|0:0,0:0:0
484,152,114583,2,0,B|403:212|302:209,1,187.5,8|2,0:0|0:0,0:0:0
236,200,114908,5,2,0:0:0
136,72,115070,1,2,0:0:0
8,168,115232,1,8,0:0:0
108,296,115394,1,2,0:0:0
256,296,115556,6,0,B|344:312|444:312,1,187.5,2|0,0:0|0:0,0:0:0
456,312,115881,1,8,0:0:0
256,192,116043,54,0,B|168:176|68:176,1,187.5,2|0,0:0|0:0,0:0:0
56,176,116367,1,2,0:0:0
12,56,116529,1,8,0:0:0
136,72,116692,1,2,0:0:0
260,88,116854,2,0,B|368:16|500:24,1,250,2|8,0:0|0:0,0:0:0
428,128,117340,6,0,B|416:192|412:256,1,125,2|8,0:0|0:0,0:0:0
412,251,117583,1,8,0:0:0
412,251,117665,1,8,0:0:0
416,375,117827,1,8,0:0:0
376,344,117908,1,8,0:0:0
328,329,117989,1,2,0:0:0
278,326,118070,1,2,0:0:0
228,332,118151,6,0,B|132:316|96:208,1,187.5,12|0,0:0|0:0,0:0:0
92,188,118475,2,0,B|84:252|68:320,1,125,8|2,0:0|0:0,0:0:0
212,176,118800,1,0,0:0:0
132,80,118962,1,2,0:0:0
252,56,119124,2,0,B|348:104|336:212,1,187.5,8|0,0:0|0:0,0:0:0
312,216,119448,54,0,B|368:228|428:264,1,125,2|2,0:0|0:0,0:0:0
228,332,119773,2,0,B|172:320|112:284,1,125,8|0,0:0|0:0,0:0:0
112,284,120016,1,8,0:0:0
112,284,120097,2,0,B|136:184|136:96,1,187.5,8|2,0:0|0:0,0:0:0
80,40,120421,2,0,B|168:64|268:48,1,187.5,8|2,0:0|0:0,0:0:0
456,116,120746,6,0,B|396:97|332:104,1,125,6|2,0:0|0:0,0:0:0
212,140,121070,1,8,0:0:0
300,232,121232,2,0,B|308:296|352:344,1,125,2|0,0:0|0:0,0:0:0
476,364,121556,1,2,0:0:0
432,248,121719,2,0,B|408:152|444:56,1,187.5,8|2,0:0|0:0,0:0:0
452,40,122043,6,0,B|392:64|324:60,1,125
72,104,122367,2,0,B|164:104|248:160,1,187.5,8|2,0:0|0:0,0:0:0
264,172,122692,54,0,B|252:112|252:48,1,125,8|2,0:0|0:0,0:0:0
140,228,123016,2,0,B|152:288|152:352,1,125,8|8,0:0|0:0,0:0:0
208,384,123259,1,8,0:0:0
256,344,123340,6,0,B|340:288|440:300,1,187.5,12|2,0:0|0:0,0:0:0
472,308,123665,1,8,0:0:0
416,72,123827,2,0,B|288:12|168:52,1,250,2|2,0:0|0:0,0:0:0
48,204,124313,2,0,B|79:301|176:344|281:368|368:332,1,375,8|2,0:0|0:0,0:0:0
424,340,124881,1,2,0:0:0
456,284,124962,6,0,B|448:218|389:178,1,125,8|0,0:0|0:0,0:0:0
268,164,125286,2,0,B|236:220|164:232,1,125,2|2,0:0|0:0,0:0:0
284,276,125611,2,0,B|264:184|300:88,1,187.5,8|0,0:0|0:0,0:0:0
308,68,125935,54,0,B|252:96|181:100,1,125,2|0,0:0|0:0,0:0:0
68,68,126259,1,8,0:0:0
88,208,126421,6,0,B|144:236|214:240,1,125,2|0,0:0|0:0,0:0:0
352,200,126746,1,2,0:0:0
412,324,126908,22,0,B|364:368|336:364|276:364|232:352|228:272|288:196|360:208|364:344|336:352|300:392|212:344|212:344|156:376|96:352,1,539.999983520508,8|0,0:0|0:0,0:0:0
72,272,128043,21,10,0:0:0
76,255,128124,1,8,0:0:0
67,241,128205,1,8,0:0:0
66,223,128286,1,8,0:0:0
58,209,128367,1,10,0:0:0
57,192,128448,1,8,0:0:0
48,176,128529,6,0,B|40:120|64:68,1,110.000003356934,12|2,0:0|0:0,0:0:0
160,16,128854,1,8,0:0:0
156,124,129016,2,0,B|240:104|324:104,1,165.000005035401,2|2,0:0|0:0,0:0:0
388,132,129340,2,0,B|376:188|376:244,1,110.000003356934,0|8,0:0|0:0,0:0:0
456,348,129665,1,8,0:0:0
456,348,129746,1,8,0:0:0
456,348,129827,6,0,B|404:372|340:368,1,110.000003356934,2|0,0:0|0:0,0:0:0
256,312,130151,1,8,0:0:0
156,356,130313,2,0,B|64:336|40:236,1,165.000005035401,2|2,0:0|0:0,0:0:0
44,216,130638,2,0,B|60:168|64:104,1,110.000003356934,0|8,0:0|0:0,0:0:0
180,44,130962,1,8,0:0:0
200,40,131043,1,8,0:0:0
220,36,131124,6,0,B|276:32|336:64,1,110.000003356934,6|0,0:0|0:0,0:0:0
424,116,131448,1,8,0:0:0
424,116,131529,1,8,0:0:0
424,116,131611,2,0,B|392:172|396:236,1,110.000003356934,2|0,0:0|0:0,0:0:0
440,320,131935,1,0,0:0:0
332,308,132097,2,0,B|252:312|172:344,1,165.000005035401,8|8,0:0|0:0,0:0:0
152,352,132421,6,0,B|180:304|176:244,1,110.000003356934
124,148,132746,1,8,0:0:0
232,148,132908,2,0,B|288:80|372:64,1,165.000005035401,2|2,0:0|0:0,0:0:0
388,68,133232,2,0,B|344:40|284:36,1,110.000003356934,0|8,0:0|0:0,0:0:0
144,40,133556,1,8,0:0:0
144,40,133638,1,8,0:0:0
144,40,133719,38,0,B|152:96|124:152,1,110.000003356934,6|0,0:0|0:0,0:0:0
36,208,134043,1,8,0:0:0
136,252,134205,2,0,B|184:328|276:340,1,165.000005035401,2|2,0:0|0:0,0:0:0
344,332,134529,2,0,B|392:312|448:300,2,110.000003356934,2|8|8,0:0|0:0|0:0,0:0:0
344,332,134935,1,0,0:0:0
344,332,135016,5,2,0:0:0
368,224,135178,1,0,0:0:0
328,124,135340,1,8,0:0:0
396,36,135502,2,0,B|316:16|228:12,1,165.000005035401,2|2,0:0|0:0,0:0:0
212,12,135827,2,0,B|232:64|232:120,1,110.000003356934,0|8,0:0|0:0,0:0:0
208,228,136151,1,8,0:0:0
208,228,136232,1,8,0:0:0
208,228,136313,6,0,B|152:208|88:220,2,110.000003356934,6|0|8,0:0|0:0|0:0,0:0:0
268,320,136800,2,0,B|344:280|436:288,1,165.000005035401,2|2,0:0|0:0,0:0:0
452,292,137124,2,0,B|468:240|476:180,1,110.000003356934,0|8,0:0|0:0,0:0:0
452,76,137448,1,8,0:0:0
452,76,137529,1,8,0:0:0
452,76,137611,6,0,B|400:100|332:100,1,110.000003356934,2|0,0:0|0:0,0:0:0
236,92,137935,1,8,0:0:0
128,88,138097,1,2,0:0:0
20,68,138259,37,8,0:0:0
20,68,138340,1,8,0:0:0
20,68,138421,1,2,0:0:0
80,224,138583,1,8,0:0:0
80,224,138665,1,8,0:0:0
80,224,138746,1,2,0:0:0
80,224,138827,1,8,0:0:0
80,224,138908,6,0,B|132:208|192:208,1,110.000003356934,12|2,0:0|0:0,0:0:0
188,208,139232,1,8,0:0:0
240,308,139394,2,0,B|296:324|352:320,1,110.000003356934,2|0,0:0|0:0,0:0:0
348,320,139719,1,2,0:0:0
448,272,139881,5,8,0:0:0
396,176,140043,1,0,0:0:0
428,72,140205,1,2,0:0:0
324,100,140367,5,2,0:0:0
224,52,140529,1,8,0:0:0
116,80,140692,1,2,0:0:0
12,112,140854,38,0,B|28:164|40:224,1,110.000003356934,0|2,0:0|0:0,0:0:0
112,300,141178,2,0,B|168:320|212:352,1,110.000003356934,8|8,0:0|0:0,0:0:0
209,350,141421,1,8,0:0:0
209,350,141502,6,0,B|264:352|324:344,1,110.000003356934,12|0,0:0|0:0,0:0:0
372,212,141827,2,0,B|317:210|257:218,1,110.000003356934,8|2,0:0|0:0,0:0:0
49,234,142151,6,0,B|103:235|163:227,1,110.000003356934,0|2,0:0|0:0,0:0:0
200,44,142475,2,0,B|145:42|85:50,1,110.000003356934,8|2,0:0|0:0,0:0:0
24,136,142800,5,2,0:0:0
24,136,142962,1,2,0:0:0
132,144,143124,2,0,B|188:148|248:140,1,110.000003356934,8|0,0:0|0:0,0:0:0
348,112,143448,1,8,0:0:0
348,112,143529,1,8,0:0:0
348,112,143611,1,8,0:0:0
440,176,143773,1,8,0:0:0
451,211,143854,1,8,0:0:0
449,248,143935,1,8,0:0:0
436,284,144016,1,8,0:0:0
412,312,144097,5,12,0:0:0
300,284,144584,1,8,0:0:0
188,308,145070,1,0,0:0:0
188,308,145151,1,0,0:0:0
188,308,145232,1,0,0:0:0
188,308,145313,1,0,0:0:0
188,308,145394,2,0,B|108:308|56:240,1,150
60,224,145719,2,0,B|71:172|64:120,1,100,2|8,0:0|0:0,0:0:0
144,56,146367,1,8,0:0:0
144,56,146692,5,4,0:0:0
240,100,147178,1,8,0:0:0
344,76,147665,1,0,0:0:0
344,76,147746,1,0,0:0:0
344,76,147827,1,0,0:0:0
344,76,147908,1,0,0:0:0
344,76,147989,2,0,B|420:88|464:168,1,150
456,180,148313,2,0,B|452:236|456:292,1,100,2|8,0:0|0:0,0:0:0
372,344,148962,1,8,0:0:0
372,344,149043,1,8,0:0:0
372,344,149124,1,8,0:0:0
372,344,149205,1,8,0:0:0
372,344,149286,70,0,B|284:304|184:324,1,150
208,320,149611,2,0,B|164:296|116:280,1,100,2|8,0:0|0:0,0:0:0
16,248,150259,1,8,0:0:0
16,248,150584,6,0,B|68:196|76:104,1,150
76,96,150908,1,2,0:0:0
76,96,151070,2,0,B|176:100|272:60,1,200,8|0,0:0|0:0,0:0:0
348,32,151556,2,0,B|360:112|392:176,1,150,8|2,0:0|0:0,0:0:0
408,188,151881,70,0,B|404:296,1,100,2|2,0:0|0:0,0:0:0
356,356,152205,1,8,0:0:0
324,280,152367,2,0,B|248:260|176:260,1,150,2|2,0:0|0:0,0:0:0
152,260,152692,2,0,B|196:228|220:176,1,100,2|8,0:0|0:0,0:0:0
240,112,153016,1,2,0:0:0
164,132,153178,1,2,0:0:0
60,88,153340,6,0,B|72:160|72:248,1,150,8|2,0:0|0:0,0:0:0
64,272,153665,2,0,B|72:332|132:348,1,100,8|0,0:0|0:0,0:0:0
208,328,153989,1,2,0:0:0
288,308,154151,69,8,0:0:0
312,302,154232,1,8,0:0:0
336,294,154313,1,8,0:0:0
360,290,154394,1,8,0:0:0
384,282,154475,6,0,B|464:256|480:172,1,150,4|2,0:0|0:0,0:0:0
476,152,154800,2,0,B|424:140|384:92,1,100,8|2,0:0|0:0,0:0:0
344,12,155124,1,0,0:0:0
288,96,155286,69,2,0:0:0
304,224,155448,1,8,0:0:0
180,180,155611,2,0,B|100:192|32:240,1,150,2|2,0:0|0:0,0:0:0
20,248,155935,2,0,B|36:200|36:148,1,100,2|8,0:0|0:0,0:0:0
16,52,156259,2,0,B|108:76|216:60,1,200,2|2,0:0|0:0,0:0:0
312,32,156746,6,0,B|312:112|332:180,1,150,8|2,0:0|0:0,0:0:0
372,212,157070,2,0,B|420:228|452:272,1,100,4|2,0:0|0:0,0:0:0
480,368,157394,1,8,0:0:0
384,344,157556,2,0,B|304:332|228:344,1,150,2|0,0:0|0:0,0:0:0
204,348,157881,2,0,B|224:296|212:244,1,100,0|8,0:0|0:0,0:0:0
184,152,158205,70,0,B|276:104|384:124,1,200,2|2,0:0|0:0,0:0:0
300,256,158692,2,0,B|208:304|100:284,1,200,8|2,0:0|0:0,0:0:0
40,212,159178,1,2,0:0:0
96,132,159340,1,8,0:0:0
44,44,159502,1,8,0:0:0
44,44,159584,1,8,0:0:0
44,44,159665,6,0,B|120:44|200:60,1,150,6|2,0:0|0:0,0:0:0
264,76,159989,2,0,B|308:60|364:56,1,100,8|2,0:0|0:0,0:0:0
444,108,160313,1,0,0:0:0
360,160,160475,69,2,0:0:0
456,248,160638,1,8,0:0:0
332,288,160800,2,0,B|255:308|184:263,1,150,2|0,0:0|0:0,0:0:0
168,252,161124,2,0,B|185:298|192:356,1,100,2|8,0:0|0:0,0:0:0
76,176,161448,2,0,B|116:84|220:44,1,200,2|2,0:0|0:0,0:0:0
320,44,161935,6,0,B|320:124|344:192,1,150,8|2,0:0|0:0,0:0:0
336,216,162259,2,0,B|388:220|428:252,1,100,6|2,0:0|0:0,0:0:0
488,332,162584,1,8,0:0:0
388,344,162746,2,0,B|312:312|244:308,1,150,2|0,0:0|0:0,0:0:0
224,308,163070,2,0,B|248:268|252:212,1,100,2|8,0:0|0:0,0:0:0
208,124,163394,1,2,0:0:0
72,72,163556,69,8,0:0:0
96,212,163881,1,8,0:0:0
40,344,164205,2,0,B|108:308|184:308,1,150,8|8,0:0|0:0,0:0:0
208,312,164529,2,0,B|256:327|308:328,1,100
404,312,164854,1,4,0:0:0
404,312,165502,6,0,B|440:168,1,150
448,136,166151,6,0,B|381:150|324:113,1,125,4|2,0:0|0:0,0:0:0
232,36,166475,1,8,0:0:0
112,68,166638,2,0,B|48:96|24:160,1,125,2|0,0:0|0:0,0:0:0
36,280,166962,1,2,0:0:0
136,208,167124,2,0,B|240:212|296:296,1,187.5,8|2,0:0|0:0,0:0:0
304,320,167448,6,0,B|320:260|348:200,1,125,2|2,0:0|0:0,0:0:0
428,44,167773,2,0,B|328:36|240:88,1,187.5,8|0,0:0|0:0,0:0:0
112,68,168097,2,0,B|136:160|120:268,1,187.5,2|2,0:0|0:0,0:0:0
216,240,168421,2,0,B|104:244|68:352,1,187.5,8|0,0:0|0:0,0:0:0
76,368,168746,6,0,B|72:304|52:240,1,125,2|2,0:0|0:0,0:0:0
20,124,169070,1,8,0:0:0
140,156,169232,2,0,B|236:160|320:96,1,187.5,2|2,0:0|0:0,0:0:0
380,60,169556,2,0,B|384:124|412:180,1,125,2|8,0:0|0:0,0:0:0
484,280,169881,1,2,0:0:0
360,288,170043,53,2,0:0:0
208,372,170205,1,2,0:0:0
212,196,170367,2,0,B|176:104|76:72,1,187.5,8|2,0:0|0:0,0:0:0
54,75,170692,2,0,B|114:67|174:43,1,125,8|2,0:0|0:0,0:0:0
472,112,171016,2,0,B|412:120|352:144,1,125,8|8,0:0|0:0,0:0:0
308,188,171259,1,0,0:0:0
276,244,171340,6,0,B|196:304|92:280,1,187.5,14|0,0:0|0:0,0:0:0
80,276,171665,1,8,0:0:0
41,157,171827,2,0,B|33:86|87:47|87:47|151:21|204:66,1,250,2|2,0:0|0:0,0:0:0
296,148,172313,2,0,B|380:124|484:136,1,187.5,8|2,0:0|0:0,0:0:0
472,248,172638,6,0,B|416:236|340:232,1,125,2|2,0:0|0:0,0:0:0
264,324,172962,2,0,B|180:380|76:372,1,187.5,8|2,0:0|0:0,0:0:0
12,352,173286,53,2,0:0:0
152,260,173448,1,2,0:0:0
52,132,173611,1,8,0:0:0
192,48,173773,1,2,0:0:0
240,164,173935,6,2,B|324:116|420:116,1,187.5,2|2,0:0|0:0,0:0:0
438,117,174259,1,8,0:0:0
264,240,174421,6,2,B|180:288|84:288,1,187.5,2|2,0:0|0:0,0:0:0
66,287,174746,1,2,0:0:0
144,188,174908,1,8,0:0:0
80,68,175070,1,2,0:0:0
280,96,175232,54,0,B|372:60|468:56,1,187.5,2|2,0:0|0:0,0:0:0
480,60,175556,2,0,B|500:120,2,62.5,8|8|2,0:0|0:0|0:0,0:0:0
364,200,175881,2,0,B|384:260,2,62.5,8|8|2,0:0|0:0|0:0,0:0:0
468,296,176205,1,0,0:0:0
440,332,176286,1,8,0:0:0
400,352,176367,1,8,0:0:0
356,356,176448,1,8,0:0:0
312,352,176529,6,0,B|252:328|188:328,1,125,14|2,0:0|0:0,0:0:0
64,332,176854,1,8,0:0:0
96,212,177016,2,0,B|116:108|44:40,1,187.5,2|2,0:0|0:0,0:0:0
24,32,177340,2,0,B|80:48|148:48,1,125,2|8,0:0|0:0,0:0:0
272,36,177665,1,0,0:0:0
216,148,177827,5,2,0:0:0
151,278,177989,1,2,0:0:0
260,378,178151,1,8,0:0:0
387,307,178313,1,2,0:0:0
360,165,178475,2,0,B|292:224|184:212,1,187.5,2|2,0:0|0:0,0:0:0
160,192,178800,2,0,B|192:244|196:320,1,125,8|8,0:0|0:0,0:0:0
152,356,179043,1,8,0:0:0
92,340,179124,54,0,B|60:288|56:212,1,125,12|2,0:0|0:0,0:0:0
112,108,179448,1,8,0:0:0
16,28,179611,2,0,B|112:16|204:40,1,187.5,2|2,0:0|0:0,0:0:0
264,76,179935,2,0,B|260:144|280:208,1,125,2|8,0:0|0:0,0:0:0
328,312,180259,1,0,0:0:0
400,208,180421,5,2,0:0:0
264,76,180584,1,2,0:0:0
216,260,180746,2,0,B|168:356|44:344,1,187.5,8|2,0:0|0:0,0:0:0
40,320,181070,2,0,B|20:260|28:188,1,125,2|2,0:0|0:0,0:0:0
72,80,181394,1,8,0:0:0
152,176,181556,1,8,0:0:0
152,176,181638,1,8,0:0:0
152,176,181719,6,0,B|232:132|336:120,1,187.5,14|0,0:0|0:0,0:0:0
356,120,182043,1,8,0:0:0
228,364,182205,2,0,B|80:352|40:204,1,250,2|2,0:0|0:0,0:0:0
308,340,182692,2,0,B|244:268|240:148|296:60|388:24,1,375,8|2,0:0|0:0,0:0:0
444,44,183259,1,2,0:0:0
468,100,183340,54,0,B|444:164|440:224,1,125,8|0,0:0|0:0,0:0:0
436,348,183665,2,0,B|352:296|252:300,1,187.5,2|2,0:0|0:0,0:0:0
96,296,183989,2,0,B|164:288|208:244,1,125,8|0,0:0|0:0,0:0:0
268,136,184313,6,0,B|232:80|168:60,1,125,2|0,0:0|0:0,0:0:0
44,52,184638,1,8,0:0:0
72,216,184800,6,0,B|124:180|192:180,1,125,2|0,0:0|0:0,0:0:0
304,216,185124,1,2,0:0:0
408,148,185286,6,0,B|408:48|328:16|240:28|188:60|156:184|288:224|376:188|376:36|256:20|192:44|140:64,1,500,8|8,0:0|0:0,0:0:0
96,136,186097,1,2,0:0:0
168,236,186259,2,0,B|144:340|40:364,1,187.5,2|2,0:0|0:0,0:0:0
24,364,186584,2,0,B|84:356|152:380,1,125,8|2,0:0|0:0,0:0:0
268,352,186908,38,0,B|336:340|384:304,1,125,2|0,0:0|0:0,0:0:0
456,204,187232,1,8,0:0:0
290,259,187394,6,0,B|224:268|166:235,1,125,2|0,0:0|0:0,0:0:0
96,136,187719,1,2,0:0:0
188,52,187881,22,0,B|296:16|400:36|456:128|416:196|348:212|278:204|252:124|292:64|352:56|388:104,1,500,8|8,0:0|0:0,0:0:0
456,204,188692,1,2,0:0:0
420,324,188854,2,0,B|296:312|228:320,1,187.5,2|2,0:0|0:0,0:0:0
84,236,189178,2,0,B|208:224|276:232,1,187.5,8|2,0:0|0:0,0:0:0
380,168,189502,38,0,B|360:104|296:64,1,125,2|2,0:0|0:0,0:0:0
184,40,189827,1,8,0:0:0
36,160,189989,6,0,B|96:148|164:164,1,125,2|0,0:0|0:0,0:0:0
268,224,190313,1,2,0:0:0
380,168,190475,22,0,B|434:127|506:163|521:243|487:292|433:307|388:299|363:263|363:263|353:315|303:376|236:367|204:369|131:370|81:297|104:196|185:149|262:192|277:255|250:357|202:402|102:367|57:322|44:271|44:271|0:243|-10:188|0:137|63:97|116:125,1,1187.5,8|0,0:0|0:0,0:0:0
85,199,192097,38,0,B|128:199|158:177|169:141,1,110.000003356934,12|0,0:0|0:0,0:0:0
180,32,192421,1,8,0:0:0
272,96,192584,2,0,B|352:68|444:76,1,165.000005035401,2|2,0:0|0:0,0:0:0
484,132,192908,2,0,B|476:192|480:244,1,110.000003356934,2|8,0:0|0:0,0:0:0
492,352,193232,1,0,0:0:0
392,308,193394,6,0,B|336:320|280:312,1,110.000003356934,2|0,0:0|0:0,0:0:0
176,288,193719,1,8,0:0:0
76,328,193881,2,0,B|68:232|68:160,1,165.000005035401,2|2,0:0|0:0,0:0:0
68,140,194205,2,0,B|116:176|172:176,1,110.000003356934,2|8,0:0|0:0,0:0:0
280,156,194529,1,2,0:0:0
384,192,194692,6,0,B|392:96|464:56,1,165.000005035401,2|0,0:0|0:0,0:0:0
480,52,195016,2,0,B|424:56|368:44,1,110.000003356934,8|2,0:0|0:0,0:0:0
264,28,195340,1,0,0:0:0
156,44,195502,1,2,0:0:0
48,36,195665,2,0,B|64:136|56:216,1,165.000005035401,8|2,0:0|0:0,0:0:0
36,272,195989,6,0,B|80:320|128:336,1,110.000003356934,2|0,0:0|0:0,0:0:0
228,300,196313,1,8,0:0:0
148,224,196475,2,0,B|224:188|308:188,1,165.000005035401,2|2,0:0|0:0,0:0:0
328,188,196800,1,2,0:0:0
432,268,196962,1,8,0:0:0
448,136,197124,1,8,0:0:0
436,108,197205,1,8,0:0:0
424,80,197286,38,0,B|376:48|320:48,1,110.000003356934,12|0,0:0|0:0,0:0:0
212,68,197611,1,8,0:0:0
284,152,197773,2,0,B|308:204|288:264,1,110.000003356934,2|0,0:0|0:0,0:0:0
228,348,198097,1,0,0:0:0
120,324,198259,2,0,B|31:296|6:206,1,165.000005035401,8|8,0:0|0:0,0:0:0
8,180,198584,6,0,B|68:176|116:140,1,110.000003356934,2|0,0:0|0:0,0:0:0
188,64,198908,1,8,0:0:0
292,104,199070,2,0,B|348:112|400:92,1,110.000003356934,2|0,0:0|0:0,0:0:0
488,24,199394,1,2,0:0:0
504,132,199556,2,0,B|496:216|480:304,1,165.000005035401,8|8,0:0|0:0,0:0:0
496,372,199881,6,0,B|440:356|388:356,1,110.000003356934,6|0,0:0|0:0,0:0:0
280,364,200205,1,8,0:0:0
172,340,200367,2,0,B|80:324|44:244,1,165.000005035401,2|2,0:0|0:0,0:0:0
44,224,200692,2,0,B|44:276|24:344,1,110.000003356934,2|8,0:0|0:0,0:0:0
16,124,201016,1,8,0:0:0
16,124,201097,1,8,0:0:0
16,124,201178,6,0,B|16:72|36:4,1,110.000003356934,8|0,0:0|0:0,0:0:0
120,80,201502,1,8,0:0:0
120,80,201584,1,8,0:0:0
120,80,201665,1,2,0:0:0
256,56,201827,1,8,0:0:0
256,56,201908,1,8,0:0:0
256,56,201989,1,2,0:0:0
208,188,202151,1,8,0:0:0
248,204,202232,1,8,0:0:0
292,200,202313,1,8,0:0:0
332,184,202394,1,8,0:0:0
360,148,202475,22,0,B|373:94|408:48,1,110.000003356934,12|2,0:0|0:0,0:0:0
448,240,202800,2,0,B|434:293|400:340,1,110.000003356934,8|2,0:0|0:0,0:0:0
264,308,203124,2,0,B|216:336|156:336,1,110.000003356934,0|2,0:0|0:0,0:0:0
112,228,203448,2,0,B|64:208|28:156,1,110.000003356934,8|2,0:0|0:0,0:0:0
144,112,203773,69,2,0:0:0
300,52,203935,1,2,0:0:0
278,215,204097,1,8,0:0:0
264,308,204259,5,2,0:0:0
397,177,204421,1,8,0:0:0
444,360,204584,1,8,0:0:0
