osu file format v12

[General]
AudioFilename: FlashBack.mp3
AudioLeadIn: 0
PreviewTime: 154133
Countdown: 0
SampleSet: Normal
StackLeniency: 0.7
Mode: 0
LetterboxInBreaks: 0

[Editor]
DistanceSpacing: 1
BeatDivisor: 4
GridSize: 4

[Metadata]
Title:FlashBack
TitleUnicode:FlashBack
Artist:Akiakane
ArtistUnicode:秋赤音
Creator:etc
Version:Normal
Source:Toysfactory
Tags:Megurine Luka Boroboro na Ikizama yama-ko
BeatmapID:151540
BeatmapSetID:48320

[Difficulty]
HPDrainRate:3
CircleSize:3
OverallDifficulty:3
ApproachRate:4
SliderMultiplier:0.7
SliderTickRate:1

[Events]
//Background and Video events
0,0,"2.jpg",0,0
//Break Periods
2,11978,20836
2,128733,137593
2,149491,153160
//Storyboard Layer 0 (Background)
//Storyboard Layer 1 (Fail)
//Storyboard Layer 2 (Pass)
//Storyboard Layer 3 (Foreground)
//Storyboard Sound Samples
//Background Colour Transformations
3,100,255,255,255

[TimingPoints]
6589,324.324324324324,4,1,0,50,1,0
11778,-100,4,1,0,50,0,1
11859,-100,4,1,0,50,0,0
50697,-100,4,2,0,50,0,0
51994,-100,4,1,0,50,0,0
53291,-100,4,1,0,50,0,1
74048,-100,4,1,0,30,0,0
107778,-100,4,1,0,50,0,1
128534,-100,4,1,0,50,0,0
166156,-100,4,1,0,50,0,1
197291,-100,4,1,0,50,0,0

[Colours]
Combo1 : 255,77,166
Combo2 : 72,213,253
Combo3 : 255,255,255

[HitObjects]
256,192,6588,12,0,11291,0:0:0:0:
256,192,11778,5,4,0:0:0:0:
40,156,22156,6,0,B|84:96|168:108,1,140,0|0,0:0|0:0,0:0:0:0:
184,248,23453,2,0,B|263:259|307:199,1,140,0|0,0:0|0:0,0:0:0:0:
366,71,24751,2,0,B|374:150|456:164,1,140
484,236,25724,1,8,0:0:0:0:
373,288,26372,5,8,0:0:0:0:
320,336,26697,1,0,0:0:0:0:
254,312,27021,1,8,0:0:0:0:
189,339,27345,6,0,B|185:255|113:227,1,140,4|0,0:0|0:0,0:0:0:0:
26,121,28643,2,0,B|110:117|138:45,1,140
191,177,29940,2,0,B|267:185|291:269,1,140
296,340,30913,1,8,0:0:0:0:
416,268,31561,1,8,0:0:0:0:
476,228,31886,1,8,0:0:0:0:
296,340,32534,6,2,B|208:312|232:220,1,140,2|0,0:0|0:0,0:0:0:0:
292,108,33832,2,2,B|221:136|161:82,1,140,2|2,0:0|0:0,0:0:0:0:
36,24,35129,2,2,B|60:172,1,140,0|0,0:0|0:0,0:0:0:0:
72,232,36102,1,8,0:0:0:0:
88,300,36426,2,0,B|16:312,2,70,0|8|0,0:0|0:0|0:0,0:0:0:0:
106,164,37724,6,2,B|244:192,1,140,6|2,0:0|0:0,0:0:0:0:
376,144,39021,2,2,B|412:220|360:274,1,140
232,332,40318,2,2,B|196:256|247:201,1,140
184,168,41291,1,8,0:0:0:0:
124,204,41616,6,0,B|84:212|48:188,1,70,0|8,0:0|0:0,0:0:0:0:
20,132,42264,2,0,B|40:104|36:64,1,70,0|8,0:0|0:0,0:0:0:0:
100,36,42913,1,0,0:0:0:0:
172,24,43237,5,8,0:0:0:0:
224,72,43561,2,0,P|292:92|368:88,1,140
428,68,44534,2,0,B|444:152,1,70,8|0,0:0|0:0,0:0:0:0:
376,160,45183,1,8,0:0:0:0:
308,184,45507,6,0,B|368:236|336:312,1,140,4|0,0:0|0:0,0:0:0:0:
284,356,46480,2,0,B|212:376|144:332,1,140,8|8,0:0|0:0,0:0:0:0:
84,360,47453,1,0,0:0:0:0:
24,236,48102,6,0,B|0:212|0:172,1,70,4|8,0:0|0:0,0:0:0:0:
56,128,48751,2,0,B|56:88|32:64,1,70,0|8,0:0|0:0,0:0:0:0:
92,28,49399,2,0,B|116:4|156:4,1,70,0|8,0:0|0:0,0:0:0:0:
212,44,50048,1,0,0:0:0:0:
352,40,50697,5,2,0:0:0:0:
436,140,51345,1,2,0:0:0:0:
368,264,51994,1,4,0:0:0:0:
24,88,53291,6,0,B|60:96|72:144,1,70,4|2,0:0|0:0,0:0:0:0:
100,200,53940,2,0,B|176:172,1,70,0|2,0:0|0:0,0:0:0:0:
176,108,54588,2,0,B|248:84,1,70,0|2,0:0|0:0,0:0:0:0:
308,60,55237,1,0,0:0:0:0:
432,124,55886,6,0,B|400:148|392:192,1,70,4|2,0:0|0:0,0:0:0:0:
372,248,56534,2,0,B|352:220|304:212,1,70,0|2,0:0|0:0,0:0:0:0:
256,252,57183,2,0,B|176:276,1,70,0|2,0:0|0:0,0:0:0:0:
140,324,57832,1,0,0:0:0:0:
40,72,58480,6,0,B|64:100|56:140,1,70,4|2,0:0|0:0,0:0:0:0:
92,196,59129,2,0,B|164:176,1,70,0|2,0:0|0:0,0:0:0:0:
228,172,59778,2,0,B|220:128|244:96,1,70,0|2,0:0|0:0,0:0:0:0:
296,64,60426,1,0,0:0:0:0:
364,44,60751,1,2,0:0:0:0:
384,112,61075,6,0,B|460:136,1,70,0|2,0:0|0:0,0:0:0:0:
476,196,61724,2,0,B|484:236|460:272,1,70,0|2,0:0|0:0,0:0:0:0:
396,268,62372,2,0,B|320:268|268:324,1,140
132,328,63670,6,0,B|96:300|104:256,1,70,4|2,0:0|0:0,0:0:0:0:
68,208,64318,2,0,B|132:180,1,70,0|2,0:0|0:0,0:0:0:0:
204,180,64967,2,0,B|236:152|228:104,1,70,0|2,0:0|0:0,0:0:0:0:
204,52,65616,1,0,0:0:0:0:
340,68,66264,6,0,B|380:72|424:60,1,70,0|2,0:0|0:0,0:0:0:0:
464,108,66913,2,0,B|460:188,1,70,0|2,0:0|0:0,0:0:0:0:
392,196,67561,2,0,B|388:272,1,70,0|2,0:0|0:0,0:0:0:0:
324,288,68210,1,0,0:0:0:0:
188,324,68859,6,0,B|156:292|112:288,1,70,4|2,0:0|0:0,0:0:0:0:
64,260,69507,2,0,B|92:196,1,70,0|2,0:0|0:0,0:0:0:0:
112,128,70156,2,0,B|184:160,1,70,0|2,0:0|0:0,0:0:0:0:
240,124,70805,1,0,0:0:0:0:
304,152,71129,1,2,0:0:0:0:
340,92,71453,6,0,B|360:52|404:44,1,70,0|2,0:0|0:0,0:0:0:0:
456,76,72102,2,0,B|480:184|448:304|352:344|216:336,1,420
460,64,76643,6,0,B|312:96,1,140,4|0,0:0|0:0,0:0:0:0:
200,92,77940,2,0,B|220:172|144:220,1,140
48,304,79237,2,0,B|192:276,1,140
252,280,80210,1,0,0:0:0:0:
308,320,80534,2,0,B|372:268|348:184,1,140
444,92,81832,6,0,B|432:164|432:164|448:200|436:240,1,140,4|0,0:0|0:0,0:0:0:0:
348,336,83129,2,0,B|288:328|204:316,1,140
69,334,84426,2,0,B|101:262|93:194,1,140
56,140,85399,1,0,0:0:0:0:
112,100,85724,2,0,B|184:112|252:80,1,140
404,32,87021,5,4,0:0:0:0:
388,172,87670,1,0,0:0:0:0:
368,312,88318,1,0,0:0:0:0:
368,312,88643,1,0,0:0:0:0:
368,312,88967,1,0,0:0:0:0:
228,320,89616,6,0,B|148:308|92:256,1,140
20,152,90913,1,0,0:0:0:0:
116,52,91561,1,0,0:0:0:0:
152,204,92210,6,0,B|132:128|200:68,1,140,4|0,0:0|0:0,0:0:0:0:
328,44,93507,1,0,0:0:0:0:
328,44,93832,1,0,0:0:0:0:
328,44,94156,1,0,0:0:0:0:
412,156,94805,6,0,B|416:236|328:256,1,140
356,320,95778,2,0,B|276:304|216:360,1,140,8|0,0:0|0:0,0:0:0:0:
148,344,96751,2,0,B|80:312|88:228,1,140
36,180,97724,2,0,B|76:120|168:120,1,140
284,64,99021,6,0,B|256:208,1,140,8|0,0:0|0:0,0:0:0:0:
240,268,99994,1,0,0:0:0:0:
240,268,100318,2,0,B|388:288,2,140,8|0|8,0:0|0:0|0:0,0:0:0:0:
224,336,101940,6,0,B|80:316,1,140,0|4,0:0|0:0,0:0:0:0:
52,256,102913,1,8,0:0:0:0:
96,204,103237,2,0,B|144:136|88:72,1,140
164,48,104210,2,0,B|228:80|312:80,1,140,8|0,0:0|0:0,0:0:0:0:
368,64,105183,5,4,0:0:0:0:
472,156,105832,1,0,0:0:0:0:
360,240,106480,1,0,0:0:0:0:
24,88,107778,6,0,B|60:96|72:144,1,70,4|2,0:0|0:0,0:0:0:0:
108,196,108427,2,0,B|184:168,1,70,0|2,0:0|0:0,0:0:0:0:
188,104,109075,2,0,B|260:80,1,70,0|2,0:0|0:0,0:0:0:0:
320,60,109724,1,0,0:0:0:0:
440,132,110373,6,0,B|408:156|400:200,1,70,4|2,0:0|0:0,0:0:0:0:
384,256,111021,2,0,B|364:228|316:220,1,70,0|2,0:0|0:0,0:0:0:0:
264,256,111670,2,0,B|184:280,1,70,0|2,0:0|0:0,0:0:0:0:
152,328,112319,1,0,0:0:0:0:
40,72,112967,6,0,B|64:100|56:140,1,70,4|2,0:0|0:0,0:0:0:0:
104,192,113616,2,0,B|176:172,1,70,0|2,0:0|0:0,0:0:0:0:
240,168,114265,2,0,B|232:124|256:92,1,70,0|2,0:0|0:0,0:0:0:0:
308,60,114913,1,0,0:0:0:0:
376,44,115238,1,2,0:0:0:0:
400,108,115562,6,0,B|476:132,1,70,0|2,0:0|0:0,0:0:0:0:
468,200,116211,2,0,B|476:240|452:276,1,70,0|2,0:0|0:0,0:0:0:0:
388,276,116859,2,0,B|312:276|260:332,1,140
124,328,118157,6,0,B|88:300|96:256,1,70,4|2,0:0|0:0,0:0:0:0:
68,204,118805,2,0,B|132:176,1,70,0|2,0:0|0:0,0:0:0:0:
204,180,119454,2,0,B|236:152|228:104,1,70,0|2,0:0|0:0,0:0:0:0:
212,48,120103,1,0,0:0:0:0:
352,64,120751,6,0,B|436:56,1,70,4|2,0:0|0:0,0:0:0:0:
460,116,121400,2,0,B|456:196,1,70,0|2,0:0|0:0,0:0:0:0:
388,200,122048,2,0,B|384:276,1,70,0|2,0:0|0:0,0:0:0:0:
316,288,122697,1,0,0:0:0:0:
180,316,123346,6,0,B|148:284|104:280,1,70,4|2,0:0|0:0,0:0:0:0:
60,248,123994,2,0,B|88:184,1,70,0|2,0:0|0:0,0:0:0:0:
116,120,124643,2,0,B|188:152,1,70,0|2,0:0|0:0,0:0:0:0:
224,204,125292,1,0,0:0:0:0:
276,156,125616,1,2,0:0:0:0:
284,88,125940,6,0,B|304:48|348:40,1,70,0|2,0:0|0:0,0:0:0:0:
404,60,126588,2,0,B|468:244|360:368|200:356|200:356,1,420
128,304,138913,6,0,B|172:320|212:304|212:304|281:306,1,140,4|0,0:0|0:0,0:0:0:0:
328,332,139886,2,0,B|316:260|328:192,1,140
280,140,140859,2,0,B|356:164|424:140,1,140
468,192,141832,6,0,B|484:228|468:264,1,70,0|0,0:0|0:0,0:0:0:0:
428,316,142480,2,0,B|392:324|356:316,1,70
296,288,143129,2,0,B|260:296|220:288,1,70
160,316,143778,1,0,0:0:0:0:
256,192,144102,12,4,149291,0:0:0:0:
60,72,154480,6,0,B|140:48|204:92,1,140,4|0,0:0|0:0,0:0:0:0:
172,152,155453,2,0,B|224:196|312:180,1,140,8|0,0:0|0:0,0:0:0:0:
348,128,156426,1,0,0:0:0:0:
476,72,157075,6,0,B|532:144|476:212,1,140,4|0,0:0|0:0,0:0:0:0:
468,268,158048,2,0,B|408:220|320:252,1,140,8|0,0:0|0:0,0:0:0:0:
284,296,159021,1,0,0:0:0:0:
152,348,159670,6,0,B|80:300|108:220,1,140,4|0,0:0|0:0,0:0:0:0:
56,176,160643,2,0,B|104:120|188:136,1,140,8|0,0:0|0:0,0:0:0:0:
220,76,161616,1,0,0:0:0:0:
356,36,162264,6,0,B|444:56|452:140,1,140,4|0,0:0|0:0,0:0:0:0:
476,192,163237,1,8,0:0:0:0:
460,260,163561,2,0,B|368:372|192:344,1,280,0|4,0:0|0:0,0:0:0:0:
68,80,166156,6,0,B|104:88|116:136,1,70,4|2,0:0|0:0,0:0:0:0:
116,200,166805,2,0,B|192:172,1,70,0|2,0:0|0:0,0:0:0:0:
248,152,167453,2,0,B|248:68,2,70,0|2|0,0:0|0:0|0:0,0:0:0:0:
380,104,168751,6,0,B|416:124|436:160,1,70,4|2,0:0|0:0,0:0:0:0:
460,212,169399,2,0,B|428:224|408:260,1,70,0|2,0:0|0:0,0:0:0:0:
388,324,170048,2,0,B|308:348,1,70,0|2,0:0|0:0,0:0:0:0:
244,352,170697,1,0,0:0:0:0:
104,332,171345,6,0,B|80:304|88:264,1,70,4|2,0:0|0:0,0:0:0:0:
64,200,171994,2,0,B|136:176,1,70,0|2,0:0|0:0,0:0:0:0:
200,160,172643,2,0,B|192:116|216:84,1,70,0|2,0:0|0:0,0:0:0:0:
268,56,173291,1,0,0:0:0:0:
336,48,173616,1,2,0:0:0:0:
392,92,173940,6,0,B|468:116,1,70,0|2,0:0|0:0,0:0:0:0:
464,184,174589,2,0,B|472:224|448:260,1,70,0|2,0:0|0:0,0:0:0:0:
412,308,175237,2,0,B|476:336,2,70,0|0|0,0:0|0:0|0:0,0:0:0:0:
260,308,176535,6,0,B|224:280|232:236,1,70,4|2,0:0|0:0,0:0:0:0:
204,184,177183,2,0,B|140:212,1,70,0|2,0:0|0:0,0:0:0:0:
68,216,177832,2,0,B|64:172|40:136,1,70,0|2,0:0|0:0,0:0:0:0:
16,84,178481,1,0,0:0:0:0:
152,48,179129,6,0,B|236:40,1,70,4|2,0:0|0:0,0:0:0:0:
292,56,179778,2,0,B|288:136,1,70,0|2,0:0|0:0,0:0:0:0:
356,148,180426,2,0,B|352:224,1,70,0|2,0:0|0:0,0:0:0:0:
416,248,181075,1,0,0:0:0:0:
312,340,181724,6,0,B|280:308|236:304,1,70,4|2,0:0|0:0,0:0:0:0:
184,328,182372,2,0,B|120:300,1,70,0|2,0:0|0:0,0:0:0:0:
56,272,183021,2,0,B|56:192,1,70,0|2,0:0|0:0,0:0:0:0:
56,132,183670,1,0,0:0:0:0:
116,96,183994,1,2,0:0:0:0:
180,124,184318,6,0,B|200:84|244:76,1,70,0|2,0:0|0:0,0:0:0:0:
300,60,184967,2,2,B|412:84|464:160|432:280,1,280,0|0,0:0|0:0,0:0:0:0:
376,300,186588,1,2,0:0:0:0:
308,332,186913,6,0,B|280:304|244:284,1,70,4|2,0:0|0:0,0:0:0:0:
188,312,187561,2,0,L|112:304,1,70,2|0,0:0|0:0,0:0:0:0:
68,256,188210,2,2,P|52:180|64:112,1,140,6|2,0:0|0:0,0:0:0:0:
268,32,189507,6,0,B|300:52|336:80,1,70,4|2,0:0|0:0,0:0:0:0:
396,80,190156,2,0,B|400:124|380:160,1,70,0|2,0:0|0:0,0:0:0:0:
396,216,190805,2,2,B|336:264|324:344,1,140,0|0,0:0|0:0,0:0:0:0:
256,212,192102,5,4,0:0:0:0:
256,192,192183,8,4,197291,0:0:0:0:
