osu file format v12

[General]
AudioFilename: FlashBack.mp3
AudioLeadIn: 0
PreviewTime: 154133
Countdown: 0
SampleSet: Normal
StackLeniency: 0.7
Mode: 0
LetterboxInBreaks: 0

[Editor]
Bookmarks: 11291
DistanceSpacing: 1.2
BeatDivisor: 4
GridSize: 4

[Metadata]
Title:FlashBack
TitleUnicode:FlashBack
Artist:Akiakane
ArtistUnicode:秋赤音
Creator:etc
Version:Insane
Source:Toysfactory
Tags:Megurine Luka Boroboro na Ikizama yama-ko
BeatmapID:156679
BeatmapSetID:48320

[Difficulty]
HPDrainRate:8
CircleSize:4
OverallDifficulty:7
ApproachRate:9
SliderMultiplier:2
SliderTickRate:2

[Events]
//Background and Video events
0,0,"2.jpg",0,0
//Break Periods
2,11978,21556
2,74248,75718
2,128734,138313
2,149491,153556
//Storyboard Layer 0 (Background)
//Storyboard Layer 1 (Fail)
//Storyboard Layer 2 (Pass)
//Storyboard Layer 3 (Foreground)
//Storyboard Sound Samples
//Background Colour Transformations
3,100,255,255,255

[TimingPoints]
6589,324.324324324324,4,1,1,60,1,0
11778,-100,4,1,1,60,0,1
11859,-100,4,1,1,60,0,0
22237,-100,4,1,1,5,0,0
22399,-100,4,1,1,60,0,0
22886,-100,4,1,1,5,0,0
23048,-100,4,1,1,60,0,0
25805,-100,4,1,1,5,0,0
25967,-100,4,1,1,60,0,0
30994,-100,4,1,1,5,0,0
31156,-100,4,1,1,60,0,0
32616,-100,4,2,0,5,0,0
32778,-100,4,1,1,60,0,0
32940,-100,4,2,0,5,0,0
33102,-100,4,1,1,60,0,0
33913,-100,4,2,0,5,0,0
34075,-100,4,1,1,60,0,0
34237,-100,4,2,0,5,0,0
34399,-100,4,1,1,60,0,0
35210,-100,4,2,0,5,0,0
35372,-100,4,1,1,60,0,0
36507,-100,4,2,0,5,0,0
36670,-100,4,1,1,60,0,0
38453,-100,4,1,1,5,0,0
38616,-100,4,1,1,60,0,0
39751,-100,4,1,1,5,0,0
39913,-100,4,1,1,60,0,0
40399,-100,4,1,1,5,0,0
40561,-100,4,1,1,60,0,0
42670,-100,4,1,1,5,0,0
42832,-100,4,1,1,60,0,0
44129,-100,4,1,1,5,0,0
44291,-100,4,1,1,60,0,0
45588,-100,4,1,1,5,0,0
45751,-100,4,1,0,50,0,0
46075,-100,4,1,1,5,0,0
46237,-100,4,1,0,60,0,0
46561,-100,4,1,1,5,0,0
46724,-100,4,1,1,60,0,0
50697,-100,4,2,0,30,0,0
51021,-100,4,1,1,60,0,0
51345,-100,4,2,0,30,0,0
51670,-100,4,1,1,60,0,0
51913,-100,4,1,1,60,0,0
52075,-100,4,1,1,5,0,0
52237,-100,4,1,1,60,0,0
53291,-100,4,1,0,70,0,1
53372,-100,4,1,0,60,0,1
55805,-100,4,1,0,60,0,1
55967,-100,4,1,0,60,0,1
56048,-100,4,1,1,5,0,1
56129,-100,4,1,0,60,0,1
56453,-100,4,1,1,5,0,1
56616,-100,4,1,0,60,0,1
58399,-100,4,1,0,70,0,1
58561,-100,4,1,0,60,0,1
61075,-100,4,1,0,70,0,1
61156,-100,4,1,0,60,0,1
63670,-100,4,1,0,70,0,1
63751,-100,4,1,0,60,0,1
66183,-100,4,1,0,70,0,1
66345,-100,4,1,0,60,0,1
68778,-100,4,1,0,70,0,1
68940,-100,4,1,0,60,0,1
69426,-100,4,1,1,5,0,1
69588,-100,4,1,0,60,0,1
70075,-100,4,1,1,5,0,1
70237,-100,4,1,0,60,0,1
72021,-100,4,1,1,5,0,1
72183,-100,4,1,0,60,0,1
74048,-100,4,1,0,40,0,0
76318,-100,4,1,1,60,0,0
76399,-100,4,2,0,5,0,0
76561,-100,4,1,1,60,0,0
77859,-100,4,1,1,5,0,0
78021,-100,4,1,1,60,0,0
78345,-100,4,2,0,5,0,0
78507,-100,4,1,1,60,0,0
79805,-100,4,2,0,5,0,0
79967,-100,4,1,1,60,0,0
80453,-100,4,1,1,5,0,0
80616,-100,4,1,1,60,0,0
83534,-100,4,1,1,5,0,0
83697,-100,4,1,1,60,0,0
85480,-100,4,1,1,5,0,0
85643,-100,4,1,1,60,0,0
90994,-100,4,1,1,5,0,0
91156,-100,4,1,1,60,0,0
97805,-100,4,1,1,5,0,0
97967,-100,4,1,1,60,0,0
100075,-100,4,1,1,5,0,0
100237,-100,4,1,0,60,0,0
100561,-100,4,1,1,5,0,0
100724,-100,4,1,0,60,0,0
101048,-100,4,1,1,5,0,0
101210,-100,4,1,1,60,0,0
105183,-100,4,1,1,50,0,0
105751,-100,4,1,1,65,0,0
106399,-100,4,1,1,80,0,0
106561,-100,4,1,1,5,0,0
106724,-100,4,1,0,60,0,0
107778,-100,4,1,0,70,0,1
107859,-100,4,1,0,60,0,1
110291,-100,4,1,0,70,0,1
110453,-100,4,1,0,60,0,1
110534,-100,4,1,1,5,0,1
110616,-100,4,1,0,60,0,1
110940,-100,4,1,1,5,0,1
111102,-100,4,1,0,60,0,1
112886,-100,4,1,0,70,0,1
113048,-100,4,1,0,60,0,1
115561,-100,4,1,0,70,0,1
115643,-100,4,1,0,60,0,1
118156,-100,4,1,0,70,0,1
118237,-100,4,1,0,60,0,1
120751,-100,4,1,0,70,0,1
120832,-100,4,1,0,60,0,1
123345,-100,4,1,0,70,0,1
123426,-100,4,1,0,60,0,1
124399,-100,4,1,1,5,0,1
124561,-100,4,1,0,60,0,1
124724,-100,4,1,1,5,0,1
124886,-100,4,1,0,60,0,1
126021,-100,4,1,1,5,0,1
126183,-100,4,1,0,60,0,1
128534,-100,4,1,0,40,0,0
139480,-100,4,1,1,5,0,0
139643,-100,4,1,0,60,0,0
139967,-100,4,1,1,5,0,0
140129,-100,4,1,0,60,0,0
140940,-100,4,1,1,5,0,0
141102,-100,4,1,1,60,0,0
154561,-100,4,1,1,5,0,0
154724,-100,4,1,0,60,0,0
155048,-100,4,1,1,5,0,0
155210,-100,4,1,0,60,0,0
156345,-100,4,1,1,5,0,0
156507,-100,4,1,0,60,0,0
162913,-100,4,2,1,10,0,0
164697,-100,4,2,1,5,0,0
164859,-200,4,2,1,60,0,0
165021,-200,4,2,1,5,0,0
165102,-200,4,2,1,60,0,0
165183,-200,4,2,1,5,0,0
165264,-200,4,2,1,60,0,0
165345,-200,4,2,1,5,0,0
165426,-200,4,2,1,60,0,0
165507,-200,4,2,1,5,0,0
165588,-200,4,2,1,60,0,0
165670,-200,4,2,1,5,0,0
165751,-200,4,2,1,60,0,0
165994,-100,4,1,0,60,0,0
166156,-100,4,1,0,60,0,1
168832,-100,4,1,0,5,0,1
168994,-100,4,1,0,60,0,1
182940,-100,4,1,0,5,0,1
183102,-100,4,1,0,60,0,1
185372,-100,4,1,0,5,0,1
185534,-100,4,1,0,60,0,1
187967,-100,4,1,0,5,0,1
188129,-100,4,1,0,60,0,1
190561,-100,4,1,0,5,0,1
190724,-100,4,1,0,60,0,1
191372,-100,4,1,0,5,0,1
191534,-100,4,1,0,60,0,1
192102,-100,4,1,0,80,0,1
192183,-100,4,1,0,60,0,1
197291,-100,4,1,0,60,0,0

[Colours]
Combo1 : 255,77,166
Combo2 : 72,213,253
Combo3 : 255,255,255

[HitObjects]
256,192,6588,12,0,11291,0:0:0:0:
256,192,11453,21,0,0:0:0:0:
256,192,11778,1,4,0:0:0:0:
72,20,22156,38,0,B|160:80|140:216,1,200,4|8,0:0|0:0,0:0:0:0:
108,292,22643,1,0,0:0:0:0:
192,344,22805,2,0,B|308:368|376:272,1,200,0|8,0:0|0:0,0:0:0:0:
376,80,23453,1,0,0:0:0:0:
376,80,23616,1,0,0:0:0:0:
464,124,23778,2,0,B|508:168|504:216,1,100,8|0,0:0|0:0,0:0:0:0:
444,292,24102,2,0,B|384:308|340:260,1,100
332,172,24426,5,8,0:0:0:0:
252,112,24588,1,0,0:0:0:0:
188,192,24751,2,0,B|192:244|161:286,1,100,0|0,0:0|0:0,0:0:0:0:
152,100,25075,2,0,B|148:48|178:5,1,100,8|0,0:0|0:0,0:0:0:0:
100,184,25399,2,0,B|0:176,1,100
156,268,25724,2,0,B|236:344|348:284,1,200,8|0,0:0|0:0,0:0:0:0:
448,43,26372,6,8,B|476:140,1,100,8|0,0:0|0:0,0:0:0:0:
314,215,26697,2,0,B|356:124,1,100,0|0,0:0|0:0,0:0:0:0:
248,72,27021,2,0,B|144:20,1,100,8|0,0:0|0:0,0:0:0:0:
72,108,27345,6,0,P|76:156|60:206,1,100,4|0,0:0|0:0,0:0:0:0:
232,318,27670,2,0,P|193:282|176:240,1,100,8|0,0:0|0:0,0:0:0:0:
260,152,27994,2,0,B|358:133,1,100,0|0,0:0|0:0,0:0:0:0:
240,36,28318,2,0,B|141:51,1,100,8|0,0:0|0:0,0:0:0:0:
20,68,28643,1,0,0:0:0:0:
20,68,28805,1,0,0:0:0:0:
112,144,28967,2,0,B|148:188|140:244,1,100,8|0,0:0|0:0,0:0:0:0:
112,352,29291,2,0,B|68:388|12:380,1,100,0|0,0:0|0:0,0:0:0:0:
272,172,29616,5,8,0:0:0:0:
272,172,29778,1,0,0:0:0:0:
344,104,29940,2,0,B|409:28,1,100
482,251,30264,2,0,B|408:184,1,100,8|0,0:0|0:0,0:0:0:0:
340,256,30588,2,0,B|242:278,1,100,0|0,0:0|0:0,0:0:0:0:
128,304,30913,2,0,B|4:256|80:96,1,200,8|0,0:0|0:0,0:0:0:0:
62,140,31561,1,8,0:0:0:0:
62,140,31886,1,8,0:0:0:0:
62,140,32210,1,0,0:0:0:0:
296,132,32534,6,0,B|176:164|116:44,2,200,0|8|0,0:0|0:0|0:0,0:0:0:0:
396,116,33345,1,0,0:0:0:0:
376,20,33507,1,8,0:0:0:0:
276,32,33670,1,0,0:0:0:0:
296,132,33832,6,0,B|340:248|460:228,2,200,0|8|0,0:0|0:0|0:0,0:0:0:0:
328,36,34643,1,0,0:0:0:0:
424,64,34805,1,8,0:0:0:0:
472,152,34967,1,0,0:0:0:0:
432,244,35129,6,0,B|361:337|240:308,1,200,0|8,0:0|0:0,0:0:0:0:
172,256,35616,2,0,P|168:200|174:157,1,100
148,60,35940,2,0,L|55:21,1,100,0|8,0:0|0:0,0:0:0:0:
240,96,36264,1,0,0:0:0:0:
240,96,36426,6,0,B|324:176|280:292,1,200,0|8,0:0|0:0,0:0:0:0:
376,236,36913,1,0,0:0:0:0:
376,236,37075,2,0,B|492:172|492:172,1,100
272,112,37399,5,8,0:0:0:0:
240,128,37480,1,0,0:0:0:0:
208,144,37561,1,0,0:0:0:0:
176,160,37643,1,0,0:0:0:0:
144,176,37724,2,0,B|40:228,1,100,4|0,0:0|0:0,0:0:0:0:
260,224,38048,2,0,B|264:284|312:308,1,100,8|0,0:0|0:0,0:0:0:0:
272,112,38372,2,0,B|216:28|92:44,1,200,0|8,0:0|0:0,0:0:0:0:
48,132,38859,1,0,0:0:0:0:
108,212,39021,6,0,B|72:248|87:304,1,100,0|0,0:0|0:0,0:0:0:0:
200,236,39345,2,0,B|236:200|220:140,1,100,8|0,0:0|0:0,0:0:0:0:
190,47,39670,2,8,B|388:76,1,200,0|8,0:0|0:0,0:0:0:0:
388,76,40156,1,0,0:0:0:0:
96,36,40318,6,0,B|167:147|86:262,1,200,4|8,0:0|0:0,0:0:0:0:
36,296,40805,1,0,0:0:0:0:
36,296,40967,2,0,B|-4:252|20:188,1,100
84,128,41291,2,0,B|148:128|184:172,1,100,8|0,0:0|0:0,0:0:0:0:
208,322,41616,2,0,B|248:288|244:232,1,100,0|0,0:0|0:0,0:0:0:0:
363,106,41940,2,0,P|339:150|336:200,1,100,8|0,0:0|0:0,0:0:0:0:
396,280,42264,1,0,0:0:0:0:
484,232,42426,1,0,0:0:0:0:
464,136,42588,6,0,B|348:168|260:52|260:52,1,200,8|4,0:0|0:0,0:0:0:0:
180,84,43075,1,0,0:0:0:0:
132,164,43237,2,0,B|24:132,1,100,8|0,0:0|0:0,0:0:0:0:
196,240,43561,2,0,P|208:288|236:336,1,100,0|0,0:0|0:0,0:0:0:0:
336,340,43886,1,8,0:0:0:0:
336,340,44048,2,0,B|456:368|516:248,1,200,0|0,0:0|0:0,0:0:0:0:
470,75,44534,1,8,0:0:0:0:
484,168,44697,5,0,0:0:0:0:
484,168,44778,1,0,0:0:0:0:
484,168,44859,1,0,0:0:0:0:
388,148,45021,1,0,0:0:0:0:
388,148,45183,2,0,B|276:128|276:128,1,100,8|0,0:0|0:0,0:0:0:0:
128,282,45507,2,0,B|235:235|193:116,1,200,4|0,0:0|0:0,0:0:0:0:
124,52,45994,2,0,B|210:137|328:72|305:81,1,200,4|0,0:0|0:0,0:0:0:0:
299,170,46480,2,0,B|366:262|476:200,1,200,4|0,0:0|0:0,0:0:0:0:
476,200,46967,1,0,0:0:0:0:
476,200,47129,1,8,0:0:0:0:
170,77,47453,6,0,B|124:95|76:59,1,100,8|0,0:0|0:0,0:0:0:0:
20,262,47778,2,0,B|76:240|80:189,1,100,8|0,0:0|0:0,0:0:0:0:
170,263,48102,2,0,B|220:288|220:344,1,100,4|0,0:0|0:0,0:0:0:0:
292,236,48426,2,0,B|353:255|388:224,1,100,8|0,0:0|0:0,0:0:0:0:
476,128,48751,2,0,B|426:100|430:44,1,100
316,104,49075,2,0,B|320:163|290:199,1,100,8|0,0:0|0:0,0:0:0:0:
200,292,49399,2,0,B|294:324,1,100
136,168,49724,2,0,B|41:134,1,100,8|0,0:0|0:0,0:0:0:0:
232,24,50048,2,0,B|239:163,1,100,0|0,0:0|0:0,0:0:0:0:
240,224,50372,1,8,0:0:0:0:
352,164,50697,5,0,0:0:0:0:
352,164,50859,1,0,0:0:0:0:
436,252,51021,2,0,L|536:284,1,100,0|0,0:0|0:0,0:0:0:0:
352,164,51345,1,0,0:0:0:0:
352,164,51507,1,0,0:0:0:0:
288,300,51670,2,0,L|192:348,1,100,0|0,0:0|0:0,0:0:0:0:
80,352,51994,2,0,B|20:268|28:164,1,200,4|0,0:0|0:0,0:0:0:0:
32,64,52480,5,0,0:0:0:0:
128,52,52643,1,0,0:0:0:0:
164,72,52724,1,0,0:0:0:0:
192,100,52805,1,0,0:0:0:0:
208,136,52886,1,0,0:0:0:0:
216,176,52967,2,0,B|324:140,1,100,0|0,0:0|0:0,0:0:0:0:
308,164,53210,1,0,0:0:0:0:
304,184,53291,2,0,B|416:144,1,100,4|0,0:0|0:0,0:0:0:0:
496,120,53616,1,8,0:0:0:0:
444,312,53778,1,0,0:0:0:0:
444,312,54102,5,0,0:0:0:0:
244,332,54264,1,8,0:0:0:0:
244,332,54588,5,0,0:0:0:0:
72,200,54751,1,0,0:0:0:0:
272,200,54913,1,8,0:0:0:0:
288,0,55075,1,0,0:0:0:0:
448,132,55237,1,0,0:0:0:0:
428,304,55399,5,0,0:0:0:0:
428,304,55480,1,0,0:0:0:0:
428,304,55561,2,0,B|292:268,1,100,8|0,0:0|0:0,0:0:0:0:
240,324,55886,2,0,B|352:272|336:120,1,200,4|8,0:0|0:0,0:0:0:0:
244,33,56372,2,0,B|136:84|150:193,1,200,4|8,0:0|0:0,0:0:0:0:
157,201,56859,2,0,B|25:177,1,100,8|0,0:0|0:0,0:0:0:0:
244,132,57183,1,0,0:0:0:0:
244,132,57345,1,0,0:0:0:0:
332,60,57507,2,0,B|444:80,1,100,8|0,0:0|0:0,0:0:0:0:
480,324,57832,5,0,0:0:0:0:
432,312,57913,1,0,0:0:0:0:
388,288,57994,1,0,0:0:0:0:
360,248,58075,1,0,0:0:0:0:
356,200,58156,1,8,0:0:0:0:
268,152,58318,1,0,0:0:0:0:
260,300,58480,1,0,0:0:0:0:
124,240,58643,1,0,0:0:0:0:
60,376,58805,5,8,0:0:0:0:
28,200,58967,1,0,0:0:0:0:
188,264,59291,5,0,0:0:0:0:
172,84,59453,1,8,0:0:0:0:
188,264,59778,6,0,B|200:204|248:172,1,100,0|0,0:0|0:0,0:0:0:0:
385,71,60102,2,0,B|373:131|336:156,1,100,8|0,0:0|0:0,0:0:0:0:
340,256,60426,2,0,B|456:284,1,100,0|0,0:0|0:0,0:0:0:0:
460,284,60670,1,0,0:0:0:0:
484,288,60751,6,0,B|512:236|488:168,1,100,8|0,0:0|0:0,0:0:0:0:
436,108,61075,2,0,B|312:172,1,100,4|0,0:0|0:0,0:0:0:0:
288,236,61399,1,8,0:0:0:0:
220,168,61561,2,0,B|224:112|172:72,1,100
36,28,61886,2,0,B|32:84|84:124,1,100,8|8,0:0|0:0,0:0:0:0:
152,180,62210,1,0,0:0:0:0:
120,196,62291,1,0,0:0:0:0:
92,212,62372,2,0,B|0:260,1,100
128,332,62697,6,0,L|216:284,1,100,8|0,0:0|0:0,0:0:0:0:
364,292,63021,1,0,0:0:0:0:
336,268,63102,1,0,0:0:0:0:
316,240,63183,1,0,0:0:0:0:
308,208,63264,1,0,0:0:0:0:
304,172,63345,1,8,0:0:0:0:
308,136,63426,1,0,0:0:0:0:
320,104,63507,1,0,0:0:0:0:
344,76,63588,1,0,0:0:0:0:
376,60,63670,6,0,B|481:32|481:32,1,100,4|0,0:0|0:0,0:0:0:0:
256,59,63994,1,8,0:0:0:0:
62,109,64156,1,0,0:0:0:0:
124,304,64480,5,0,0:0:0:0:
204,152,64643,1,8,0:0:0:0:
204,152,64967,5,0,0:0:0:0:
376,248,65129,1,0,0:0:0:0:
304,32,65291,1,8,0:0:0:0:
388,168,65453,1,0,0:0:0:0:
224,16,65616,1,0,0:0:0:0:
192,160,65778,5,0,0:0:0:0:
184,164,65859,1,0,0:0:0:0:
176,168,65940,2,0,B|64:220,1,100,8|0,0:0|0:0,0:0:0:0:
276,124,66264,2,0,B|324:164|320:220,1,100,4|0,0:0|0:0,0:0:0:0:
292,328,66588,6,8,B|348:336|400:292,1,100,8|0,0:0|0:0,0:0:0:0:
420,137,66913,2,0,B|464:169|472:220,1,100,0|0,0:0|0:0,0:0:0:0:
308,140,67237,2,0,B|264:108|256:56,1,100,8|0,0:0|0:0,0:0:0:0:
220,36,67480,1,0,0:0:0:0:
180,36,67561,2,0,B|64:32,1,100,0|0,0:0|0:0,0:0:0:0:
92,132,67886,2,0,B|100:196|44:224,1,100,8|0,0:0|0:0,0:0:0:0:
192,336,68210,5,0,0:0:0:0:
244,228,68372,1,0,0:0:0:0:
340,300,68534,1,8,0:0:0:0:
356,152,68697,1,0,0:0:0:0:
468,52,68859,6,0,B|460:168,1,100,4|0,0:0|0:0,0:0:0:0:
448,252,69183,1,8,0:0:0:0:
448,252,69345,2,0,B|304:312|272:158|272:158,1,200
336,104,69832,1,8,0:0:0:0:
256,48,69994,2,0,B|176:112|68:80,1,200
28,172,70480,1,8,0:0:0:0:
88,252,70643,2,0,P|92:308|84:350,1,100,0|0,0:0|0:0,0:0:0:0:
184,228,70967,5,0,0:0:0:0:
184,228,71048,1,0,0:0:0:0:
184,228,71129,1,8,0:0:0:0:
280,200,71291,1,0,0:0:0:0:
280,200,71453,2,0,B|376:174,1,100,4|0,0:0|0:0,0:0:0:0:
428,260,71778,1,8,0:0:0:0:
476,348,71940,2,0,B|551:262|487:162,1,200
420,92,72426,1,8,0:0:0:0:
256,192,72588,12,0,74048,0:0:0:0:
35,230,76318,6,0,B|161:243|212:123,1,200,0|4,0:0|0:0,0:0:0:0:
192,44,76805,1,0,0:0:0:0:
192,44,76967,2,0,B|236:80|300:64,1,100,8|0,0:0|0:0,0:0:0:0:
480,112,77453,5,0,0:0:0:0:
480,112,77616,1,0,0:0:0:0:
460,212,77778,2,0,B|376:280|272:224,1,200,8|0,0:0|0:0,0:0:0:0:
93,136,78264,2,0,B|177:68|280:124,1,200,8|0,0:0|0:0,0:0:0:0:
236,332,78913,5,0,0:0:0:0:
140,360,79075,2,0,B|80:368|36:320,1,100
44,232,79399,1,0,0:0:0:0:
44,232,79480,1,0,0:0:0:0:
44,232,79561,1,0,0:0:0:0:
144,244,79724,2,0,B|226:157|160:52,1,200
68,84,80210,1,0,0:0:0:0:
112,0,80372,2,0,B|200:72|320:20,1,200
384,80,80859,1,8,0:0:0:0:
428,288,81183,5,0,0:0:0:0:
428,288,81345,1,0,0:0:0:0:
428,288,81507,2,0,B|308:300,1,100,8|0,0:0|0:0,0:0:0:0:
228,304,81832,1,4,0:0:0:0:
164,228,81994,1,0,0:0:0:0:
156,128,82156,1,8,0:0:0:0:
204,40,82318,2,0,B|100:8,1,100
32,76,82643,5,0,0:0:0:0:
32,76,82724,1,0,0:0:0:0:
32,76,82805,1,8,0:0:0:0:
64,172,82967,2,0,P|57:217|56:280,1,100
136,328,83291,1,0,0:0:0:0:
136,328,83453,2,0,B|256:368|336:280,1,200,8|0,0:0|0:0,0:0:0:0:
260,148,84102,5,8,0:0:0:0:
356,128,84264,1,0,0:0:0:0:
452,104,84426,2,0,B|444:208|444:208,1,100
432,304,84751,1,8,0:0:0:0:
432,304,84913,2,0,B|324:292|324:292,1,100
232,300,85237,1,0,0:0:0:0:
132,308,85399,2,0,B|64:232|96:104,1,200,8|0,0:0|0:0,0:0:0:0:
260,8,86048,1,0,0:0:0:0:
168,44,86210,1,8,0:0:0:0:
308,108,86534,5,0,0:0:0:0:
308,108,86616,1,0,0:0:0:0:
308,108,86697,2,0,B|404:77|402:77,1,100,8|0,0:0|0:0,0:0:0:0:
468,148,87021,2,0,B|464:256,1,100,4|0,0:0|0:0,0:0:0:0:
380,304,87345,1,8,0:0:0:0:
380,304,87507,2,0,B|248:260,1,100
300,172,87832,2,0,B|342:135|348:64,1,100,0|8,0:0|0:0,0:0:0:0:
208,136,88156,1,0,0:0:0:0:
208,136,88318,2,0,B|165:178|164:252,1,100,0|0,0:0|0:0,0:0:0:0:
100,300,88643,2,0,B|0:316,2,100,8|0|0,0:0|0:0|0:0,0:0:0:0:
220,72,89291,6,0,B|268:172,1,100,8|0,0:0|0:0,0:0:0:0:
372,120,89616,2,0,B|344:224,1,100
320,312,89940,1,8,0:0:0:0:
412,276,90102,2,0,B|509:239,1,100
436,148,90426,1,0,0:0:0:0:
436,148,90588,2,0,B|456:48,1,100,8|0,0:0|0:0,0:0:0:0:
336,68,90913,2,0,B|176:200,1,200,0|8,0:0|0:0,0:0:0:0:
136,84,91399,1,0,0:0:0:0:
332,328,91724,5,0,0:0:0:0:
332,328,91886,1,8,0:0:0:0:
232,308,92048,1,0,0:0:0:0:
136,288,92210,2,0,B|28:265,1,100,4|0,0:0|0:0,0:0:0:0:
8,136,92534,2,0,B|105:158,1,100,8|0,0:0|0:0,0:0:0:0:
168,36,92859,1,0,0:0:0:0:
244,100,93021,1,0,0:0:0:0:
244,100,93102,1,0,0:0:0:0:
244,100,93183,1,8,0:0:0:0:
316,168,93345,1,0,0:0:0:0:
316,168,93507,2,0,B|400:108|400:108,2,100,0|0|8,0:0|0:0|0:0,0:0:0:0:
316,168,94156,5,0,0:0:0:0:
168,232,94318,1,0,0:0:0:0:
168,232,94480,2,0,B|200:288|272:284,1,100,8|0,0:0|0:0,0:0:0:0:
160,120,94805,2,0,B|128:64|56:68,1,100,8|0,0:0|0:0,0:0:0:0:
284,128,95129,1,8,0:0:0:0:
284,128,95291,2,0,B|328:24,1,100
364,228,95616,1,0,0:0:0:0:
364,228,95778,2,0,B|324:324,1,100,8|0,0:0|0:0,0:0:0:0:
208,340,96102,2,0,B|96:288|96:288,1,100
28,252,96426,2,0,B|80:156,1,100,8|0,0:0|0:0,0:0:0:0:
224,52,96751,6,0,B|172:152,1,100
268,172,97075,1,8,0:0:0:0:
296,168,97156,1,0,0:0:0:0:
324,160,97237,1,0,0:0:0:0:
352,156,97318,1,0,0:0:0:0:
380,148,97399,1,4,0:0:0:0:
476,124,97561,1,0,0:0:0:0:
476,124,97724,6,0,B|520:252|420:320,1,200,8|0,0:0|0:0,0:0:0:0:
352,256,98210,1,0,0:0:0:0:
240,356,98372,1,8,0:0:0:0:
288,212,98534,1,0,0:0:0:0:
140,236,98697,1,0,0:0:0:0:
256,144,98859,1,0,0:0:0:0:
120,80,99021,1,8,0:0:0:0:
264,68,99183,6,0,B|376:64,1,100
472,64,99507,1,0,0:0:0:0:
472,64,99670,2,0,B|492:112|476:176,1,100,8|0,0:0|0:0,0:0:0:0:
488,260,99994,6,0,B|368:316|304:180,1,200,4|0,0:0|0:0,0:0:0:0:
324,108,100480,2,0,B|304:224|184:232,1,200
200,332,100967,2,0,B|188:212|60:192,1,200,4|0,0:0|0:0,0:0:0:0:
104,100,101453,1,0,0:0:0:0:
104,100,101616,1,0,0:0:0:0:
272,200,101940,5,0,0:0:0:0:
260,300,102102,1,0,0:0:0:0:
352,340,102264,1,0,0:0:0:0:
428,272,102426,1,0,0:0:0:0:
428,272,102507,1,0,0:0:0:0:
428,272,102588,2,0,B|412:168|412:168,1,100,4|0,0:0|0:0,0:0:0:0:
280,64,102913,2,0,B|296:180,1,100
320,312,103237,2,0,B|216:332|200:332,1,100
57,240,103561,2,0,B|156:224,1,100
140,124,103886,2,0,B|92:68|112:4,1,100
256,116,104210,2,0,B|304:172|284:236,1,100
388,224,104534,2,0,B|488:188,1,100
360,312,104859,1,0,0:0:0:0:
360,312,105183,5,4,0:0:0:0:
264,336,105345,1,0,0:0:0:0:
228,244,105507,1,0,0:0:0:0:
324,216,105670,1,4,0:0:0:0:
292,276,105832,1,4,0:0:0:0:
180,196,105994,1,0,0:0:0:0:
240,68,106156,1,0,0:0:0:0:
372,112,106318,1,0,0:0:0:0:
352,260,106480,2,4,B|132:260,1,200
441,197,106967,5,0,0:0:0:0:
355,260,107129,1,0,0:0:0:0:
339,228,107210,1,0,0:0:0:0:
335,193,107291,1,0,0:0:0:0:
342,158,107372,1,0,0:0:0:0:
360,128,107453,1,0,0:0:0:0:
387,106,107534,1,0,0:0:0:0:
420,95,107616,6,0,P|370:97|306:81,1,100,0|4,0:0|0:0,0:0:0:0:
274,242,107940,1,0,0:0:0:0:
120,114,108102,1,8,0:0:0:0:
152,229,108264,1,0,0:0:0:0:
32,248,108588,5,0,0:0:0:0:
220,268,108751,1,8,0:0:0:0:
220,268,109075,5,0,0:0:0:0:
92,176,109237,1,0,0:0:0:0:
216,152,109399,1,8,0:0:0:0:
232,24,109561,1,0,0:0:0:0:
332,132,109724,1,0,0:0:0:0:
432,224,109886,5,0,0:0:0:0:
432,224,109967,1,0,0:0:0:0:
432,224,110048,1,8,0:0:0:0:
376,304,110210,1,0,0:0:0:0:
376,304,110372,6,0,B|260:268|308:140,1,200,4|8,0:0|0:0,0:0:0:0:
356,60,110859,2,0,B|292:172|140:88,1,200
92,68,111345,1,8,0:0:0:0:
52,160,111507,1,0,0:0:0:0:
106,244,111670,2,0,B|90:300|30:316,1,100
205,263,111994,2,0,B|221:207|281:191,1,100,8|0,0:0|0:0,0:0:0:0:
404,336,112318,5,0,0:0:0:0:
440,304,112399,1,0,0:0:0:0:
456,256,112480,1,0,0:0:0:0:
456,208,112561,1,0,0:0:0:0:
436,160,112643,1,8,0:0:0:0:
408,120,112724,1,0,0:0:0:0:
364,96,112805,1,0,0:0:0:0:
184,184,112967,6,0,B|208:132|268:104,1,100,4|0,0:0|0:0,0:0:0:0:
228,268,113291,1,8,0:0:0:0:
60,264,113453,1,0,0:0:0:0:
60,264,113778,5,0,0:0:0:0:
116,100,113940,1,8,0:0:0:0:
116,100,114264,5,0,0:0:0:0:
184,192,114426,1,0,0:0:0:0:
184,192,114507,1,0,0:0:0:0:
184,192,114588,2,0,B|240:184|272:136,1,100,8|0,0:0|0:0,0:0:0:0:
397,100,114913,2,0,B|364:60|312:52,1,100,0|0,0:0|0:0,0:0:0:0:
395,216,115237,2,0,B|424:256|480:264,1,100,8|0,0:0|0:0,0:0:0:0:
308,268,115561,6,0,B|304:324|260:356,1,100,4|0,0:0|0:0,0:0:0:0:
208,224,115886,2,0,B|212:168|256:136,1,100,8|0,0:0|0:0,0:0:0:0:
96,208,116210,2,0,B|0:252,1,100,0|0,0:0|0:0,0:0:0:0:
80,92,116534,2,0,B|180:48,1,100,8|0,0:0|0:0,0:0:0:0:
172,72,116778,1,0,0:0:0:0:
172,92,116859,2,0,L|268:52,1,100
316,164,117183,2,0,L|312:268,1,100,8|0,0:0|0:0,0:0:0:0:
476,252,117507,5,0,0:0:0:0:
468,228,117588,1,0,0:0:0:0:
456,208,117670,1,0,0:0:0:0:
444,188,117751,1,0,0:0:0:0:
428,172,117832,1,8,0:0:0:0:
408,156,117913,1,0,0:0:0:0:
384,144,117994,1,0,0:0:0:0:
360,136,118075,1,0,0:0:0:0:
336,136,118156,6,0,B|320:196|252:208,1,100,4|0,0:0|0:0,0:0:0:0:
232,94,118480,2,0,B|248:40|300:20,1,100,8|0,0:0|0:0,0:0:0:0:
136,128,118805,2,0,B|116:72|134:29,1,100,0|0,0:0|0:0,0:0:0:0:
76,208,119129,2,0,B|32:180|21:126,1,100,8|0,0:0|0:0,0:0:0:0:
172,224,119453,2,0,B|182:277|144:328,1,100,0|0,0:0|0:0,0:0:0:0:
184,332,119697,1,0,0:0:0:0:
220,340,119778,2,0,B|328:344,1,100,8|0,0:0|0:0,0:0:0:0:
412,316,120102,2,0,B|436:264|424:208,1,100,0|0,0:0|0:0,0:0:0:0:
336,96,120426,6,0,B|312:140|316:196,1,100,8|0,0:0|0:0,0:0:0:0:
412,316,120751,1,4,0:0:0:0:
196,284,121075,5,8,0:0:0:0:
412,316,121237,1,0,0:0:0:0:
232,356,121561,5,0,0:0:0:0:
144,188,121724,1,8,0:0:0:0:
48,236,121886,1,0,0:0:0:0:
92,348,122048,1,0,0:0:0:0:
196,284,122210,1,0,0:0:0:0:
196,284,122291,1,0,0:0:0:0:
196,284,122372,2,0,B|300:268,1,100,8|0,0:0|0:0,0:0:0:0:
416,340,122697,5,0,0:0:0:0:
420,304,122778,1,0,0:0:0:0:
424,268,122859,1,0,0:0:0:0:
428,232,122940,1,0,0:0:0:0:
432,196,123021,1,8,0:0:0:0:
436,160,123102,1,0,0:0:0:0:
440,124,123183,1,0,0:0:0:0:
444,88,123264,1,0,0:0:0:0:
448,52,123345,6,0,B|320:64|320:64,1,100,4|0,0:0|0:0,0:0:0:0:
248,68,123670,1,8,0:0:0:0:
248,68,123832,2,0,B|268:196|268:196,1,100
280,264,124156,1,0,0:0:0:0:
280,264,124318,2,0,B|80:228,2,200,8|0|8,0:0|0:0|0:0,0:0:0:0:
360,324,125129,1,0,0:0:0:0:
452,280,125291,2,0,B|448:224|484:184,1,100,0|0,0:0|0:0,0:0:0:0:
460,88,125616,1,8,0:0:0:0:
368,44,125778,1,0,0:0:0:0:
332,136,125940,6,0,B|260:228|125:164,1,200,4|8,0:0|0:0,0:0:0:0:
25,68,126426,1,0,0:0:0:0:
108,123,126588,2,0,B|132:167|120:231,1,100,0|0,0:0|0:0,0:0:0:0:
55,296,126913,1,8,0:0:0:0:
256,192,127237,12,0,128534,0:0:0:0:
79,162,138913,6,0,B|104:260,1,100
76,356,139237,1,0,0:0:0:0:
76,356,139399,2,0,B|304:300,1,200
470,252,139886,2,0,B|276:204,1,200,0|4,0:0|0:0,0:0:0:0:
276,204,140372,1,0,0:0:0:0:
276,204,140534,1,0,0:0:0:0:
220,120,140697,1,0,0:0:0:0:
164,36,140859,2,0,B|104:232,1,200
376,56,141507,5,0,0:0:0:0:
376,56,141670,1,0,0:0:0:0:
376,56,141832,2,0,B|508:104|508:104,1,100,0|0,0:0|0:0,0:0:0:0:
296,104,142156,1,0,0:0:0:0:
296,104,142318,1,0,0:0:0:0:
296,104,142480,2,0,B|360:192,1,100,0|0,0:0|0:0,0:0:0:0:
200,104,142805,5,0,0:0:0:0:
200,104,142967,1,0,0:0:0:0:
200,104,143129,2,0,B|196:208,1,100
188,320,143453,2,0,B|144:344|80:344,1,100
268,176,143778,2,0,B|312:152|376:152,1,100
440,216,144102,1,4,0:0:0:0:
256,192,144264,12,4,149291,0:0:0:0:
56,72,154156,5,0,0:0:0:0:
92,108,154237,1,0,0:0:0:0:
112,152,154318,1,0,0:0:0:0:
116,200,154399,1,0,0:0:0:0:
104,248,154480,2,0,B|232:248|248:112,1,200,4|0,0:0|0:0,0:0:0:0:
252,32,154967,2,0,B|440:124,1,200
424,220,155453,1,0,0:0:0:0:
420,316,155616,1,0,0:0:0:0:
420,316,155940,5,0,0:0:0:0:
364,236,156102,1,0,0:0:0:0:
308,152,156264,2,0,B|200:184|188:296,1,200
100,340,156751,5,0,0:0:0:0:
60,312,156832,1,0,0:0:0:0:
36,268,156913,1,0,0:0:0:0:
36,220,156994,1,0,0:0:0:0:
56,176,157075,1,4,0:0:0:0:
108,92,157237,2,0,B|216:48,1,100
292,92,157561,1,0,0:0:0:0:
256,232,157886,5,0,0:0:0:0:
296,324,158048,1,0,0:0:0:0:
400,339,158210,2,0,B|452:312|464:256,1,100
448,120,158534,1,0,0:0:0:0:
448,120,158697,2,0,B|396:147|384:203,1,100
388,294,159021,1,0,0:0:0:0:
32,192,159345,5,0,0:0:0:0:
44,144,159426,1,0,0:0:0:0:
80,108,159507,1,0,0:0:0:0:
124,88,159588,1,0,0:0:0:0:
176,92,159670,1,4,0:0:0:0:
248,164,159832,1,0,0:0:0:0:
248,164,159994,2,0,B|288:208|280:268,1,100
360,188,160480,5,0,0:0:0:0:
396,92,160643,2,0,B|444:56|496:60,1,100
464,224,161129,1,0,0:0:0:0:
432,320,161291,1,0,0:0:0:0:
336,352,161453,2,0,B|288:324|284:268,1,100
280,72,161940,5,0,0:0:0:0:
180,60,162102,1,0,0:0:0:0:
92,104,162264,1,4,0:0:0:0:
56,196,162426,1,0,0:0:0:0:
58,340,162588,2,0,B|110:312|124:268,1,100
256,192,162913,12,0,164697,0:0:0:0:
108,192,164859,6,0,B|428:192,1,300
480,276,166156,1,4,0:0:0:0:
384,340,166480,5,8,0:0:0:0:
428,172,166643,1,0,0:0:0:0:
480,276,166967,5,0,0:0:0:0:
376,72,167129,1,8,0:0:0:0:
304,144,167453,5,4,0:0:0:0:
228,216,167616,1,0,0:0:0:0:
228,216,167697,1,0,0:0:0:0:
228,216,167778,2,0,B|128:207,1,100,8|0,0:0|0:0,0:0:0:0:
428,233,168102,2,0,B|438:300|411:328,1,100,0|0,0:0|0:0,0:0:0:0:
344,148,168426,2,0,B|334:80|379:24,1,100,8|0,0:0|0:0,0:0:0:0:
260,60,168751,6,0,B|16:24,1,200,4|8,0:0|0:0,0:0:0:0:
8,116,169237,1,0,0:0:0:0:
8,116,169399,2,0,B|-5:200|53:234,1,100
108,300,169724,2,0,B|12:330,1,100,8|0,0:0|0:0,0:0:0:0:
200,224,170048,2,0,B|210:146|301:131,1,100,4|0,0:0|0:0,0:0:0:0:
280,136,170291,1,0,0:0:0:0:
304,140,170372,2,0,B|448:168,1,100,8|0,0:0|0:0,0:0:0:0:
236,32,170697,5,0,0:0:0:0:
232,56,170778,1,0,0:0:0:0:
220,80,170859,1,0,0:0:0:0:
200,96,170940,1,0,0:0:0:0:
180,108,171021,1,8,0:0:0:0:
156,116,171102,1,0,0:0:0:0:
132,120,171183,1,0,0:0:0:0:
108,120,171264,1,0,0:0:0:0:
84,116,171345,1,4,0:0:0:0:
104,216,171507,5,0,0:0:0:0:
84,116,171670,1,8,0:0:0:0:
124,316,171832,1,0,0:0:0:0:
292,348,172156,5,0,0:0:0:0:
320,148,172318,1,8,0:0:0:0:
320,148,172643,5,4,0:0:0:0:
360,252,172805,1,0,0:0:0:0:
360,252,172886,1,0,0:0:0:0:
360,252,172967,2,0,B|416:297|486:291,1,100,8|0,0:0|0:0,0:0:0:0:
394,124,173291,2,0,B|338:79|268:85,1,100,0|0,0:0|0:0,0:0:0:0:
288,104,173534,1,0,0:0:0:0:
268,120,173616,2,0,B|142:157,1,100,8|0,0:0|0:0,0:0:0:0:
55,78,173940,6,0,B|76:176,1,100,4|0,0:0|0:0,0:0:0:0:
96,272,174264,1,8,0:0:0:0:
96,272,174426,1,0,0:0:0:0:
196,288,174588,2,0,B|264:262|276:193,1,100
292,124,174913,1,8,0:0:0:0:
212,64,175075,1,0,0:0:0:0:
268,222,175237,5,4,0:0:0:0:
364,48,175399,1,0,0:0:0:0:
364,48,175480,1,0,0:0:0:0:
364,48,175561,1,8,0:0:0:0:
292,124,175724,1,0,0:0:0:0:
460,64,175886,1,0,0:0:0:0:
456,92,175967,1,0,0:0:0:0:
452,120,176048,1,0,0:0:0:0:
448,148,176129,1,0,0:0:0:0:
444,176,176210,1,8,0:0:0:0:
440,204,176291,1,0,0:0:0:0:
436,232,176372,1,0,0:0:0:0:
272,350,176534,6,0,B|288:252,1,100,4|0,0:0|0:0,0:0:0:0:
304,152,176859,2,0,B|408:128,1,100,8|0,0:0|0:0,0:0:0:0:
216,204,177183,2,0,B|112:180,1,100
100,176,177426,1,0,0:0:0:0:
80,172,177507,2,0,B|16:256,1,100,8|0,0:0|0:0,0:0:0:0:
14,28,177832,2,0,B|112:52,1,100,4|0,0:0|0:0,0:0:0:0:
112,52,178075,1,0,0:0:0:0:
112,52,178156,1,8,0:0:0:0:
228,76,178318,1,0,0:0:0:0:
324,4,178480,1,0,0:0:0:0:
324,4,178643,1,0,0:0:0:0:
192,216,178805,6,0,B|268:236|296:304,1,100,8|0,0:0|0:0,0:0:0:0:
296,324,179048,2,0,B|334:321|366:294,1,50,0|4,0:0|0:0,0:0:0:0:
460,328,179291,1,0,0:0:0:0:
356,124,179453,1,8,0:0:0:0:
396,228,179616,1,0,0:0:0:0:
480,116,179778,1,0,0:0:0:0:
356,124,179940,5,0,0:0:0:0:
356,124,180102,2,0,B|224:96,1,100,8|0,0:0|0:0,0:0:0:0:
256,288,180426,5,4,0:0:0:0:
124,216,180588,1,0,0:0:0:0:
124,216,180670,1,0,0:0:0:0:
124,216,180751,2,0,B|219:186,1,100,8|0,0:0|0:0,0:0:0:0:
336,24,181075,5,0,0:0:0:0:
308,32,181156,1,0,0:0:0:0:
280,40,181237,1,0,0:0:0:0:
252,48,181318,1,0,0:0:0:0:
224,56,181399,1,8,0:0:0:0:
196,64,181480,1,0,0:0:0:0:
168,72,181561,1,0,0:0:0:0:
212,248,181724,5,4,0:0:0:0:
212,248,181886,1,0,0:0:0:0:
248,344,182048,1,8,0:0:0:0:
148,312,182210,2,0,B|20:268,1,100
36,180,182534,2,0,B|72:136|56:56,1,100,0|8,0:0|0:0,0:0:0:0:
148,48,182859,2,0,B|280:60|324:144,1,200
320,136,183345,1,8,0:0:0:0:
334,255,183507,6,0,B|322:311|237:331,1,100
320,136,183832,2,0,B|331:82|387:70,1,100,0|8,0:0|0:0,0:0:0:0:
200,152,184156,1,0,0:0:0:0:
200,152,184318,2,0,B|80:96,1,100,4|0,0:0|0:0,0:0:0:0:
128,248,184643,1,8,0:0:0:0:
128,248,184805,2,0,B|252:300,1,100
332,329,185129,1,8,0:0:0:0:
436,270,185291,2,0,B|494:182|465:54,1,200,8|4,0:0|0:0,0:0:0:0:
352,106,185778,2,0,B|484:122|484:122,1,100,0|8,0:0|0:0,0:0:0:0:
256,24,186102,5,0,0:0:0:0:
256,48,186183,1,0,0:0:0:0:
252,72,186264,1,0,0:0:0:0:
244,96,186345,1,0,0:0:0:0:
228,116,186426,1,0,0:0:0:0:
208,128,186507,1,0,0:0:0:0:
184,140,186588,2,0,B|60:104|60:104,1,100,8|0,0:0|0:0,0:0:0:0:
107,262,186913,6,0,B|233:300|232:300,1,100,4|0,0:0|0:0,0:0:0:0:
396,140,187237,1,8,0:0:0:0:
396,140,187399,1,0,0:0:0:0:
368,240,187561,2,0,B|332:364,1,100
480,84,187886,2,0,B|412:68|412:68|358:34|358:34|260:12,1,200,8|4,0:0|0:0,0:0:0:0:
180,64,188372,1,0,0:0:0:0:
180,64,188534,1,8,0:0:0:0:
260,148,188697,5,0,0:0:0:0:
260,172,188778,1,0,0:0:0:0:
256,196,188859,1,0,0:0:0:0:
248,220,188940,1,0,0:0:0:0:
236,240,189021,1,8,0:0:0:0:
220,260,189102,1,0,0:0:0:0:
200,276,189183,1,8,0:0:0:0:
108,280,189345,1,0,0:0:0:0:
108,280,189507,6,0,B|-8:196,1,100,4|0,0:0|0:0,0:0:0:0:
208,200,189832,2,0,B|324:284|324:284,1,100,8|0,0:0|0:0,0:0:0:0:
312,272,190075,1,0,0:0:0:0:
336,272,190156,2,0,B|400:232|388:156,1,100
378,10,190480,2,2,B|274:34|260:156,1,200,8|4,0:0|0:0,0:0:0:0:
312,272,190967,1,4,0:0:0:0:
312,272,191129,1,8,0:0:0:0:
200,340,191291,2,0,B|8:280,1,200,0|8,0:0|0:0,0:0:0:0:
10,281,191778,1,8,0:0:0:0:
255,193,192102,5,4,0:0:0:0:
256,192,192183,8,4,197291,0:0:0:0:
