osu file format v9

[General]
AudioFilename: 01 Flash B ack.mp3
AudioLeadIn: 0
PreviewTime: 106066
Countdown: 0
SampleSet: Soft
StackLeniency: 0.7
Mode: 0
LetterboxInBreaks: 1

[Editor]
Bookmarks: 10553,21255,75742,86120,143201,153580
DistanceSpacing: 0.8
BeatDivisor: 4
GridSize: 4

[Metadata]
Title:FlashBack
Artist:Akiakane
Creator:Kiiwa
Version:Normal
Source:
Tags:J-Pop Beren Collaboration Collab Boroboro na Ikizama niki NicoNicoDouga toysfactory

[Difficulty]
HPDrainRate:3
CircleSize:3
OverallDifficulty:3
ApproachRate:4
SliderMultiplier:1.3
SliderTickRate:2

[Events]
//Background and Video events
0,0,"flashbackBG.jpg"
Video,-1000,"Flashback-Video.flv"
//Break Periods
2,10877,19935
2,75942,84800
2,143401,152259
//Storyboard Layer 0 (Background)
//Storyboard Layer 1 (Fail)
//Storyboard Layer 2 (Pass)
//Storyboard Layer 3 (Foreground)
//Storyboard Sound Samples
//Background Colour Transformations
3,100,163,162,255

[TimingPoints]
5688,324.324324324324,4,2,1,60,1,0
10552,-100,4,1,1,60,0,0
21255,-100,4,2,1,60,0,0
32282,-100,4,1,0,40,0,0
32606,-100,4,2,1,60,0,0
33579,-100,4,1,0,40,0,0
33904,-100,4,2,1,60,0,0
34877,-100,4,1,0,40,0,0
35201,-100,4,2,1,60,0,0
36174,-100,4,1,0,40,0,0
36498,-100,4,2,1,60,0,0
37471,-100,4,1,0,40,0,0
37796,-100,4,2,1,60,0,0
38769,-100,4,1,0,40,0,0
39093,-100,4,2,1,60,0,0
40066,-100,4,1,0,40,0,0
40390,-100,4,2,1,60,0,0
49796,-100,4,1,0,40,0,0
50120,-100,4,2,1,60,0,0
50444,-100,4,1,0,40,0,0
50769,-100,4,2,1,60,0,0
51093,-100,4,1,0,40,0,0
51417,-100,4,2,1,60,0,0
51742,-100,4,1,1,60,0,0
52390,-100,4,2,1,80,0,1
52877,-100,4,1,1,60,0,1
54985,-100,4,2,1,80,0,1
55309,-100,4,1,1,60,0,1
57579,-100,4,2,1,80,0,1
57904,-100,4,1,1,60,0,1
60174,-100,4,2,1,80,0,1
60498,-100,4,1,1,60,0,1
62120,-100,4,1,1,50,0,0
62769,-100,4,2,0,80,0,1
63093,-100,4,1,1,60,0,1
65363,-100,4,2,0,80,0,1
65687,-100,4,1,1,60,0,1
67958,-100,4,2,0,80,0,1
68282,-100,4,1,1,60,0,1
70552,-100,4,2,0,80,0,1
71039,-100,4,1,1,60,0,1
72823,-100,4,1,1,60,0,1
73147,-100,4,2,0,20,0,0
86120,-100,4,2,1,60,0,0
104606,-100,4,2,1,60,0,0
104931,-100,4,1,0,40,0,0
105255,-100,4,2,1,60,0,0
105579,-100,4,1,0,40,0,0
105904,-100,4,2,1,60,0,0
106228,-100,4,1,1,40,0,0
106552,-100,4,1,1,60,0,0
106877,-100,4,2,1,80,0,1
107363,-100,4,1,1,60,0,1
109471,-100,4,2,1,80,0,1
109796,-100,4,1,1,60,0,1
112066,-100,4,2,1,80,0,1
112390,-100,4,1,1,60,0,1
114660,-100,4,2,1,80,0,1
114985,-100,4,1,1,60,0,1
116607,-100,4,1,1,50,0,0
116931,-100,4,1,1,50,0,0
117255,-100,4,2,1,80,0,1
117579,-100,4,1,1,60,0,1
119850,-100,4,2,1,80,0,1
120174,-100,4,1,1,60,0,1
122444,-100,4,2,1,80,0,1
122931,-100,4,1,1,60,0,1
125039,-100,4,2,1,80,0,1
126985,-100,4,2,1,80,0,0
127309,-100,4,2,1,80,0,0
127633,-100,4,2,0,60,0,0
128282,-100,4,2,1,60,0,0
153579,-100,4,2,1,60,0,0
165255,-100,4,2,0,80,0,1
165742,-100,4,1,1,60,0,1
167850,-100,4,2,0,80,0,1
168174,-100,4,1,1,60,0,1
170444,-100,4,2,0,80,0,1
170769,-100,4,1,1,60,0,1
173039,-100,4,2,0,80,0,1
173363,-100,4,1,1,60,0,1
174985,-100,4,1,1,50,0,0
175309,-100,4,1,1,50,0,0
175634,-100,4,2,0,80,0,1
175958,-100,4,1,1,60,0,1
178228,-100,4,2,0,80,0,1
178552,-100,4,1,1,60,0,1
180823,-100,4,2,0,80,0,1
181147,-100,4,1,1,60,0,1
183417,-100,4,2,0,80,0,1
183742,-100,4,1,1,60,0,1
186012,-100,4,2,0,80,0,1
186336,-100,4,1,1,60,0,1
188606,-100,4,2,0,80,0,1
189093,-100,4,1,1,60,0,1
190553,-100,4,1,1,60,0,0
190877,-100,4,1,1,60,0,0
191201,-100,4,2,0,80,0,1
196390,-100,4,2,0,50,0,0

[Colours]
Combo1 : 6,61,249
Combo2 : 152,92,126
Combo3 : 87,122,157
Combo4 : 236,9,105

[HitObjects]
256,192,5687,12,8,10552
36,96,21255,6,0,B|72:68|152:96|140:156,1,130,4|8
56,196,21904,2,0,B|64:236|64:236|156:284,1,130,0|8
236,324,22552,2,0,B|272:376|376:384|460:344|468:292,1,260
468,200,23525,1,8
388,268,23850,6,0,B|348:252|320:196|352:140,1,130,0|8
412,80,24498,2,0,B|468:44,2,65,8|0|8
412,80,25471,37,8
316,36,25796,1,0
220,80,26120,1,8
224,184,26444,6,0,B|240:236|340:268|400:216,2,195,6|2|10
324,152,27742,2,0,B|388:120|456:152,2,130,0|8|0
392,224,28715,1,8
468,296,29039,38,0,B|448:336|448:336|360:348,1,130,0|8
260,356,29687,2,0,B|192:364,2,65,8|0|8
260,356,30660,5,8
212,264,30985,1,8
260,172,31309,1,8
364,164,31633,38,0,B|432:184|456:292|412:368|352:372,1,260,4|0
260,356,32606,1,8
320,268,32931,6,0,B|308:212|308:212|92:172,1,260,4|0
40,96,33904,1,8
124,32,34228,38,0,B|152:96|280:128|348:92|364:48,1,260,4|0
448,28,35201,1,8
472,128,35525,6,0,B|496:184|500:264,2,130,4|8|0
448,28,36498,1,8
384,108,36823,38,0,B|312:88|196:152|196:248|212:268,1,260,4|0
284,324,37796,1,8
188,364,38120,6,0,B|104:344|104:344|56:172,1,260,4|0
32,76,39093,1,8
136,92,39417,38,0,B|192:56|284:72,2,130,4|0|0
32,76,40390,1,0
64,176,40715,6,0,B|104:316,1,130,4|8
200,324,41363,2,8,B|180:256,2,65
272,248,42012,38,0,B|316:208|432:224|480:320|452:372,1,260,4|0
504,260,42985,2,0,B|484:192|504:108,1,130,8|0
508,28,43633,1,8
408,4,43958,1,0
348,92,44282,1,8
404,180,44606,6,0,B|456:192|516:164|520:112,1,130,4|8
508,236,45255,2,0,B|496:368,1,130,0|8
400,320,45904,1,0
300,356,46228,1,8
208,304,46552,2,0,B|172:264|172:208|196:172,1,130,8|8
292,168,47201,38,0,B|256:232|128:232|80:168|80:128,1,260,4|0
128,44,48174,2,0,B|52:24|0:68,1,130,8|0
80,135,48823,1,8
28,224,49147,2,0,B|8:280|8:280|24:368,1,130,0|8
124,328,49796,5,0
228,344,50120,1,8
300,268,50444,1,0
268,168,50769,1,8
168,148,51093,1,0
92,220,51417,1,8
192,248,51742,37,8
192,248,52066,1,8
268,168,52390,22,0,B|324:144|420:176|444:244,2,195,4|0|8
164,184,53687,2,0,B|84:200|64:264,1,130,0|8
44,360,54336,1,0
44,360,54660,1,8
144,328,54985,6,0,B|296:352,1,130,4|8
272,244,55633,1,0
364,296,55958,2,0,B|420:264|444:176|432:92|384:64,1,260,8|8
296,20,56931,1,0
304,124,57255,1,8
388,68,57579,38,0,B|432:28|512:32,2,130,4|8|0
304,124,58552,2,0,B|280:188|196:216|96:188|84:148,1,260,8|8
140,72,59525,1,0
36,56,59850,1,8
4,164,60174,6,0,B|44:216|68:328|36:376,2,195,4|0|8
80,236,61471,2,0,B|144:216|204:256,1,130,0|8
256,344,62120,6,0,B|300:372|362:359|416:312|400:244,1,195
408,220,62769,22,0,B|408:168|448:132|500:132,1,130,4|8
432,44,63417,1,0
344,96,63742,2,0,B|276:132|208:128|112:84|96:24,1,260,8|8
4,44,64715,1,0
36,144,65039,1,8
108,220,65363,6,0,B|140:284|220:320|292:320,2,195,4|0|8
36,144,66660,2,0,B|-4:84|8:8,1,130,0|8
104,60,67309,1,0
204,80,67633,1,0
200,184,67958,38,0,B|192:224|124:244|80:216,1,130,4|8
124,124,68606,2,0,B|160:72|284:84|320:176|280:240,1,260
248,316,69579,1,8
352,304,69904,1,0
288,220,70228,1,8
360,144,70552,6,0,B|388:92|456:56|528:56,2,195,4|0|8
316,240,71850,1,0
216,240,72174,1,8
184,144,72498,1,8
272,88,72823,1,8
360,144,73147,5,2
296,340,73796,1,2
124,224,74444,1,2
188,28,75093,1,2
256,196,75742,5,4
400,312,86120,38,0,B|344:180,1,130,4|8
288,276,86769,2,0,B|272:336|204:372|76:368|52:304,1,260
44,224,87742,2,0,B|80:208|144:220|164:268,2,130,8|0|8
8,128,88715,5,4
188,28,89363,1,0
388,88,90012,2,0,B|424:120|424:120|516:112,1,130,0|8
460,208,90660,2,0,B|408:196|328:220|300:344|356:384,1,260,0|4
416,300,91633,37,8
324,252,91958,2,0,B|284:232|224:224|184:248,1,130,0|8
100,268,92606,2,0,B|58:276|20:300|0:352,1,130,0|8
100,160,93579,5,8
176,88,93904,2,0,B|216:56|328:52|376:88,2,195,4|0|8
76,56,95201,1,0
100,160,95525,1,8
176,232,95850,2,0,B|220:276|296:288,1,130,0|8
396,292,96498,37,4
356,196,96823,2,0,B|364:152|364:152|440:104,1,130,8|8
288,56,97633,2,0,B|244:80|136:76|96:40,1,195,8|8
16,104,98444,1,8
100,44,98769,1,8
112,148,99093,6,0,B|156:176|188:252|176:332,2,195,4|12|12
16,104,100390,1,0
16,104,100715,1,8
100,44,101039,2,0,B|232:60,1,130,0|8
332,72,101687,38,0,B|424:60|496:144|488:232|464:268,1,260,4|0
484,348,102660,1,8
384,320,102985,2,0,B|336:308|292:284|268:232,1,130,0|8
224,164,103633,2,0,B|192:104|188:36,1,130,0|8
288,12,104282,5,4
356,88,104606,1,8
300,176,104931,1,0
200,152,105255,1,8
188,48,105579,1,0
88,24,105904,1,8
32,112,106228,1,8
100,192,106552,1,8
188,248,106877,6,0,B|220:292|344:308|388:268,2,195,4|0|8
284,208,108174,2,0,B|320:180|320:180|340:96,1,130,0|8
352,4,108823,1,0
436,64,109147,1,8
340,100,109471,6,0,B|260:112|196:68,1,130,4|8
116,48,110120,2,0,B|60:32|0:104|-4:184|24:236|80:248,1,260
156,268,111093,2,0,B|232:276|264:336,2,130,8|0|8
164,372,112066,37,4
262,333,112390,1,8
348,272,112715,2,0,B|400:232|408:128,1,130,0|8
440,60,113363,2,0,B|416:4|316:-6|230:24|226:85,1,260
132,128,114336,1,8
48,188,114660,6,0,B|16:244|44:360|80:376,2,195,4|0|8
148,220,115958,2,0,B|216:220|272:256,1,130,0|8
368,292,116606,6,0,B|404:320|512:320|524:224|500:196,1,195
488,172,117255,22,0,B|512:112|504:44,1,130,4|8
408,8,117904,1,0
344,88,118228,1,8
400,176,118552,1,0
496,140,118877,1,8
476,240,119201,2,0,B|444:296|348:288,1,130
284,356,119850,5,4
192,304,120174,2,0,B|180:252|80:220|-16:288|0:344,1,260,8|8
16,240,121147,2,0,B|44:180|16:104,1,130,0|8
100,48,121796,1,0
188,104,122120,1,8
264,36,122444,38,0,B|344:4|460:36,2,195,4|0|8
168,80,123742,2,0,B|132:96|96:152|108:208,1,130,0|8
160,276,124390,2,0,B|88:300|32:260,1,130,0|8
108,188,125039,5,4
256,40,125687,1,2
404,196,126336,1,4
256,344,126985,1,2
256,192,127633,5,4
100,328,128282,6,0,B|40:200,1,130,0|8
84,116,128931,1,0
164,180,129255,2,0,B|212:148|316:180|372:256|340:312,1,260,8|8
436,348,130228,1,0
472,252,130552,2,0,B|496:124|496:124|472:-8,1,260,8|8
428,88,131525,1,0
336,36,131850,1,8
252,100,132174,1,0
296,192,132498,1,8
400,188,132823,38,0,B|472:196|520:252,2,130,4|8|0
296,168,133796,2,0,B|248:144|136:160|72:216|64:264,1,260,8|8
152,312,134769,1,0
52,344,135093,1,8
68,248,135417,2,0,B|76:184|48:112,1,130,0|8
68,20,136066,1,0
172,4,136390,1,8
220,96,136715,1,0
144,168,137039,5,8
51,120,137363,1,8
4,212,137687,1,8
96,260,138012,2,0,B|84:324|160:408|236:400|288:368,1,260,4|0
372,320,138985,2,0,B|400:288|476:268|520:300,2,130,8|0|8
268,316,139958,1,0
184,256,140282,1,8
132,164,140606,38,0,B|112:120|112:72|128:32,1,130,4|8
228,20,141255,2,0,B|256:60|256:60|352:72,1,130,0|8
428,20,141904,2,0,B|476:60|464:160|376:184|356:148,2,195,0|0|8
336,70,143201,5,4
408,328,153579,38,0,B|368:296|280:304|240:360|252:400,2,195,4|0|8
488,260,154877,2,0,B|476:132,2,130,0|8|0
388,228,155850,1,8
308,160,156174,6,0,B|248:140|184:72|188:12,2,195,4|0|8
412,148,157471,1,0
360,240,157796,1,8
256,220,158120,1,0
252,116,158444,1,0
344,72,158769,37,4
256,20,159093,1,8
76,128,159742,1,8
156,320,160390,1,8
364,316,161039,1,8
400,216,161363,5,4
436,116,161687,1,8
472,16,162012,1,0
256,192,162336,12,4,163958
256,352,165255,6,0,B|256:132,2,195,4|0|8
168,292,166552,2,0,B|80:276|28:332,1,130,0|8
12,216,167201,1,0
40,116,167525,1,8
96,28,167850,6,0,B|176:-4|252:28,1,130,4|8
324,44,168498,1,0
428,60,168823,2,0,B|508:92|496:208|428:268|376:236,1,260,8|8
288,204,169796,1,0
224,288,170120,1,8
284,372,170444,38,0,B|280:336|356:304|388:344,1,130,4|8
180,352,171417,2,0,B|152:268|152:268|8:156,1,260,8|8
68,72,172390,2,0,B|140:68|180:144,1,130,0|8
248,208,173039,6,0,B|292:256|392:252|424:196,2,195,4|0|8
332,148,174336,2,0,B|324:92|324:92|364:24,1,130,0|8
464,40,174985,6,0,B|424:68|412:144|436:196|488:216,1,195
504,252,175633,22,0,B|512:300|464:360|412:340,1,130,4|8
340,300,176282,1,0
236,292,176606,2,0,B|168:268|40:296|0:376,2,260,8|8|8
332,332,178228,5,4
432,312,178552,1,8
292,156,179201,1,8
260,256,179525,1,0
332,332,179850,1,8
432,312,180174,2,0,B|476:296|500:240|480:200,1,130,0|8
412,128,180823,38,0,B|344:132|272:72|280:0,2,195,4|0|8
444,28,182120,1,4
512,108,182444,1,8
412,128,182769,2,0,B|364:116|304:148|300:208,1,130,0|8
396,224,183417,6,0,B|432:268|432:268|440:364,1,130,4|8
236,288,184390,1,8
36,348,185039,2,8,B|24:212,1,130,8|0
12,116,185687,1,0
108,156,186012,38,0,B|192:136|228:64|216:-16,2,195,4|0|8
24,220,187309,1,0
96,292,187633,2,0,B|148:336|276:344|340:284,1,260,8|8
384,192,188606,6,0,B|388:136|464:80|532:96,2,195,4|0|8
448,276,189904,1,0
338,285,190228,1,8
244,244,190552,1,0
184,156,190877,1,8
176,52,191201,1,4
256,192,191525,12,4,196390
