osu file format v9

[General]
AudioFilename: 01 Flash B ack.mp3
AudioLeadIn: 0
PreviewTime: 106066
Countdown: 0
SampleSet: Soft
StackLeniency: 0.7
Mode: 0
LetterboxInBreaks: 1

[Editor]
Bookmarks: 10553,21255,75742,143201,153580
DistanceSpacing: 0.8
BeatDivisor: 4
GridSize: 4

[Metadata]
Title:FlashBack
Artist:Akiakane
Creator:Kiiwa
Version:Insane
Source:
Tags:J-Pop Beren Collaboration Collab Boroboro na Ikizama niki NicoNicoDouga toysfactory

[Difficulty]
HPDrainRate:6
CircleSize:4
OverallDifficulty:7
ApproachRate:9
SliderMultiplier:2.2
SliderTickRate:2

[Events]
//Background and Video events
0,0,"flashbackBG.jpg"
Video,-1000,"Flashback-Video.flv"
//Break Periods
2,10877,20006
2,143401,152655
//Storyboard Layer 0 (Background)
//Storyboard Layer 1 (Fail)
//Storyboard Layer 2 (Pass)
//Storyboard Layer 3 (Foreground)
//Storyboard Sound Samples
//Background Colour Transformations
3,100,163,162,255

[TimingPoints]
5688,324.324324324324,4,2,1,60,1,0
10552,-100,4,1,1,60,0,0
21255,-100,4,2,1,60,0,0
21904,-100,4,1,0,40,0,0
22228,-100,4,2,1,60,0,0
23201,-100,4,1,0,40,0,0
23444,-100,4,2,1,60,0,0
24498,-100,4,1,0,40,0,0
24823,-100,4,2,1,60,0,0
28390,-100,4,1,0,40,0,0
28552,-100,4,2,1,60,0,0
29687,-100,4,1,0,40,0,0
30012,-100,4,2,1,60,0,0
32282,-100,4,1,0,40,0,0
32931,-100,4,2,1,60,0,0
33579,-100,4,1,0,40,0,0
34228,-100,4,2,1,60,0,0
34877,-100,4,1,0,40,0,0
35525,-100,4,2,1,60,0,0
37471,-100,4,1,0,40,0,0
38120,-100,4,2,1,60,0,0
38769,-100,4,1,0,40,0,0
39093,-100,4,2,1,60,0,0
40066,-100,4,1,0,40,0,0
41039,-100,4,2,1,60,0,0
41363,-100,4,1,0,40,0,0
42012,-100,4,2,1,60,0,0
43309,-100,4,1,0,40,0,0
43633,-100,4,2,1,60,0,0
45904,-100,4,1,0,40,0,0
46228,-100,4,2,1,60,0,0
46552,-100,4,2,0,40,0,0
46877,-100,4,2,0,50,0,0
47201,-100,4,2,1,60,0,0
48498,-100,4,1,0,40,0,0
48823,-100,4,2,1,60,0,0
49796,-100,4,1,0,30,0,0
50120,-100,4,2,1,60,0,0
50282,-100,4,1,0,30,0,0
50769,-100,4,2,1,60,0,0
51093,-100,4,1,1,50,0,0
51580,-100,4,2,0,30,0,0
51742,-100,4,1,1,60,0,0
51904,-100,4,2,0,40,0,0
52066,-100,4,1,1,70,0,0
52228,-100,4,2,0,50,0,0
52390,-100,4,2,1,80,0,1
52552,-100,4,1,1,60,0,1
54985,-100,4,2,1,80,0,1
55147,-100,4,1,1,60,0,1
57579,-100,4,2,1,80,0,1
57742,-100,4,1,1,60,0,1
60174,-100,4,2,1,80,0,1
60336,-100,4,1,1,60,0,1
62120,-100,4,1,1,50,0,0
62445,-100,4,1,1,50,0,0
62769,-100,4,2,0,80,0,1
62931,-100,4,1,1,60,0,1
65363,-100,4,2,0,80,0,1
65525,-100,4,1,1,60,0,1
67958,-100,4,2,0,80,0,1
68120,-100,4,1,1,60,0,1
70552,-100,4,2,0,80,0,1
70715,-100,4,1,1,60,0,1
71525,-133.333333333333,4,1,1,60,0,1
72823,-133.333333333333,4,1,1,60,0,1
73147,-200,4,2,0,20,0,0
73796,-200,4,2,0,15,0,0
74120,-200,4,2,0,20,0,0
74444,-200,4,2,0,15,0,0
74769,-200,4,2,0,20,0,0
75093,-200,4,2,0,10,0,0
75742,-100,4,2,1,60,0,0
87904,-100,4,1,1,30,0,0
87985,-100,4,2,1,60,0,0
90498,-100,4,1,1,30,0,0
90579,-100,4,2,1,60,0,0
93093,-100,4,1,1,30,0,0
93174,-100,4,2,1,60,0,0
99093,-100,4,1,1,60,0,0
99255,-100,4,2,1,60,0,0
99579,-100,4,1,1,60,0,0
99742,-100,4,2,1,60,0,0
100066,-100,4,1,1,60,0,0
100228,-100,4,2,1,60,0,0
105579,-100,4,2,1,80,0,0
106228,-100,4,1,1,50,0,0
106390,-100,4,1,1,50,0,0
106552,-100,4,1,1,50,0,0
106715,-100,4,1,1,50,0,0
106877,-100,4,1,1,80,0,1
109471,-100,4,2,1,80,0,1
109552,-100,4,1,1,80,0,1
112066,-100,4,2,1,80,0,1
112147,-100,4,1,1,80,0,1
114660,-100,4,2,1,80,0,1
114742,-100,4,1,1,80,0,1
116606,-100,4,1,1,50,0,0
116931,-100,4,1,1,50,0,0
117255,-100,4,2,1,80,0,1
117336,-100,4,1,1,80,0,1
119850,-100,4,2,1,80,0,1
119931,-100,4,1,1,80,0,1
122444,-100,4,2,1,80,0,1
122525,-100,4,1,1,80,0,1
125039,-100,4,2,1,80,0,1
125120,-100,4,1,1,80,0,1
126012,-133.333333333333,4,1,1,80,0,1
126985,-133.333333333333,4,2,0,10,0,0
127309,-100,4,2,1,50,0,0
127634,-100,4,2,1,50,0,0
153255,-100,4,1,0,40,0,0
153579,-100,4,2,1,60,0,0
162660,-100,4,1,0,40,0,0
163309,-100,4,1,1,60,0,0
163958,-100,4,2,1,50,0,0
164607,-100,4,1,1,60,0,0
164769,-100,4,1,0,40,0,0
164931,-100,4,1,1,60,0,0
165093,-100,4,1,0,40,0,0
165255,-100,4,2,0,80,0,1
165336,-100,4,1,1,60,0,1
167850,-100,4,2,0,60,0,1
168012,-100,4,1,1,60,0,1
170444,-100,4,2,0,60,0,1
170525,-100,4,1,1,60,0,1
173039,-100,4,2,0,60,0,1
173201,-100,4,1,1,60,0,1
174985,-100,4,1,1,50,0,0
175309,-100,4,1,0,40,0,0
175634,-100,4,2,0,80,0,1
175796,-100,4,1,1,60,0,1
178228,-100,4,2,0,60,0,1
178390,-100,4,1,1,60,0,1
180823,-100,4,2,0,60,0,1
180985,-100,4,1,1,60,0,1
183417,-100,4,2,0,60,0,1
183579,-100,4,1,1,60,0,1
186012,-100,4,2,0,60,0,1
186174,-100,4,1,1,60,0,1
188606,-100,4,2,0,60,0,1
188769,-100,4,1,1,60,0,1
190553,-100,4,1,0,60,0,0
190877,-100,4,1,0,50,0,0
191201,-133.333333333333,4,2,0,80,0,1
193471,-133.333333333333,4,2,1,60,0,1
196390,-100,4,2,0,50,0,0

[Colours]
Combo1 : 6,61,249
Combo2 : 152,92,126
Combo3 : 87,122,157
Combo4 : 236,9,105

[HitObjects]
256,192,5687,12,8,10390
256,192,10552,5,8
96,108,20606,5,0
96,108,20687,1,0
96,108,20769,1,0
96,108,20850,1,0
96,108,20931,2,0,B|20:88,3,55
80,184,21255,38,0,B|104:224|192:244|260:204|268:144,1,220,4|8
296,84,21742,1,0
264,159,21904,2,0,B|236:236|264:292,1,110
276,344,22228,1,8
276,344,22390,1,0
200,372,22552,5,0
332,216,22715,1,0
152,304,22877,2,0,B|104:336|32:300,1,110,8|0
0,204,23201,2,0,B|52:172|120:208,1,110,0|0
224,216,23525,2,0,B|276:240|340:212,1,110,8|0
280,148,23850,37,0
280,148,24174,1,8
280,148,24498,1,0
372,144,24660,1,0
448,108,24823,2,0,B|504:88|516:24,1,110,8|0
32,88,25471,6,0,B|112:56|204:88,1,165,8|0
168,116,25796,2,0,B|112:100|56:120,1,110,0|0
8,200,26120,1,8
60,280,26282,1,0
20,368,26444,37,4
8,200,26606,1,0
60,280,26769,2,0,B|120:296|196:260,1,110,8|2
253,248,27093,2,0,B|325:233|426:274|452:325,1,220,0|10
492,248,27579,1,0
372,360,27742,6,0,B|324:388|244:356,1,110
140,384,28066,1,8
272,156,28390,2,0,B|324:180|472:180|512:132,1,220,0|8
432,52,28877,1,0
272,156,29039,38,0,B|324:252,1,110
484,148,29363,2,0,B|432:52,1,110,8|0
151,131,29687,2,0,B|203:227,1,110
364,124,30011,2,0,B|311:27,1,110,8|0
311,27,30660,5,8
232,88,30823,1,0
124,116,30985,2,0,B|56:132|8:104,1,110,8|0
76,220,31309,2,0,B|128:204|188:228,1,110,8|0
24,324,31633,38,0,B|56:268|188:272|212:340,2,220,4|8|0
24,324,32444,1,0
211,338,32606,1,0
508,200,32931,6,0,B|420:236|284:220,2,220,4|8|0
508,200,33742,1,0
291,220,33904,1,0
16,72,34228,38,0,B|244:104,2,220,4|8|0
16,72,35039,1,0
233,102,35201,1,0
380,332,35525,6,0,B|340:400|196:388|180:328,1,220,4|8
184,340,36174,1,4
104,280,36336,2,0,B|80:264|60:232|60:196|70:180,1,110,0|8
68,183,36660,1,0
172,184,36823,38,0,B|220:180|248:108|248:20|168:4,2,220,4|8|0
172,184,37633,1,0
185,9,37796,1,0
392,280,38120,6,0,B|356:168|392:56,2,220,4|8|0
392,280,38931,1,0
389,63,39093,1,0
128,368,39417,38,0,B|128:120,2,220,4|8|0
128,368,40228,1,0
128,148,40390,1,0
472,36,40715,6,0,B|488:156,1,110
400,104,41039,2,0,B|320:132|224:104,1,165,8|0
200,88,41363,1,0
308,32,41525,1,0
400,104,41687,1,0
360,212,41850,1,0
232,200,42012,38,0,B|148:172|32:240|0:316|16:392,1,330,4|0
16,268,42660,2,0,B|56:228|48:144|16:116,1,165
0,88,42985,1,8
112,144,43147,1,0
156,36,43309,2,0,B|212:68|296:28,1,110
348,32,43633,5,8
262,41,43796,1,0
272,128,43958,1,2
428,68,44282,1,8
424,156,44444,1,0
340,192,44606,38,0,B|304:252|200:264|140:228,1,220,4|8
0,112,45093,2,0,B|36:52|140:40|200:76,1,220,0|0
288,196,45579,6,0,B|244:228|176:212,1,110,8|0
44,120,45904,2,0,B|88:80|148:92,1,110,0|0
248,328,46228,2,0,B|204:360|136:344,1,110,8|0
4,252,46552,38,0,B|48:212|108:224,1,110,4|0
184,212,46877,2,0,B|228:172|288:184,1,110,4|0
364,172,47201,2,0,B|408:132|468:144,1,110,4|0
436,224,47525,5,8
288,132,47687,2,0,B|204:128|128:64|124:8,1,220
212,36,48174,2,0,B|156:120|48:84|48:64,1,165,8|0
56,124,48498,38,0,B|24:240,1,110,0|0
180,344,48823,2,0,B|144:232,1,110,8|0
276,116,49147,2,0,B|296:248,1,110,0|0
372,360,49471,2,0,B|452:264,1,110,8|0
504,188,49796,5,0
442,275,49958,1,0
372,360,50120,1,8
264,336,50282,1,0
152,312,50444,2,0,B|45:289,1,110
45,289,50769,1,0
45,289,50931,1,0
32,160,51093,37,4
60,192,51174,1,0
100,200,51255,1,0
140,192,51336,1,0
168,160,51417,1,0
196,128,51498,1,0
236,120,51579,1,0
340,116,51742,2,0,B|400:104|456:128,1,110,8|0
444,248,52066,2,0,B|384:260|328:236,1,110,8|0
300,40,52390,22,0,B|348:20|416:22|474:33|513:74,1,220,4|8
484,324,52877,2,0,B|436:344|367:341|309:330|270:289,1,220,0|0
184,80,53363,2,0,B|140:44|56:40|16:76,1,165,8|0
0,92,53687,1,4
184,80,53850,1,0
70,248,54012,1,8
232,160,54175,1,0
206,356,54336,2,0,B|256:392|324:372,1,110
473,220,54660,2,0,B|452:248|352:244|316:208,1,165,8|0
352,164,54985,6,0,B|412:148|468:172,1,110,4|0
295,58,55309,1,8
36,180,55471,2,0,B|74:225|206:213|234:157,1,220
472,220,55958,2,0,B|428:188|320:220|340:292,1,165,8|0
340,308,56282,1,4
232,160,56444,1,0
151,327,56606,2,0,B|108:356|20:344|-4:296,1,165,8|0
0,264,56931,1,0
152,328,57093,1,0
232,160,57255,1,8
340,308,57417,1,0
340,308,57498,1,0
340,308,57579,38,0,B|404:304|484:240|500:160,1,220,4|8
232,160,58066,1,0
296,72,58228,2,0,B|254:101|235:141|227:180,1,110
497,171,58552,2,0,B|524:116|516:24|484:-8,1,165
497,11,58877,1,4
296,72,59039,1,0
398,33,59201,2,0,B|424:88|396:140,1,110,8|0
288,160,59525,1,0
497,171,59687,1,0
256,244,59849,1,8
449,326,60011,1,0
195,312,60174,6,0,B|160:260|22:267|0:320,1,220,4|8
256,244,60660,1,0
256,244,60742,1,0
256,244,60823,2,0,B|340:256|380:224,1,110
120,136,61147,1,8
76,128,61228,1,0
32,140,61309,1,0
228,24,61471,2,0,B|284:-16|424:-12|456:44,1,220,4|8
504,60,61958,5,0
424,100,62120,2,0,B|472:128|488:192,1,110
496,220,62363,1,0
488,252,62444,1,0
460,272,62525,1,0
428,276,62606,1,0
400,264,62687,1,0
380,236,62769,22,0,B|356:200|280:176|200:188|168:232,1,220,4|8
40,352,63255,2,0,B|61:384|141:396|217:372|241:336,1,220,0|0
32,224,63742,2,0,B|68:176|156:184|178:221,1,165,8|0
156,248,64066,1,4
376,300,64228,1,0
232,144,64390,1,8
432,252,64552,1,0
334,67,64715,2,0,B|388:40|460:56,1,110
499,223,65039,1,8
499,223,65120,1,0
499,223,65201,1,0
376,300,65363,6,0,B|444:300|468:372,1,110,4|0
499,223,65687,1,8
272,268,65850,2,0,B|140:308|40:248,1,220
76,72,66336,2,0,B|208:32|308:92,1,220
324,368,66823,1,0
392,272,66985,2,0,B|444:288|504:272,1,110
512,144,67309,1,4
434,5,67472,1,0
428,164,67633,1,8
292,83,67796,1,0
352,200,67958,38,0,B|280:232|236:320|256:404,1,220,4|8
4,132,68444,2,0,B|44:96|140:120|140:184,1,165
192,216,68769,2,0,B|228:264|304:260|328:240,1,110,0|8
290,253,69012,1,0
290,253,69093,1,0
440,352,69255,2,0,B|376:328|284:356,1,110
140,172,69579,1,8
67,286,69741,1,0
239,210,69903,1,0
242,346,70065,1,0
347,189,70228,1,8
427,298,70390,1,0
444,156,70552,6,0,B|496:128|524:56|508:0,1,165,4|0
512,16,70877,1,8
348,188,71039,37,0
256,296,71201,1,0
60,320,71363,1,0
160,276,71525,6,0,B|199:189|433:160|410:426|260:485|102:437|41:204|280:144|374:248|221:182|242:121|275:96,1,577.500022029878,8|8
257,130,72742,1,0
257,130,72823,1,8
257,130,72904,1,0
257,130,72985,1,0
257,130,73066,1,0
257,130,73147,5,4
24,192,73471,5,2
488,192,73796,1,2
24,192,74120,1,2
488,192,74445,1,2
24,192,74769,1,2
488,192,75093,2,0,B|312:180,1,165,2|0
456,236,75742,38,0,B|340:228,2,110,4|0|8
296,140,76228,2,0,B|236:172|236:260|256:320|324:344,1,220,8|0
336,340,76633,1,0
380,348,76715,1,8
456,236,76877,5,8
456,236,77201,1,0
388,180,77363,2,0,B|327:163|328:96,1,110,8|0
320,4,77687,1,0
320,4,77850,37,0
236,108,78012,2,0,B|224:168|168:192,1,110,8|8
104,72,78336,1,0
104,72,78660,1,8
40,188,78823,2,0,B|80:352,1,165,8|0
124,352,79147,2,0,B|92:219,1,110,0|8
152,176,79471,5,8
152,176,79633,2,0,B|216:124|216:124|256:108|256:108|332:48,1,220,8|0
330,49,80120,1,8
330,49,80282,1,8
464,352,80606,38,0,B|448:292|376:292,1,110,8|0
300,260,80931,2,0,B|234:260|218:200,1,110,4|0
160,136,81255,2,0,B|144:76|72:76,2,110,8|8|0
64,192,81742,5,0
220,36,81904,1,8
440,40,82066,2,0,B|456:148,1,110,8|8
464,192,82309,1,0
472,236,82390,2,0,B|488:344,1,110,0|8
488,344,82877,1,0
320,324,83201,38,0,B|200:340,1,110,8|8
120,252,83525,2,0,B|240:236,1,110,0|0
272,232,83769,1,0
316,224,83850,2,0,B|352:176|336:120,1,110,8|0
308,36,84174,1,0
256,104,84336,1,8
256,104,84498,2,0,B|200:156|96:136|72:60,1,220,8|0
64,328,85147,1,0
64,328,85309,5,8
96,244,85471,1,8
176,208,85633,1,0
264,204,85796,2,0,B|328:268|420:232,1,165,8|0
456,212,86120,38,0,B|436:276|496:320,1,110,4|0
512,144,86444,2,8,B|532:80|472:36,1,110,8|8
432,116,86769,1,0
344,128,86931,1,0
264,100,87093,2,0,B|284:40|284:40|232:56,1,110,8|8
168,104,87417,5,0
116,176,87579,2,0,B|72:220|88:288,1,110,0|8
136,348,87904,2,2,B|224:332|224:332|248:340|248:340|352:320,1,220,2|0
364,232,88390,38,0,B|244:255,1,110,8|8
392,128,88715,2,0,B|452:148|488:236|448:320,1,220,0|8
364,232,89201,2,0,B|304:212|268:124|308:40,1,220,8|0
306,43,89687,1,8
252,116,89850,2,0,B|216:160|144:144,1,110
68,116,90174,6,0,B|18:88|21:14,1,110,0|8
84,208,90498,2,0,B|152:224|160:296|136:368|64:360,1,220,2|0
64,284,90985,2,0,B|196:300,1,110,8|8
240,240,91309,38,0,B|216:184|248:132,1,110,4|0
348,92,91633,1,8
348,92,91796,2,0,B|292:160|188:128|176:52,1,220,8|0
268,44,92282,1,8
348,92,92444,6,0,B|448:136,1,110,8|0
240,240,92769,2,0,B|140:196,1,110,0|8
112,112,93093,2,2,B|56:88|56:88|80:140|80:196|16:236,1,220,2|0
60,308,93579,2,0,B|116:284|136:228,1,110,8|8
36,40,93904,38,0,B|48:96|112:112,1,110,4|8
188,160,94228,2,0,B|216:96|312:64|380:100,1,220,8|0
408,180,94715,1,0
408,180,94877,2,0,B|444:240|424:340|348:368,2,220,8|8|8
104,204,95850,2,0,B|68:144|88:44|164:16,2,220,8|8|8
256,296,96823,5,8
204,128,97147,1,8
344,232,97471,1,8
256,204,97633,1,0
168,232,97796,1,8
256,204,97958,1,8
308,128,98120,1,8
324,40,98282,38,0,B|364:84|432:64,2,110,0|8|0
184,100,98769,2,0,B|144:144|76:124,1,110,8|0
292,160,99093,6,0,B|372:368,1,220,4|0
192,144,99579,2,0,B|272:352,1,220,4|0
88,128,100066,2,0,B|168:336,1,220,4|0
68,308,100552,1,0
192,144,100715,1,8
392,88,100877,1,8
348,168,101039,38,0,B|308:212|328:272,1,110
405,340,101363,2,0,B|386:283|324:270,1,110,8|8
230,305,101687,2,0,B|288:317|330:270,1,110,4|0
328,271,102012,1,8
260,216,102174,2,0,B|176:140,1,110,8|0
168,56,102498,6,0,B|157:114|91:123,1,110,0|8
260,216,102823,2,0,B|260:156|344:84|448:112,1,220,8|0
340,92,103309,2,0,B|280:80|264:20,2,110,8|8|0
408,256,103958,1,8
408,256,104120,1,8
260,216,104282,38,0,B|228:328,1,110,12|0
164,272,104606,2,0,B|132:384,1,110,8|0
112,160,104931,2,8,B|80:272,1,110,8|0
216,88,105255,2,0,B|184:200,1,110,8|0
164,272,105579,5,8
192,304,105660,1,8
232,324,105742,1,8
276,332,105823,1,8
320,332,105904,1,8
364,324,105985,1,8
392,288,106066,38,0,B|378:225|430:193,1,110,4|8
510,161,106390,1,0
304,64,106552,1,0
88,100,106715,1,0
56,312,106877,22,0,B|64:240|188:200|240:256,1,220,4|0
432,308,107363,2,0,B|388:264|404:204,1,110
408,164,107606,1,0
424,124,107687,2,0,B|450:67|512:62,2,110
292,252,108174,6,0,B|265:308|203:313,1,110
120,320,108498,1,8
60,184,108660,1,0
124,44,108823,2,0,B|128:116|216:160|296:132,1,220,0|8
400,112,109309,1,0
472,32,109471,37,4
364,208,109633,2,0,B|376:268|440:276,1,110,0|8
293,132,109958,2,0,B|248:192|272:276|304:296,1,165
256,304,110282,2,0,B|148:328,1,110,0|8
36,348,110606,1,0
44,108,110769,5,0
208,44,110931,1,0
156,216,111093,2,0,B|208:244|208:244|256:232,1,110,8|0
440,48,111417,1,0
360,88,111579,1,0
320,168,111742,2,0,B|348:220|348:220|336:276,1,110,8|0
36,360,112066,38,0,B|64:284|169:254|224:284,1,220,4|8
415,197,112552,2,0,B|395:253|339:269,1,110
360,88,112877,2,0,B|380:32|436:16,1,110,0|8
448,104,113201,1,0
320,168,113363,5,0
176,180,113525,1,0
36,40,113687,2,0,B|92:76|92:76|28:112|44:212,1,220,8|0
120,376,114174,2,0,B|68:356|56:284,1,110,0|8
176,180,114498,38,0,B|136:228|160:288,2,110,0|4|0
440,224,114985,2,0,B|424:296|316:324|248:296,1,220,8|0
176,180,115471,2,0,B|200:68,1,110,0|8
344,64,115796,2,0,B|320:176,1,110
312,216,116039,1,0
300,260,116120,2,0,B|276:372,1,110,0|8
60,260,116444,6,0,B|88:312|152:320,1,110,0|8
176,180,116769,1,0
260,92,116931,1,8
300,72,117012,1,0
344,64,117093,1,0
388,72,117174,1,0
428,88,117255,38,0,B|456:148|456:148|460:188|460:188|488:244,1,165,4|0
452,268,117579,2,0,B|356:340,1,110
312,212,117904,2,0,B|216:284,1,110
96,248,118228,2,0,B|144:208|144:208|108:120|168:56,1,220,8|0
428,88,118715,5,0
340,184,118877,1,8
388,316,119039,1,0
476,220,119201,2,0,B|452:176|452:176|460:144|492:152|492:152|476:184,1,110
240,148,119525,2,0,B|144:152|108:64,1,165,8|0
80,152,119850,38,0,B|44:264,1,110,8|0
232,336,120174,1,8
232,336,120255,1,0
232,336,120336,2,0,B|244:276|304:264,1,110
484,152,120660,2,0,B|424:168|380:120,1,110,0|8
336,48,120985,1,0
284,140,121147,5,0
232,336,121309,1,0
48,248,121471,2,0,B|92:200|160:240|216:192,1,165,8|0
288,232,121796,2,0,B|308:292|376:292,1,110
484,152,122120,2,0,B|464:92|396:92,1,110,8|0
88,106,122444,38,0,B|120:166|236:190|308:122,1,220,4|8
480,340,122931,2,0,B|448:280|332:256|260:324,1,220,0|0
152,312,123417,1,8
112,292,123498,1,0
100,248,123579,1,0
112,204,123660,1,0
152,188,123742,6,0,B|200:156|192:92,1,110,4|0
360,196,124066,2,0,B|312:228|320:292,1,110,8|0
192,92,124390,2,0,B|88:56,1,110
319,291,124715,2,0,B|424:328,1,110,8|0
280,168,125039,38,0,B|196:172|148:284|216:368,1,220,4|8
164,304,125444,1,0
136,272,125525,1,0
92,260,125606,1,0
48,260,125687,2,0,B|8:320|8:320|32:360,1,110
196,160,126012,6,0,B|177:238|276:288|318:273|412:238|394:155|384:82|324:56|232:74|240:96|240:96|200:56|148:72|148:72|88:72|60:20,1,660.000025177003,8|2
88,192,127633,6,0,B|80:268|144:340|224:340,1,220,4|8
308,332,128120,1,0
388,296,128282,2,0,B|432:256|496:272,2,110,0|0|8
452,132,128931,6,0,B|368:160|272:88|284:12,1,220,0|8
288,124,129417,2,0,B|272:184|208:192,1,110
124,208,129742,2,0,B|64:224|25:172,1,110,0|8
188,276,130228,38,0,B|280:260|328:336|328:336|348:308|384:328,1,220,4|8
452,372,130715,1,0
448,284,130877,2,0,B|424:228|444:176,1,110
376,32,131201,2,0,B|400:88|380:140,1,110,8|0
324,208,131525,6,0,B|216:172,1,110
80,224,131850,2,0,B|188:260,1,110,8|0
268,288,132174,1,0
352,316,132336,1,0
436,348,132498,2,0,B|408:272|440:212|440:212|436:264|472:268,1,165,8|0
396,228,132823,38,0,B|320:224|256:152|284:60,1,220,4|8
340,144,133309,2,0,B|284:188|224:168,1,110
144,152,133633,2,0,B|40:96,2,110,0|8|0
136,260,134120,6,0,B|240:316,2,110,0|0|8
144,152,134606,1,0
208,64,134769,1,0
316,36,134931,1,0
424,44,135093,2,0,B|488:56|508:124,1,110,8|0
316,36,135417,38,0,B|368:92|348:200|276:220,1,220,4|8
376,172,135904,2,0,B|428:140|484:172,2,110
328,288,136390,2,0,B|276:320|220:288,1,110,8|0
124,244,136715,6,0,B|91:252|63:184|103:116|203:124|207:192,1,220,0|8
240,80,137201,2,0,B|188:44|128:56,2,110,0|8|8
328,144,137687,2,0,B|380:180|440:168,1,110,8|0
400,64,138012,38,0,B|348:280,1,220,4|8
224,320,138498,2,0,B|184:284|220:236|268:256|276:292,1,110
308,348,138823,1,0
108,320,138985,2,0,B|88:248|144:144|232:160,1,220,8|0
300,172,139471,6,0,B|248:152|248:152|260:88,2,110,0|8|0
384,200,139958,2,0,B|440:224|440:224|368:272|396:384,1,220,0|8
224,320,140606,38,0,B|200:256|60:264|44:344,1,220,4|8
28,232,141093,1,0
88,168,141255,2,0,B|152:180|192:132,1,110
216,52,141579,2,0,B|152:40|112:88,1,110,8|0
188,136,141904,6,0,B|200:220|304:256|376:216,1,220,0|8
488,104,142552,2,0,B|476:20|372:-16|300:24,1,220,0|8
332,124,143201,37,4
468,268,153255,5,0
468,268,153336,1,0
468,268,153417,1,0
468,268,153498,1,0
468,268,153579,38,0,B|368:296|300:200|320:144,1,220,4|8
416,180,154066,2,0,B|288:368,1,220
216,296,154552,2,0,B|164:252|72:256|36:284,1,165,8|0
40,284,154877,1,0
124,336,155039,6,0,B|152:196,2,110,0|8|0
145,228,155525,1,0
164,144,155687,1,0
182,59,155850,37,8
81,170,156012,1,0
268,48,156174,2,0,B|324:84|424:84|492:40,1,220,4|8
508,248,156660,6,0,B|452:212|352:212|284:256,1,220,0|0
232,304,157147,1,8
364,284,157309,2,0,B|308:300|240:236|278:166,1,165
276,148,157633,2,0,B|292:84|272:24,1,110,0|8
112,96,157958,2,0,B|96:152|111:205,1,110,0|0
192,260,158282,38,0,B|208:196|188:136,1,110,0|8
28,208,158607,2,0,B|15:249|27:317,1,110,0|4
388,256,159092,6,0,B|364:196|392:112|460:64|460:64|436:100|428:184|472:188,1,330,8|8
512,228,159741,37,8
356,56,159903,2,0,B|272:128|300:272,1,220,0|0
447,170,160389,5,8
216,204,160552,2,0,B|208:140|244:76,1,110
232,96,161039,38,0,B|2:164,2,220,8|4|8
2,252,161850,2,0,B|158:205,1,110
107,220,162174,1,0
232,96,162336,2,0,B|216:52|276:16|336:16|360:60,1,165,8|0
384,60,162660,5,0
412,76,162742,1,0
424,108,162823,1,0
424,140,162904,1,0
408,168,162985,1,0
384,192,163066,1,0
372,224,163147,1,0
376,256,163228,1,0
396,284,163309,37,0
364,320,163390,1,0
312,332,163471,1,0
252,324,163552,1,0
200,288,163633,1,8
180,220,163715,1,8
196,144,163796,1,8
184,64,163877,1,8
120,4,163958,5,12
120,4,164444,1,2
152,176,164606,2,0,B|132:236|156:304,1,110
360,340,164931,2,0,B|380:280|356:212,1,110,8|0
60,176,165255,6,0,B|52:128|120:76|200:72|244:132,1,220,4|8
362,231,165742,2,0,B|388:284|520:252|504:192,1,165
512,172,166066,1,0
388,72,166228,2,0,B|216:120,1,165
180,132,166552,1,0
388,72,166715,1,0
152,180,166877,1,8
362,232,167040,1,0
108,216,167201,2,0,B|104:268|8:296|-32:256,1,165
4,188,167525,2,0,B|68:216|80:348|40:388,1,220,8|4
263,366,168174,5,8
362,232,168336,2,0,B|372:188|468:144|512:168,1,165
499,163,168660,1,0
400,40,168823,2,0,B|364:84|224:84|188:36,1,220,8|0
11,165,169309,1,0
264,0,169471,2,0,B|288:44|264:112|208:148|148:104,1,165,8|0
194,43,169796,1,0
12,164,169958,1,0
264,92,170120,1,8
220,306,170282,1,0
348,116,170444,38,0,B|472:304,1,220,4|8
220,306,170931,2,0,B|164:352|40:324|36:248,1,220
168,228,171417,2,0,B|216:192|312:224|316:300,1,165,8|0
308,268,171742,1,0
468,300,171904,1,0
256,192,172066,2,0,B|288:136|264:72,1,110,8|0
168,228,172390,1,0
308,268,172552,1,0
139,158,172715,1,8
268,88,172877,1,0
100,92,173039,6,0,B|72:44|12:28,1,110,4|0
13,28,173282,1,0
13,28,173363,1,8
60,200,173525,2,0,B|104:316|72:388|0:328|48:284,1,220
168,228,174012,2,0,B|232:172|352:208,1,165,8|0
356,212,174336,5,0
380,232,174417,1,0
392,264,174498,1,0
392,296,174579,1,0
380,328,174660,1,0
356,348,174741,1,0
328,356,174823,1,0
300,348,174904,1,0
276,328,174985,1,0
264,296,175066,1,0
264,264,175147,1,0
276,232,175228,1,0
300,212,175309,2,0,B|324:184|340:140|324:92,1,110
232,32,175633,22,0,B|168:48|116:184|192:252,1,220,4|8
396,288,176120,2,0,B|460:272|512:136|436:68,1,220,0|0
248,264,176606,2,0,B|233:316|121:332|93:276,1,165,8|0
166,219,176931,1,0
396,288,177093,1,0
244,172,177255,2,0,B|268:108|232:60,1,110,8|0
236,66,177498,1,0
236,66,177579,1,0
172,124,177742,1,8
382,10,177904,1,8
92,156,178066,1,0
92,156,178147,1,0
92,156,178228,6,0,B|28:168|-16:248|4:308,1,165,4|0
0,276,178552,2,0,B|-16:320|-12:376|12:404,1,110,8|0
68,328,178877,1,0
92,156,179039,1,0
68,328,179201,2,0,B|116:380|184:380|268:352|280:292,1,220,8|0
300,152,179687,1,0
344,320,179850,2,0,B|364:352|420:344|420:344|436:376|492:384,1,165,8|0
504,352,180174,1,0
504,132,180336,1,0
342,322,180498,1,8
452,132,180660,1,0
212,224,180823,38,0,B|402:114,1,220,4|8
140,157,181309,2,0,B|215:90|357:134|377:205,1,275
404,112,181796,2,0,B|432:68|502:48,2,110,8|0|0
492,51,182282,1,0
376,203,182444,1,8
286,32,182606,1,0
296,224,182768,1,0
96,131,182931,1,0
228,272,183093,1,8
0,324,183255,1,0
192,348,183417,6,0,B|232:388|312:392|392:368|400:312,1,220,4|8
504,136,183904,2,0,B|464:96|384:92|304:116|296:172,1,220,0|0
144,276,184390,2,0,B|112:320|8:304|-16:256|8:216,1,165,8|0
0,184,184715,1,0
144,276,184877,1,0
304,149,185039,2,0,B|376:132|404:44|388:0,1,165,8|0
392,23,185363,1,0
392,23,185444,1,0
392,23,185525,1,0
392,23,185606,1,0
392,23,185687,1,0
428,36,185769,1,0
456,52,185850,1,0
476,80,185931,1,0
484,104,186012,38,0,B|508:172|468:296|368:312,1,220,4|8
124,248,186498,2,0,B|204:272|204:272|308:392,1,220
300,204,186985,2,0,B|292:260|360:308|420:295,1,165,8|0
472,280,187309,1,0
204,180,187471,2,0,B|88:180,1,110,0|8
0,112,187796,1,0
204,180,187958,1,0
17,241,188120,1,0
232,236,188282,1,8
75,354,188444,1,0
475,279,188606,6,0,B|424:332|320:328|276:276,1,220,4|8
88,72,189093,2,0,B|139:19|243:23|287:75,1,220,0|0
396,272,189579,2,0,B|312:240|236:276,1,165,8|0
196,304,189904,1,0
396,272,190066,1,0
132,248,190228,1,8
251,83,190390,1,0
48,224,190552,1,0
16,23,190714,1,0
20,57,190796,1,0
24,91,190877,1,0
31,125,190958,1,0
36,160,191039,1,0
42,194,191120,1,0
48,228,191201,38,0,B|26:287|127:402|301:379|458:278|539:-240|223:-240|-246:195|168:448|361:195|444:53|553:67|539:209|631:421|393:462|287:370|292:288|328:232,1,1154.99996557832,4|8
256,192,193796,12,4,196390
