osu file format v9

[General]
AudioFilename: 01 Flash B ack.mp3
AudioLeadIn: 0
PreviewTime: 106066
Countdown: 0
SampleSet: Soft
StackLeniency: 0.7
Mode: 0
LetterboxInBreaks: 1

[Editor]
Bookmarks: 10553,21255,75742,143201,153580
DistanceSpacing: 0.9
BeatDivisor: 4
GridSize: 4

[Metadata]
Title:FlashBack
Artist:Akiakane
Creator:Kiiwa
Version:Hard
Source:
Tags:J-Pop Beren Collaboration Collab Boroboro na Ikizama niki NicoNicoDouga toysfactory

[Difficulty]
HPDrainRate:6
CircleSize:4
OverallDifficulty:6
ApproachRate:8
SliderMultiplier:1.8
SliderTickRate:2

[Events]
//Background and Video events
0,0,"flashbackBG.jpg"
Video,-1000,"Flashback-Video.flv"
//Break Periods
2,10877,19856
2,143401,152505
//Storyboard Layer 0 (Background)
//Storyboard Layer 1 (Fail)
//Storyboard Layer 2 (Pass)
//Storyboard Layer 3 (Foreground)
//Storyboard Sound Samples
//Background Colour Transformations
3,100,163,162,255

[TimingPoints]
5688,324.324324324324,4,2,1,60,1,0
10552,-100,4,1,1,60,0,0
21255,-100,4,2,1,60,0,0
21904,-100,4,1,0,40,0,0
22228,-100,4,2,1,60,0,0
23201,-100,4,1,0,40,0,0
23363,-100,4,2,1,60,0,0
24498,-100,4,1,0,40,0,0
24823,-100,4,2,1,60,0,0
28390,-100,4,1,0,40,0,0
28552,-100,4,2,1,60,0,0
29687,-100,4,1,0,40,0,0
30012,-100,4,2,1,60,0,0
32282,-100,4,1,0,40,0,0
32606,-100,4,2,1,60,0,0
33579,-100,4,1,0,40,0,0
34228,-100,4,2,1,60,0,0
34877,-100,4,1,0,40,0,0
35525,-100,4,2,1,60,0,0
37471,-100,4,1,0,40,0,0
38120,-100,4,2,1,60,0,0
38769,-100,4,1,0,40,0,0
39093,-100,4,2,1,60,0,0
40066,-100,4,1,0,40,0,0
41039,-100,4,2,1,60,0,0
41363,-100,4,1,0,40,0,0
42012,-100,4,2,1,60,0,0
43309,-100,4,1,0,40,0,0
43633,-100,4,2,1,60,0,0
45904,-100,4,1,0,40,0,0
46228,-100,4,2,1,60,0,0
46552,-100,4,2,0,40,0,0
46877,-100,4,2,0,50,0,0
47201,-100,4,2,1,60,0,0
48498,-100,4,1,0,40,0,0
48823,-100,4,2,1,60,0,0
49796,-100,4,1,0,30,0,0
50769,-100,4,2,1,60,0,0
50931,-100,4,1,1,50,0,0
52390,-100,4,2,1,80,0,1
52552,-100,4,1,1,60,0,1
54985,-100,4,2,1,80,0,1
55147,-100,4,1,1,60,0,1
57579,-100,4,2,1,80,0,1
57742,-100,4,1,1,60,0,1
60174,-100,4,2,1,80,0,1
60336,-100,4,1,1,60,0,1
62120,-100,4,1,1,50,0,0
62445,-100,4,1,1,50,0,0
62769,-100,4,2,0,80,0,1
62931,-100,4,1,1,60,0,1
65363,-100,4,2,0,80,0,1
65525,-100,4,1,1,60,0,1
67958,-100,4,2,0,80,0,1
68120,-100,4,1,1,60,0,1
70552,-100,4,2,0,80,0,1
70715,-100,4,1,1,60,0,1
71525,-133.333333333333,4,1,1,60,0,1
73147,-200,4,2,0,20,0,0
73796,-200,4,2,0,15,0,0
74120,-200,4,2,0,20,0,0
74444,-200,4,2,0,15,0,0
74769,-200,4,2,0,20,0,0
75093,-200,4,2,0,15,0,0
75742,-100,4,2,1,60,0,0
87904,-100,4,1,1,30,0,0
87985,-100,4,2,1,60,0,0
90498,-100,4,1,1,30,0,0
90579,-100,4,2,1,60,0,0
93093,-100,4,1,1,30,0,0
93174,-100,4,2,1,60,0,0
99093,-100,4,1,1,60,0,0
99255,-100,4,2,1,60,0,0
99579,-100,4,1,1,60,0,0
99742,-100,4,2,1,60,0,0
100066,-100,4,1,1,60,0,0
100228,-100,4,2,1,60,0,0
105579,-100,4,2,1,80,0,0
106228,-100,4,1,1,50,0,0
106877,-100,4,1,1,80,0,1
109471,-100,4,2,1,80,0,1
109552,-100,4,1,1,80,0,1
112066,-100,4,2,1,80,0,1
112147,-100,4,1,1,80,0,1
114660,-100,4,2,1,80,0,1
114742,-100,4,1,1,80,0,1
116607,-100,4,1,1,50,0,0
116931,-100,4,1,1,50,0,0
117255,-100,4,1,1,80,0,1
119850,-100,4,2,1,80,0,1
119931,-100,4,1,1,80,0,1
122444,-100,4,2,1,80,0,1
122525,-100,4,1,1,80,0,1
125039,-100,4,2,1,80,0,1
125120,-100,4,1,1,80,0,1
126093,-100,4,2,1,10,0,1
126985,-100,4,2,1,10,0,0
127471,-100,4,2,1,50,0,0
153255,-100,4,1,0,40,0,0
153579,-100,4,2,1,60,0,0
162660,-100,4,1,0,40,0,0
163309,-100,4,1,1,60,0,0
163958,-100,4,2,1,50,0,0
165255,-100,4,2,0,80,0,1
165336,-100,4,1,1,60,0,1
167850,-100,4,2,0,60,0,1
168012,-100,4,1,1,60,0,1
170444,-100,4,2,0,60,0,1
170525,-100,4,1,1,60,0,1
173039,-100,4,2,0,60,0,1
173201,-100,4,1,1,60,0,1
174985,-100,4,1,1,50,0,0
175309,-100,4,1,0,40,0,0
175634,-100,4,2,0,80,0,1
175796,-100,4,1,1,60,0,1
178228,-100,4,2,0,60,0,1
178390,-100,4,1,1,60,0,1
180823,-100,4,2,0,60,0,1
180985,-100,4,1,1,60,0,1
183417,-100,4,2,0,60,0,1
183579,-100,4,1,1,60,0,1
186012,-100,4,2,0,60,0,1
186174,-100,4,1,1,60,0,1
188606,-100,4,2,0,60,0,1
188769,-100,4,1,1,60,0,1
190553,-100,4,1,0,60,0,0
190877,-100,4,1,0,50,0,0
191201,-100,4,2,0,80,0,1
191363,-100,4,2,1,60,0,1
196390,-100,4,2,0,50,0,0

[Colours]
Combo1 : 6,61,249
Combo2 : 152,92,126
Combo3 : 87,122,157
Combo4 : 236,9,105

[HitObjects]
256,192,5687,12,8,10390
256,192,10552,5,8
448,264,20606,6,0,B|440:188,4,45
360,56,21255,38,0,B|312:20|208:44|204:96,1,180,4|8
204,91,21742,1,0
268,152,21904,2,0,B|224:204|128:176|124:112,1,180,0|8
72,48,22390,1,0
40,132,22552,6,0,B|8:232,3,90,0|0|8|0
72,284,23201,2,0,B|128:104,1,180,0|8
44,364,23850,37,0
172,352,24174,1,8
300,340,24498,1,0
428,328,24823,1,8
484,156,25471,6,0,B|460:124|372:124|360:172,1,135,8|0
344,188,25796,2,0,B|332:248|212:288|140:204|156:140,1,270
184,68,26444,37,6
154,148,26606,1,0
88,204,26769,2,0,B|44:228|-20:212,1,90,8|2
32,128,27093,1,0
0,216,27255,1,0
60,296,27417,2,0,B|84:388,1,90,10|0
204,384,27742,6,0,B|176:296,2,90,0|0|8
224,180,28390,2,0,B|277:351,1,180,0|8
196,100,29039,37,0
280,172,29363,1,8
364,244,29687,1,0
448,316,30012,1,8
272,352,30660,6,0,B|168:360,1,90,8|0
100,360,30985,1,10
100,360,31309,1,8
110,195,31633,37,4
175,106,31958,1,8
222,206,32282,1,0
95,202,32931,5,4
176,89,33256,1,8
234,215,33580,1,0
77,210,34228,37,4
178,70,34553,1,8
251,227,34877,1,0
54,220,35525,5,4
180,45,35850,1,8
271,241,36174,1,0
398,66,36498,2,0,B|480:144,1,90,8|0
380,181,36823,37,4
276,116,37147,1,8
180,45,37471,1,0
408,144,38120,5,4
276,116,38444,1,8
150,78,38768,1,0
423,95,39417,37,4
276,116,39741,1,8
132,124,40065,1,0
100,260,40390,2,0,B|76:300|28:308,1,90,0|0
16,240,40715,2,0,B|56:220|124:272|108:376|48:376,1,180
188,292,41201,5,8
248,368,41363,2,0,B|432:364,1,180,0|0
504,200,42012,38,0,B|448:208|372:156|364:68|416:4|444:0,1,270,4|0
356,52,42660,2,0,B|292:112|292:112|176:96,1,180,0|8
120,100,43147,2,0,B|64:88|24:128,1,90
35,118,43633,5,8
72,196,43796,1,0
108,272,43958,2,0,B|152:376,2,90,0|0|8
272,376,44606,38,0,B|280:320|396:288|480:316|508:372,2,270,4|0|8
376,272,45904,2,0,B|368:168,1,90
408,104,46228,1,8
369,182,46390,1,0
284,208,46552,2,0,B|232:244|144:200|160:132,1,180,4|4
212,64,47039,1,0
232,152,47201,6,0,B|132:316,3,180,4|8|0|8
138,305,48336,1,0
92,376,48498,2,0,B|32:384|-28:300|16:228,1,180,0|8
20,168,48985,2,0,B|32:116|64:92,1,90
64,91,49471,1,8
240,36,49796,38,0,B|276:144,2,90,0|0|0
336,52,50282,2,0,B|396:148,2,90,0|0|0
424,32,50769,2,0,B|496:96,2,90,8|0|4
452,368,51579,5,0
384,316,51742,2,0,B|416:280|484:280|516:312,2,135
304,352,52390,6,0,B|248:376|152:348|148:272,1,180,4|0
80,344,52877,2,0,B|40:180|40:180|96:92,1,270,0|8
156,32,53525,1,0
172,120,53687,2,0,B|120:200,3,90,0|0|8|0
160,272,54336,1,0
172,120,54660,1,8
297,206,54985,6,0,B|376:228|452:172|448:104,1,180,4|8
456,52,55471,2,0,B|444:132|444:132|488:328,1,270,0|8
320,328,56282,1,0
320,328,56444,1,0
228,312,56606,2,0,B|136:316,1,90,8|0
20,236,56931,2,0,B|109:232,3,90,0|0|8|0
108,144,57579,38,0,B|124:100|236:64|300:108,1,180,4|8
332,44,58066,2,0,B|408:4|408:4|428:128,1,180,0|0
436,180,58552,1,8
348,312,58877,2,0,B|404:288|492:320|504:368,1,180,0|8
276,352,59525,1,0
348,312,59687,1,0
332,232,59850,1,8
252,224,60012,1,0
212,296,60174,6,0,B|132:264|132:264|44:312,1,180,4|8
44,216,60660,2,0,B|72:168|64:64|12:48,1,180
96,88,61147,1,8
188,20,61309,1,0
268,100,61471,2,0,B|352:128|460:100,1,180,0|8
504,296,62120,6,0,B|436:204,1,90
408,316,62444,2,0,B|320:252,1,90,8|0
320,372,62769,22,0,B|136:332,1,180,4|8
60,364,63255,2,0,B|8:288|8:288|24:88,1,270,0|8
72,44,63904,1,0
120,116,64066,2,0,B|160:68|264:76|288:128,3,180,0|8|0|8
432,24,65363,6,0,B|428:224,1,180,4|8
500,244,65850,2,0,B|468:188|344:176|284:256|304:332,1,270,0|8
168,272,66660,1,0
156,360,66823,2,0,B|68:176,1,180
24,272,67309,38,0,B|65:351,3,90,0|0|8|0
156,360,67958,1,4
340,288,68282,2,0,B|250:288,1,90,8|0
392,376,68769,2,0,B|482:376,1,90,0|8
340,288,69255,5,0
236,224,69579,1,8
132,160,69904,1,0
28,96,70228,1,8
135,37,70552,38,0,B|208:-16|348:28|360:108,2,270,4|0|8
256,192,71687,12,2,73147
160,192,73471,21,2
352,192,73795,1,2
160,192,74120,1,2
352,192,74444,1,2
160,192,74769,1,2
352,192,75093,1,2
256,311,75417,2,0,B|256:356,1,45
256,356,75742,5,4
256,196,76066,2,0,B|264:248|304:272,1,90,8|0
352,192,76390,2,0,B|344:140|304:116,2,90,0|0|8
428,164,76877,2,0,B|444:224|380:284|316:264,1,180,8|0
240,240,77363,2,0,B|176:220|112:280|128:340,1,180,8|0
140,176,78012,38,0,B|168:140|164:92,1,90,0|8
84,112,78336,2,0,B|264:164,1,180,0|8
284,84,78823,2,0,B|404:120,1,90
488,224,79309,2,0,B|368:188,2,90,0|8|0
328,260,79958,1,8
328,260,80120,1,0
84,260,80606,6,0,B|84:308|124:336,1,90,0|8
164,264,80931,2,0,B|204:304|304:300|332:256,1,180,4|8
364,188,81417,2,0,B|384:144|440:140,1,90
436,220,81742,2,0,B|328:64,1,180,0|8
172,52,82390,1,0
172,52,82552,1,8
40,144,82877,1,0
76,300,83201,38,0,B|84:248|140:232,1,90,0|8
144,156,83525,2,0,B|200:156|240:228|196:296,1,180,0|8
356,272,84174,1,0
276,252,84336,1,0
204,220,84498,2,0,B|160:204|144:156,1,90,0|8
364,56,85147,1,8
364,56,85309,1,0
424,292,85796,6,0,B|428:240|468:216,1,90,0|8
392,184,86120,2,0,B|336:208|256:172|252:112,1,180,4|8
268,28,86606,2,0,B|280:76|248:120,1,90
112,192,87093,1,0
112,192,87255,1,8
160,348,87579,2,0,B|180:308|240:304,1,90,0|8
316,296,87904,38,0,B|372:280|444:308|472:364,1,180,2|0
452,284,88390,2,0,B|448:240|484:200,1,90,0|8
448,128,88715,2,0,B|392:144|356:232|372:296,1,180,0|8
292,296,89201,2,0,B|112:332,1,180
64,176,89850,2,0,B|80:224|132:232,1,90,8|0
144,152,90174,2,0,B|128:104|76:96,1,90,0|8
160,96,90498,6,0,B|216:120|308:80|320:32,1,180,2|0
296,120,90985,2,0,B|272:220,2,90,0|8|4
352,272,91633,2,0,B|376:172,1,90,8|0
373,184,92120,1,0
228,112,92444,2,0,B|192:168|96:160|64:116,1,180,8|0
16,60,92931,1,8
68,121,93093,38,0,B|188:272,1,180,2|0
256,228,93579,2,0,B|323:314,2,90,0|8|0
256,228,94228,1,8
204,164,94390,2,0,B|136:77,2,90
176,240,94877,6,0,B|136:192|40:200|20:312|68:364|140:352,1,270
196,364,95525,2,0,B|384:352,3,180,0|0|0|4
448,212,96823,37,8
400,56,97147,1,8
360,212,97471,1,0
284,240,97633,1,0
232,300,97796,1,8
212,380,97958,1,0
156,320,98120,6,0,B|96:240,1,90,8|0
172,208,98444,2,0,B|112:128,2,90
300,308,99093,38,0,B|344:348|432:352|480:304,1,180,4|0
504,244,99579,2,0,B|516:185|476:107|410:90,1,180,4|0
344,96,100066,2,0,B|287:114|239:188|257:253,2,180,4|0|8
184,132,101039,5,8
28,88,101363,1,8
56,248,101687,1,4
212,296,102012,2,0,B|256:308|284:360,1,90,8|0
308,192,102498,2,0,B|304:128|380:80|440:96,1,180,0|8
352,84,102985,38,0,B|304:80|280:32,2,90,0|0|8
404,236,103633,2,0,B|380:304|288:312|248:288,1,180
208,136,104282,6,0,B|160:312,1,180,12|0
116,152,104931,2,0,B|68:328,1,180,8|0
24,172,105579,2,0,B|-4:276,2,90,8|8|8
48,96,106066,38,0,B|72:56|136:60,2,90,4|0|0
24,172,106552,2,0,B|52:208|44:264,1,90,8|0
28,336,106877,22,0,B|208:296,1,180,4|8
216,216,107363,2,0,B|124:236,1,90
124,156,107687,2,0,B|216:136,1,90,0|8
108,76,108174,6,0,B|24:100|24:100|8:224,1,180,0|8
8,356,108823,2,0,B|92:332|92:332|108:208,1,180,0|8
216,124,109471,38,0,B|252:76|360:88|388:144,1,180,4|8
432,188,109958,1,0
352,204,110120,2,0,B|316:244|316:244|312:260|312:260|236:344,1,180,0|8
80,308,110769,5,0
32,240,110931,1,0
28,160,111093,1,8
148,52,111417,2,0,B|116:84|128:136,3,90,0|0|8|0
164,208,112066,38,0,B|192:264|296:264|332:240,1,180,4|8
260,136,112552,1,0
384,92,112715,2,0,B|388:144|444:160,1,90
464,80,113039,2,0,B|316:200,1,180,8|0
200,296,113687,1,8
52,232,114012,6,0,B|72:336,2,90
56,72,114660,2,0,B|80:144|160:156|216:128,1,180,4|8
280,100,115147,2,0,B|320:80|372:96,1,90
500,188,115633,2,0,B|444:232|348:216|316:172,2,180,8|0|8
432,140,116444,6,0,B|396:180|420:272|504:272,1,180
416,292,116931,2,0,B|320:336,1,90,8|0
252,328,117255,22,0,B|200:308|200:308|184:268|184:268|144:248|100:276,1,180,4|8
68,344,117742,2,0,B|124:300|112:196|76:164,1,180
24,128,118228,2,0,B|100:76,1,90,8|0
164,28,118552,6,0,B|172:88|172:88|268:160,1,180,0|8
396,260,119201,2,0,B|412:352,2,90,0|0|8
376,100,119850,38,0,B|340:148|240:128|224:64,1,180,4|8
248,148,120336,2,0,B|300:332,1,180
232,372,120823,2,0,B|207:282,1,90,8|0
176,212,121147,5,0
112,164,121309,1,0
32,160,121471,1,8
192,128,121796,2,0,B|240:124|272:84,3,90,0|0|8|0
332,36,122444,38,0,B|388:212,1,180,4|8
324,260,122931,2,0,B|268:84,1,180,0|0
188,100,123417,2,0,B|160:136|104:136,1,90,8|0
48,188,123742,6,0,B|-8:272|-8:272|32:276|60:320,1,180,0|8
208,368,124390,2,0,B|188:328|204:236|276:212,1,180,0|8
356,80,125039,38,0,B|348:144|420:216|492:200,1,180,4|8
384,200,125525,2,0,B|336:208|316:268,1,90
296,336,125850,1,0
296,336,126012,1,8
256,192,126093,12,0,127309
384,308,127633,22,0,B|332:288|332:288|296:156,1,180,4|8
164,76,128282,2,0,B|116:160,2,90,0|0|8
324,104,128931,2,0,B|344:148|448:160|488:112,1,180,0|8
356,216,129579,2,0,B|304:256|304:256|288:380,1,180,0|8
204,232,130228,6,0,B|176:284|176:284|124:316|52:280,2,180,4|8|0
204,68,131201,2,0,B|216:112|264:128,1,90,8|0
344,152,131525,2,0,B|404:168|432:268|404:328,1,180,0|8
464,148,132174,2,0,B|504:60,2,90,0|0|8
336,248,132823,38,0,B|168:340,1,180,4|8
36,260,133471,2,0,B|24:368,2,90,0|0|8
52,100,134120,2,0,B|96:128|96:128|132:72|208:64,1,180,0|8
364,64,134769,2,0,B|412:72|444:112,2,90,0|0|8
248,176,135417,6,0,B|256:236|172:288|108:264,1,180,4|8
268,336,136066,2,0,B|364:376,2,90,0|0|8
348,196,136715,2,0,B|472:68,1,180,0|8
316,96,137363,2,0,B|352:60,2,45
244,56,137687,2,0,B|280:20,2,45,8|0|0
244,136,138012,38,0,B|224:192|272:268|336:272,1,180,4|8
248,268,138498,1,0
168,296,138660,2,0,B|80:324,2,90,0|0|8
332,296,139309,2,0,B|352:240|440:216|492:248,1,180,0|8
336,184,139958,2,0,B|224:40,1,180,0|8
184,200,140606,6,0,B|72:56,1,180,4|8
72,220,141255,2,0,B|112:272|112:272|72:312|92:396,1,180,0|8
248,356,141904,2,0,B|332:324,1,90
316,244,142228,2,0,B|232:276,1,90,8|0
172,224,142552,2,0,B|108:208|96:116|132:72,1,180,0|8
130,74,143201,1,4
272,124,153255,37,0
232,300,153579,6,0,B|272:124,1,180,4|8
204,76,154066,2,0,B|248:20|352:52|352:116,1,180
396,168,154552,2,0,B|436:208|496:180,1,90,8|0
484,336,155039,37,0
412,272,155201,1,8
388,368,155363,2,0,B|360:336|252:324|208:376,1,180
219,364,155850,1,8
20,268,156174,6,0,B|80:236|80:236|68:92,1,180,4|8
56,48,156660,2,0,B|104:4|208:16|256:96|224:180,1,270,0|8
208,240,157309,2,0,B|180:296|236:364|340:360|368:296|360:240,1,270,0|8
392,180,157958,2,0,B|428:144|500:168,1,90
476,161,158444,1,8
400,48,158769,38,0,B|212:36,1,180,4|8
160,104,159255,1,0
92,44,159417,2,0,B|32:56|0:152|40:208,1,180,0|8
40,300,159904,5,0
120,196,160066,2,0,B|188:168|188:168|328:168,1,180,0|8
388,64,160552,37,0
488,184,160715,2,0,B|512:248|444:320|368:292,1,180,0|8
200,360,161363,6,0,B|136:320|36:348|32:384,1,180,4|8
24,280,161850,2,0,B|8:180,1,90
9,191,162336,1,8
96,64,162660,38,0,B|84:168,1,90
180,108,162985,2,0,B|213:207,1,90
284,120,163309,2,0,B|355:196,1,90
372,84,163634,2,0,B|469:122,1,90
456,24,163958,5,4
500,320,165255,6,0,B|416:272|320:304,1,180,4|8
248,332,165742,2,0,B|200:372|100:348|48:292|64:240|72:192,1,270,0|8
48,132,166390,1,0
68,214,166552,1,0
132,152,166715,1,0
216,124,166877,2,0,B|256:84|348:84|396:112,1,180,8|0
386,107,167525,1,8
500,228,167850,6,0,B|412:212|412:212|316:276,1,180,4|8
264,328,168336,2,0,B|192:380|192:380|12:348,1,270,0|8
44,256,168985,1,0
44,256,169147,2,0,B|148:276,2,90
96,104,169796,1,0
160,28,169958,1,0
192,116,170120,2,0,B|236:132|308:116,1,90,8|0
208,196,170444,38,0,B|252:152|336:132|404:164,1,180,4|8
472,208,170931,2,0,B|416:256|320:244|272:204|268:140|284:108,1,270,0|8
188,216,171742,2,0,B|204:252|197:305,2,90,0|0|8
116,336,172390,1,0
28,304,172552,1,0
108,248,172715,2,0,B|101:301|117:337,1,90,8|0
200,304,173039,6,0,B|280:272|388:312,1,180,4|8
448,352,173525,2,0,B|492:260|492:260|496:88,1,270,0|8
464,16,174174,1,0
416,96,174336,2,0,B|412:196,1,90
320,140,174660,2,0,B|342:237,1,90,8|0
268,288,174985,6,0,B|200:347,1,90,0|0
176,232,175309,2,0,B|133:311,1,90
40,344,175633,22,0,B|-4:288|0:192|40:164,1,180,4|8
80,100,176120,2,0,B|128:28|272:16|332:72,1,270,0|8
488,48,176931,1,0
416,124,177093,1,0
324,64,177255,2,0,B|272:100|184:96|152:56,2,180,8|0|8
68,40,178228,6,0,B|124:24|216:96|176:168,1,180,4|8
104,192,178715,2,0,B|108:260|108:260|316:296,1,270,0|8
480,248,179525,2,0,B|384:232,2,90,0|0|8
308,296,180174,1,0
391,233,180336,1,0
308,169,180498,1,8
391,105,180660,1,0
309,40,180823,38,0,B|272:0|172:12|152:64,1,180,4|8
120,144,181309,2,0,B|36:112,1,90
72,268,181796,1,8
168,228,181958,2,0,B|276:176,2,90
72,268,182444,1,8
152,320,182606,2,0,B|192:368|340:360|396:312|396:244,1,270,0|8
456,208,183255,1,0
476,304,183417,6,0,B|512:336|508:384,1,90,4|0
456,208,183742,1,8
388,280,183904,2,0,B|368:320|316:332,1,90
456,208,184228,1,0
360,196,184390,2,0,B|292:212|200:156|208:96,2,180,8|4|8
456,208,185201,1,0
408,120,185363,2,0,B|352:100|248:152|240:256|272:324,1,270
224,368,186012,38,0,B|108:388,1,90,4|0
261,293,186336,1,0
200,232,186498,2,0,B|84:252,1,90,0|0
252,160,186823,1,0
200,92,186985,2,0,B|-8:128,1,180,8|4
22,122,187471,1,0
56,32,187633,1,8
152,32,187796,6,0,B|192:8|244:28,1,90
312,36,188120,1,0
384,68,188282,2,0,B|440:100|456:204|424:252,1,180,8|4
384,68,188931,37,8
384,176,189093,2,0,B|400:236|344:320|272:316,1,180,8|0
192,296,189579,6,0,B|236:248|348:260|416:304|408:368,1,270
496,296,190228,1,0
492,188,190390,1,0
420,116,190552,5,0
360,208,190715,1,0
256,240,190877,1,0
152,208,191039,1,0
92,116,191202,1,4
256,192,191363,12,4,196390
