osu file format v9

[General]
AudioFilename: 01 Flash B ack.mp3
AudioLeadIn: 0
PreviewTime: 106066
Countdown: 0
SampleSet: Normal
StackLeniency: 0.7
Mode: 0
LetterboxInBreaks: 1

[Editor]
Bookmarks: 10553,21255,143201,153580
DistanceSpacing: 0.7
BeatDivisor: 4
GridSize: 4

[Metadata]
Title:FlashBack
Artist:Akiakane
Creator:Kiiwa
Version:Easy
Source:
Tags:J-Pop Beren Collaboration Collab Boroboro na Ikizama niki NicoNicoDouga toysfactory

[Difficulty]
HPDrainRate:2
CircleSize:3
OverallDifficulty:1
ApproachRate:2
SliderMultiplier:0.9
SliderTickRate:2

[Events]
//Background and Video events
0,0,"flashbackBG.jpg"
Video,-1000,"Flashback-Video.flv"
//Break Periods
2,10877,19695
2,75942,84560
2,143401,152019
//Storyboard Layer 0 (Background)
//Storyboard Layer 1 (Fail)
//Storyboard Layer 2 (Pass)
//Storyboard Layer 3 (Foreground)
//Storyboard Sound Samples
//Background Colour Transformations
3,100,163,162,255

[TimingPoints]
5688,324.324324324324,4,2,1,60,1,0
10552,-100,4,1,1,60,0,0
21255,-100,4,2,1,60,0,0
49796,-100,4,1,0,30,0,0
51093,-100,4,1,1,50,0,0
52390,-100,4,2,1,80,0,1
52552,-100,4,1,1,60,0,1
54985,-100,4,2,1,80,0,1
55147,-100,4,1,1,60,0,1
57579,-100,4,2,1,80,0,1
57742,-100,4,1,1,60,0,1
60174,-100,4,2,1,80,0,1
60336,-100,4,1,1,60,0,1
62120,-100,4,1,1,50,0,0
62769,-100,4,2,0,80,0,1
62931,-100,4,1,1,60,0,1
65363,-100,4,2,0,80,0,1
65525,-100,4,1,1,60,0,1
67958,-100,4,2,0,80,0,1
68120,-100,4,1,1,60,0,1
70552,-100,4,2,0,80,0,1
70715,-100,4,1,1,60,0,1
73147,-100,4,2,0,20,0,0
73796,-100,4,2,0,15,0,0
75093,-100,4,2,0,15,0,0
75742,-100,4,2,1,60,0,0
104282,-100,4,1,0,30,0,0
105579,-100,4,1,1,50,0,0
106877,-100,4,2,0,80,0,1
107039,-100,4,1,1,60,0,1
109471,-100,4,2,1,80,0,1
109552,-100,4,1,1,80,0,1
112066,-100,4,2,1,80,0,1
112147,-100,4,1,1,80,0,1
114660,-100,4,2,1,80,0,1
114742,-100,4,1,1,80,0,1
116607,-100,4,1,1,50,0,0
116931,-100,4,1,1,50,0,0
117255,-100,4,2,0,80,0,1
117417,-100,4,1,1,60,0,1
119850,-100,4,2,0,80,0,1
120012,-100,4,1,1,60,0,1
122444,-100,4,2,0,80,0,1
122606,-100,4,1,1,60,0,1
125039,-100,4,2,0,80,0,1
125201,-100,4,1,1,60,0,1
126985,-100,4,1,1,50,0,0
127634,-100,4,2,1,50,0,0
165255,-100,4,2,0,80,0,1
165336,-100,4,1,1,60,0,1
167850,-100,4,2,0,60,0,1
168012,-100,4,1,1,60,0,1
170444,-100,4,2,0,60,0,1
170525,-100,4,1,1,60,0,1
173039,-100,4,2,0,60,0,1
173201,-100,4,1,1,60,0,1
174985,-100,4,1,1,50,0,0
175309,-100,4,1,0,40,0,0
175634,-100,4,2,0,80,0,1
175796,-100,4,1,1,60,0,1
178228,-100,4,2,0,60,0,1
178390,-100,4,1,1,60,0,1
180823,-100,4,2,0,60,0,1
180985,-100,4,1,1,60,0,1
183417,-100,4,2,0,60,0,1
183579,-100,4,1,1,60,0,1
186012,-100,4,2,0,60,0,1
186174,-100,4,1,1,60,0,1
188606,-100,4,2,0,60,0,1
188769,-100,4,1,1,60,0,1
190553,-100,4,1,0,60,0,0
190877,-100,4,1,0,50,0,0
191201,-133.333333333333,4,2,0,80,0,1
191363,-133.333333333333,4,2,1,60,0,1
196390,-100,4,2,0,50,0,0

[Colours]
Combo1 : 6,61,249
Combo2 : 152,92,126
Combo3 : 87,122,157
Combo4 : 236,9,105

[HitObjects]
256,192,5687,12,8,10552
96,248,21255,5,4
220,240,21904,2,0,B|332:228|404:284,2,180,0|0|8
96,248,23850,6,0,B|32:196|32:196|0:96,1,180
20,44,24823,1,8
136,92,25471,2,0,B|184:132|276:112|288:56,1,180,8|8
344,28,26444,38,0,B|396:8|480:32|504:124|488:196|444:208,1,270,4|8
416,240,27742,1,0
372,284,28066,2,0,B|320:316|308:368,2,89.9999999999999,8|0|8
364,220,29039,5,0
240,244,29687,1,0
124,200,30336,1,0
84,152,30660,2,0,B|52:116|56:56,1,89.9999999999999,8|8
48,8,31309,1,8
108,32,31633,38,0,B|176:60|176:60|376:60,1,270,4|8
436,60,32931,2,0,B|496:76|512:148|492:224|388:220|364:168,1,270,4|8
308,144,34228,2,0,B|256:128|152:132|88:208|88:264,1,270,4|8
76,312,35525,1,4
184,376,36174,1,0
304,336,36823,6,0,B|357:367|480:312|504:244|484:180,1,270,4|8
492,136,38120,2,0,B|480:44|480:44|304:12,1,270,4|8
260,56,39417,2,0,B|220:104|112:88|104:28,1,180,4|0
48,12,40390,1,8
4,124,41039,38,0,B|28:184|28:184|28:316,1,180,8|8
28,364,42012,2,0,B|16:300|104:240|200:248|236:304,1,270,4|8
276,340,43309,2,0,B|320:380|404:380|452:336,1,180
480,292,44282,1,8
492,232,44606,6,4,B|520:168|496:88,2,135
392,156,46228,1,8
332,140,46552,2,0,B|268:148|200:100|200:24,1,180,0|4
84,84,47850,38,0,B|8:140|8:140|12:244,1,180
20,352,49147,1,0
136,300,49796,2,0,B|176:264|276:280|296:328,2,180,0|0|8
80,332,51417,1,8
28,296,51742,1,8
28,232,52066,1,8
76,192,52390,22,0,B|152:212|236:160|248:76|216:8,2,270,4|8|0
28,232,54660,1,8
24,296,54985,6,0,B|100:336|100:336|304:336,1,270,4|8
348,336,56282,2,0,B|424:336|472:264|452:208,1,180
436,160,57255,1,8
396,112,57579,38,0,B|360:48|200:48|160:136,1,270,4|8
120,176,58877,2,0,B|84:212|28:196,1,89.9999999999999,0|8
52,72,59850,1,8
108,48,60174,6,0,B|192:16|296:112|284:200,1,270,4|8
280,260,61471,1,0
256,320,61796,1,8
212,364,62120,6,0,B|156:384|112:352,1,89.9999999999999,0|8
72,324,62769,22,0,B|72:204|72:204|0:64,2,270,4|8|0
128,300,65039,1,8
176,256,65363,6,0,B|212:188|328:200|392:252|380:320,1,270,4|8
428,348,66660,2,0,B|496:356|520:280|504:216|460:212,1,180
448,164,67633,1,8
476,108,67958,38,0,B|448:36|448:36|248:36,1,270,4|8
192,44,69255,1,0
168,104,69579,1,8
188,164,69904,1,0
244,188,70228,1,8
308,180,70552,6,0,B|380:164|444:252|408:360|344:368,2,270,4|8|0
244,180,72823,2,0,B|188:176|144:216,1,89.9999999999999,8|2
196,324,73796,5,2
320,312,74444,1,2
360,192,75093,1,2
260,116,75742,5,4
480,252,86120,38,0,B|456:200|360:184|272:220|264:288,1,270,4|8
236,344,87417,1,0
148,256,88066,1,0
32,304,88715,6,0,B|0:236|0:236|36:44,1,270,4|8
100,48,90012,1,0
160,28,90336,2,0,B|208:44|252:28,1,89.9999999999999,8|0
308,16,90985,1,8
372,4,91309,38,0,B|452:-16|516:88|448:188|364:148,1,270,4|8
316,152,92606,2,0,B|240:124|108:160|64:236,1,270,0|8
40,280,93904,5,4
144,352,94552,1,0
256,296,95201,2,0,B|344:264|440:296,2,180,0|0|4
144,352,97147,38,0,B|60:324|60:324|16:132,1,270,8|8
28,84,98444,1,8
152,104,99093,6,0,B|236:120|284:64,2,135,4|4|4
88,100,100390,1,8
36,136,100715,1,8
48,196,101039,38,0,B|124:248|124:248|160:336,1,180,0|4
268,272,102336,1,0
388,316,102985,2,0,B|460:308|488:224|464:176,1,180,8|8
448,56,104282,6,0,B|396:32|312:44|272:92,2,180,4|0|0
504,84,105904,1,0
492,144,106228,1,8
432,156,106552,1,8
408,96,106877,6,0,B|352:128|244:128|176:48|184:8,1,270,4|8
124,32,108174,2,0,B|20:60,1,89.9999999999999,0|8
16,116,108823,2,0,B|-16:148|4:224|72:236|120:192,1,180,0|4
148,160,109796,1,8
208,140,110120,6,0,B|296:108|412:180|420:276,1,270,0|8
436,320,111417,1,0
380,352,111742,1,8
320,368,112066,38,0,B|260:380|192:336|192:272,1,180,4|0
136,244,113039,1,8
76,220,113363,2,0,B|8:172|8:172|-8:64,1,180
52,48,114336,1,8
112,60,114660,6,0,B|168:108|328:104|368:20,1,270,4|8
420,16,115958,2,0,B|472:8|520:24,1,89.9999999999999,0|8
512,84,116606,6,0,B|520:132|472:168,1,89.9999999999999,0|8
420,192,117255,22,0,B|348:200|300:264|308:324,1,180,4|0
332,368,118228,2,0,B|300:384|260:380|252:356,1,89.9999999999999,8|0
196,332,118877,2,0,B|136:292|136:292|16:304,1,180,8|8
32,240,119850,6,0,B|-16:180|8:28|156:0|224:44,1,360,4|0
276,60,121471,2,0,B|320:104|412:88|440:36,1,180,8|8
492,12,122444,37,4
496,140,123093,1,0
436,252,123742,1,0
340,328,124390,2,0,B|288:368|196:372|160:340,1,180,0|4
108,324,125363,5,8
80,268,125687,1,0
76,204,126012,2,0,B|64:140|108:64|208:44|264:68,1,270,8|8
256,128,127309,5,8
256,192,127633,1,4
188,300,128282,6,0,B|232:344|336:324|348:264,1,180
396,316,129255,2,0,B|376:272|376:272|392:132,1,180,8|8
400,80,130228,2,0,B|408:24|336:-16|244:8|204:72|240:128,1,270,0|8
232,176,131525,37,0
208,236,131850,1,8
168,284,132174,1,0
108,300,132498,1,8
44,308,132823,6,0,B|120:272|120:100|52:72,1,270,4|8
112,44,134120,2,0,B|168:8|248:16|336:24|360:76,1,270,0|8
384,132,135417,2,0,B|384:188|440:244|500:240|520:220,2,180
368,72,137039,37,8
312,44,137363,1,8
248,44,137687,1,8
188,68,138012,6,0,B|112:92|80:176|96:260|128:296,1,270,4|0
168,340,139309,2,0,B|236:284|236:284|424:288,1,270,4|8
480,292,140606,2,0,B|500:264|504:176|432:132,1,180,4|0
380,104,141579,1,0
320,124,141904,38,0,B|268:160|172:116|172:60,2,180,0|0|4
56,100,153579,6,0,B|72:36|196:20|256:108|224:164,1,270,4|8
196,220,154877,2,0,B|160:291|209:364|312:396|408:359|408:264,1,360,0|4
484,172,156823,37,0
476,108,157147,2,0,B|448:60|384:32|332:40|312:56,1,180,8|8
264,80,158120,2,0,B|232:124|168:128|112:96|116:48,1,180,0|4
56,48,159093,5,8
44,172,159742,1,8
28,296,160390,1,8
64,348,160715,1,0
128,352,161039,1,8
184,324,161363,38,0,B|208:280|320:260|408:304|416:372,1,270,4|8
396,232,162985,1,8
280,184,163633,2,0,B|228:164|200:128,1,89.9999999999999,8|4
436,192,165255,38,0,B|360:212|276:160|264:76|296:8,2,270,4|8|0
484,232,167525,1,8
488,296,167850,38,0,B|412:336|412:336|208:336,1,270,4|8
164,336,169147,2,0,B|88:336|40:264|60:208,1,180
76,160,170120,1,8
116,112,170444,6,0,B|152:48|312:48|352:136,1,270,4|8
392,176,171742,2,0,B|428:212|484:196,1,89.9999999999999,0|8
460,72,172715,1,8
404,48,173039,38,0,B|320:16|216:112|228:200,1,270,4|8
232,260,174336,1,0
256,320,174661,1,8
300,364,174985,22,0,B|356:384|400:352,1,89.9999999999999,0|0
440,324,175634,38,0,B|440:204|440:204|512:64,2,270,4|8|0
336,256,178228,38,0,B|300:188|184:200|120:252|132:320,1,270,4|8
84,348,179525,2,0,B|16:356|-8:280|8:216|52:212,1,180
64,164,180498,1,8
36,108,180823,6,0,B|64:36|64:36|264:36,1,270,4|8
320,44,182120,1,0
344,104,182444,1,8
324,164,182769,1,0
268,188,183093,1,8
204,180,183417,38,0,B|132:164|68:252|104:360|168:368,2,270,4|8|0
268,188,185687,1,8
332,196,186012,6,0,B|456:212|456:212|460:364,1,270,4|8
336,368,187633,2,0,B|292:376|236:368,2,89.9999999999999,8|0|8
400,364,188606,37,4
432,244,189255,1,0
396,124,189904,1,0
300,40,190552,22,0,B|248:0|156:-4|120:28,1,180,4|4
256,192,191525,12,4,196390
