osu file format v8

[General]
AudioFilename: 21 Patchouli Stages 1 & 2.mp3
AudioLeadIn: 0
PreviewTime: 5357
Countdown: 1
SampleSet: Normal
StackLeniency: 0.7
Mode: 0
LetterboxInBreaks: 1

[Editor]
Bookmarks: 5545,28402,51438,56974,79831,102867
DistanceSpacing: 0.8
BeatDivisor: 1
GridSize: 8

[Metadata]
Title:Patchouli Stages 1 & 2
Artist:Aki Yamani & NKZ
Creator:Xgor
Version:Normal
Source:Megamari
Tags:Touhou Fangame Megaman Clone Mega Mari Marisa Azure_Kyte Garven thekillerhjkhjk

[Difficulty]
HPDrainRate:3
CircleSize:4
OverallDifficulty:3
ApproachRate:4
SliderMultiplier:1.3
SliderTickRate:1

[Events]
//Background and Video events
0,0,"Megamari.PNG"
//Break Periods
2,51628,55822
//Storyboard Layer 0 (Background)
Sprite,Background,Centre,"Normal BG 1.png",320,237 L,5025,2 MX,0,0,22860,960,-320
Sprite,Background,Centre,"Normal BG 1.png",320,237 MX,0,5025,16455,320,-320
Sprite,Background,Centre,"Normal BG 1.png",320,237 L,16455,2 MX,0,0,22860,960,-320 F,0,50025,51454,1,0
Sprite,Background,Centre,"Select border.png",525,108 L,51454,7 F,0,0,357,1 F,0,357,714,0 S,0,51454,,1.0192
Sprite,Background,Centre,"Normal BG 2.png",320,237 L,56454,2 MX,0,0,22860,960,-320
Sprite,Background,Centre,"Normal BG 2.png",320,237 F,0,56454,57168,0,1 MX,0,56454,67884,320,-320
Sprite,Background,Centre,"Normal BG 2.png",320,237 L,67884,2 MX,0,0,22860,960,-320 F,0,101454,102883,1,0
//Storyboard Layer 1 (Fail)
//Storyboard Layer 2 (Pass)
//Storyboard Layer 3 (Foreground)
Sprite,Foreground,Centre,"Xgor again.png",320,223 F,0,4847,5204,0,1 F,0,50025,51097,1,0
Sprite,Foreground,Centre,"AZURE_KYTE.png",320,240 F,0,56436,57150,0,1 M,0,57150,,318,291 F,0,57150,101436,1 F,0,101436,102865,1,0
Sprite,Foreground,Centre,"sakutarou_sprite.png",320,240 F,0,56799,101442,1 M,0,56811,,320,223 F,0,101442,102871,1,0
//Storyboard Sound Samples
//Background Colour Transformations
3,100,0,0,0

[TimingPoints]
0,357.142857142857,4,1,0,92,1,0

[Colours]
Combo1 : 40,214,31
Combo2 : 194,2,242
Combo3 : 0,159,244
Combo4 : 243,194,1
SliderBorder : 175,175,175

[HitObjects]
176,48,5535,1,0
176,48,5714,1,8
328,48,6249,1,0
328,48,6428,1,8
312,152,6785,1,0
208,152,7142,1,2
208,256,7499,1,0
312,256,7857,1,4
176,336,8392,5,0
176,336,8571,1,8
336,336,9107,1,0
336,336,9285,1,8
248,280,9642,2,0,B|336:216|336:112|216:40,1,260
232,168,10714,1,4
104,104,11250,5,0
104,104,11428,1,8
104,264,11964,1,0
104,264,12142,1,8
200,232,12500,1,0
200,128,12857,1,2
304,128,13214,1,0
304,232,13571,1,4
488,320,14285,6,6,B|360:192|520:64,2,260
312,208,16428,1,4
176,288,16964,5,0
176,288,17142,1,8
48,192,17678,1,0
48,192,17857,1,8
112,112,18214,1,0
176,192,18571,1,2
240,112,18928,1,0
304,192,19285,1,4
408,312,19821,5,0
408,312,20000,1,8
256,312,20535,1,0
256,312,20714,1,8
152,312,21071,2,0,B|80:144|280:120,1,260
256,224,22142,1,4
328,88,22678,5,0
328,88,22857,1,8
184,88,23392,1,0
184,88,23571,1,8
176,192,23928,1,0
208,296,24285,1,2
304,296,24642,1,0
336,192,24999,1,4
120,152,25714,6,8,C|208:40,1,130,8|4
312,48,26428,2,8,C|400:160,1,130,8|4
368,248,27142,2,2,B|368:376|136:376|136:232,1,325,2|2
256,256,28392,5,0
256,256,28571,2,2,B|168:152|376:136|248:24,1,260
144,56,29642,1,8
72,136,29999,1,0
72,240,30357,1,8
144,312,30714,1,4
352,312,31428,5,0
424,240,31785,1,8
424,136,32142,1,0
352,56,32499,1,8
256,24,32857,2,4,B|192:80|320:80|256:144,1,130
256,240,33571,2,4,B|320:296|192:296|256:360,1,130
160,296,34285,6,2,B|16:192|160:80,1,260
256,88,35357,1,8
352,136,35714,1,0
352,240,36071,1,8
256,288,36428,1,4
184,88,37142,5,0
88,136,37499,1,8
88,240,37857,1,0
184,288,38214,1,8
296,288,38571,2,2,B|464:192|264:72,2,260,2|2|14
144,144,40714,5,0
200,232,41071,1,8
256,144,41428,1,0
312,232,41785,1,8
368,144,42142,1,4
312,336,42857,5,0
200,336,43214,1,8
200,232,43571,1,0
312,232,43928,1,8
320,128,44285,2,4,C|184:128,1,130
192,24,44999,2,4,C|328:24,1,130
384,104,45714,6,2,B|448:280|184:280,1,260
152,280,46785,1,8
96,192,47142,1,0
200,192,47499,1,8
152,96,47857,1,4
360,96,48571,5,0
416,184,48928,1,8
312,184,49285,1,0
368,272,49642,1,4
256,192,49999,12,4,51428
104,88,57142,6,2,B|216:40|264:128|392:64,1,260,2|2
360,168,58214,1,8
440,168,58571,2,2,B|449:176|448:232|368:280|307:239|296:216,1,195,2|2
299,221,59285,1,4
160,224,59821,6,0,B|88:224,1,65,0|2
192,224,60357,1,2
184,136,60714,6,2,B|264:64,1,97.5,2|8
288,136,61249,2,0,B|344:88,1,65,0|2
392,136,61696,2,0,B|472:72,1,97.5,2|0
468,75,62142,1,4
472,208,62678,5,0
440,240,62857,2,2,B|328:320|304:240|176:320,1,260
128,336,63839,6,0,B|56:360|32:312,1,97.5,2|2
16,280,64285,2,0,B|0:224|48:176,1,97.5,8|2
80,136,64821,2,0,B|112:104|152:104,1,65,2|4
272,96,65535,6,0,B|320:136,2,32.5,0|2|2
216,136,65982,1,8
240,200,66249,2,0,B|312:240,1,65,8|2
352,264,66696,1,8
296,304,66964,1,0
256,328,67142,2,2,B|160:368|48:328|112:200,1,260
152,136,68214,1,4
232,88,68571,6,2,B|312:48|400:56|408:120,1,195
408,152,69285,2,0,B|312:200,1,97.5,2|8
256,224,69821,2,0,B|304:288,1,65,0|2
336,336,70267,2,0,B|288:368|224:344,1,97.5,2|0
200,336,70714,2,0,B|128:296|128:208|192:160,1,195,6|0
216,144,71428,6,0,B|304:96|368:112,1,130,2|2
384,112,71964,2,0,B|400:64,2,32.5,0|2|2
448,136,72410,2,0,B|488:184|464:232,1,97.5,2|8
448,272,72857,2,0,B|416:320|352:312,1,97.5,0|2
296,304,73392,2,0,B|248:304|232:264,1,65,2|6
128,192,74107,5,8
128,192,74285,1,4
248,120,74821,6,0,B|304:176,1,65,0|2
240,216,75267,1,8
192,272,75535,2,0,B|248:328,1,65,8|2
288,272,75982,1,2
336,216,76250,2,0,B|392:160,1,65,8|4
312,48,76964,6,0,B|344:80,2,32.5,0|2|2
264,96,77410,1,8
264,168,77678,2,0,B|240:192|200:176,1,65,8|2
168,240,78124,1,2
200,304,78392,2,2,B|232:344|272:320,1,65,2|6
256,192,78750,12,4,80000
256,88,80535,5,0
296,104,80714,2,0,B|352:128|392:96,1,97.5,2|2
448,72,81250,1,8
464,112,81428,2,0,B|504:176|464:224,1,97.5,2|2
432,256,81964,1,8
392,240,82142,2,0,B|296:200|192:240,1,195,4|0
160,256,82857,5,2
96,216,83124,2,0,B|112:176|168:167|192:184,1,97.5,2|2
224,192,83571,2,0,B|256:216|240:320|328:272,1,130,8|8
392,272,84285,1,4
456,160,84642,1,4
328,160,85000,1,4
392,48,85357,1,4
264,48,85714,6,0,B|192:64|176:144,1,130,2|0
176,176,86250,2,0,B|128:176,2,32.5,0|2|2
176,232,86696,2,0,B|176:304|224:320,1,97.5,2|2
248,328,87142,2,0,B|304:344|344:320,1,97.5,8|2
384,280,87678,1,2
408,248,87857,2,0,B|448:168|416:112|352:88,1,195,4|0
314,84,88571,5,2
256,88,88839,2,8,B|200:88|160:128,1,97.5
144,152,89285,2,2,B|96:208|128:288,1,130
184,360,90000,6,4,B|256:312|320:368,1,130
360,272,90714,2,0,B|408:240|440:296,3,65,2|2|4|4
456,280,91428,6,2,B|488:200|448:136,2,130
400,304,92410,1,8
344,304,92678,2,0,B|272:304,1,65,8|2
224,304,93124,1,2
168,304,93392,2,0,B|80:304,1,65,8|2
112,184,94107,6,0,B|112:96,1,65,8|2
168,120,94553,1,2
224,120,94821,2,0,B|224:192,1,65,8|2
304,184,95357,2,4,B|304:48,1,130
381,54,96071,2,4,B|381:184,1,130
459,184,96785,1,8
459,261,97142,6,2,B|392:304|320:288,2,130
456,200,98124,2,2,B|408:184|352:184,1,97.5
320,184,98571,2,0,B|280:184|224:216,1,97.5,8|2
184,256,99107,1,8
184,256,99285,1,4
256,192,99821,12,4,102857
