osu file format v8

[General]
AudioFilename: 21 Patchouli Stages 1 & 2.mp3
AudioLeadIn: 0
PreviewTime: 5357
Countdown: 1
SampleSet: Normal
StackLeniency: 0.7
Mode: 0
LetterboxInBreaks: 1

[Editor]
Bookmarks: 5545,28402,51438,56974,79831,102867
DistanceSpacing: 0.8
BeatDivisor: 4
GridSize: 8

[Metadata]
Title:Patchouli Stages 1 & 2
Artist:Aki Yamani & NKZ
Creator:Xgor
Version:Easy
Source:Megamari
Tags:Touhou Fangame Megaman Clone Mega Mari Marisa Azure_Kyte Garven thekillerhjkhjk

[Difficulty]
HPDrainRate:2
CircleSize:3
OverallDifficulty:2
ApproachRate:2
SliderMultiplier:1
SliderTickRate:1

[Events]
//Background and Video events
0,0,"Megamari.PNG"
//Break Periods
2,51628,55582
//Storyboard Layer 0 (Background)
Sprite,Background,Centre,"Easy BG 1.png",320,237 MX,0,5025,16455,320,-320
Sprite,Background,Centre,"Easy BG 1.png",320,237 L,5025,2 MX,0,0,22860,960,-320
Sprite,Background,Centre,"Easy BG 1.png",320,237 L,16455,2 MX,0,0,22860,960,-320 F,0,50025,51454,1,0
Sprite,Background,Centre,"Select border.png",296,369 L,51454,7 F,0,0,357,1 F,0,357,714,0 S,0,51454,,1.0192
Sprite,Background,Centre,"Easy BG 2.png",320,237 F,0,56454,57168,0,1 MX,0,56454,67884,320,-320
Sprite,Background,Centre,"Easy BG 2.png",320,237 L,56454,2 MX,0,0,22860,960,-320
Sprite,Background,Centre,"Easy BG 2.png",320,237 L,67884,2 MX,0,0,22860,960,-320 F,0,101454,102883,1,0
//Storyboard Layer 1 (Fail)
//Storyboard Layer 2 (Pass)
//Storyboard Layer 3 (Foreground)
Sprite,Foreground,Centre,"Xgor avie.png",320,223 F,0,4847,5204,0,1 F,0,50025,51097,1,0
Sprite,Foreground,Centre,"thekillerhjkhjk.png",320,240 F,0,56436,57150,0,1 M,0,57150,,318,282 F,0,57150,101436,1 F,0,101436,102865,1,0
Sprite,Foreground,Centre,"cirno in da map.png",322,222 F,0,56454,57168,0,1 F,0,57168,101454,1,0.9957983 F,0,101454,102883,0.9957983,0
//Storyboard Sound Samples
//Background Colour Transformations
3,100,0,0,0

[TimingPoints]
0,357.142857142857,4,1,0,100,1,0

[Colours]
Combo1 : 36,204,45
Combo2 : 194,2,242
Combo3 : 0,159,244
Combo4 : 243,194,1
SliderBorder : 175,175,175

[HitObjects]
176,32,5714,1,4
336,32,6428,1,8
352,192,7142,2,0,B|144:192,1,200,0|8
176,352,8571,5,0
336,352,9285,1,8
304,192,10000,2,2,B|176:192,2,99.9999999999999,2|2|8
416,64,11428,5,0
256,64,12142,1,8
96,64,12857,2,0,B|96:288,1,200,0|8
256,288,14285,5,4
384,200,15000,1,4
256,96,15714,1,4
64,192,17142,5,0
224,192,17857,1,8
352,96,18571,2,0,B|352:320,1,200,0|8
448,192,20000,5,0
288,192,20714,1,8
128,240,21428,2,2,B|128:128,2,99.9999999999999,2|2|8
128,96,22857,5,0
256,192,23571,1,8
384,288,24285,2,0,B|384:64,1,200,0|8
256,192,25714,5,4
176,328,26428,1,4
336,328,27142,1,4
176,32,28571,5,2
336,32,29285,1,8
352,192,29999,2,0,B|144:192,1,200,0|8
152,352,31428,6,0,B|376:352,1,200,0|8
400,200,32857,1,4
256,272,33571,1,4
256,112,34285,5,2
96,112,34999,1,8
96,272,35714,2,0,B|320:272,1,200,0|8
296,112,37142,6,0,B|88:112,2,200,0|8|0
456,112,39285,1,4
376,248,39999,5,2
256,352,40714,1,8
136,248,41428,2,0,B|136:24,1,200,0|8
296,48,42857,6,0,B|296:256,1,200,0|8
424,344,44285,1,4
448,184,44999,1,4
328,80,45714,5,2
168,80,46428,1,8
160,240,47142,2,0,B|256:280|360:240,1,200,0|8
256,192,48571,12,4,51428
152,192,57142,6,0,B|208:88|336:120,1,200,4|8
320,200,58214,1,0
320,280,58571,2,0,B|432:280,2,100,2|0|8
160,280,59999,6,0,B|160:64,1,200,4|8
240,80,61071,1,0
320,80,61428,2,0,B|440:80|424:216,1,200,2|8
312,328,62857,6,0,B|184:344|152:224,1,200,4|8
224,192,63928,1,0
304,192,64285,2,0,B|272:56|416:56,1,200,2|8
448,208,65714,6,4,B|256:304|56:208,1,400
360,96,68571,5,4
200,288,69285,2,0,B|176:176,1,100,8|0
152,112,69999,2,0,B|360:112,1,200,2|8
240,232,71428,6,0,B|448:232,1,200,4|8
416,152,72499,1,0
336,152,72857,1,2
256,152,73214,1,0
176,152,73571,1,8
64,264,74285,6,0,B|136:192|368:304|456:232,2,400,4|2|4
80,104,77857,5,4
240,104,78571,1,4
32,352,79999,5,2
192,344,80714,2,0,B|416:360|480:96,1,400,8|8
336,32,82857,6,0,B|336:352,1,300,4|8
256,312,84285,5,4
256,232,84642,1,8
256,152,84999,1,4
256,72,85357,1,8
176,80,85714,6,2,B|88:152|152:264,1,200,2|2
208,312,86785,1,8
288,336,87142,2,0,B|352:336|384:296,2,100,0|8|0
392,224,88571,6,0,B|392:40|192:40,1,300,4|2
200,120,89999,2,0,B|304:120,1,100,4|0
256,184,90714,6,0,B|256:248,4,50,0|0|8|0|4
416,160,92142,6,0,B|256:24,1,200
200,80,93214,2,0,B|104:152,1,100,8|0
224,264,94285,6,0,B|256:184|288:272,1,100
368,264,94999,2,2,B|368:160,1,100,2|8
288,176,95714,5,6
224,128,96071,1,12
288,80,96428,1,6
224,32,96785,1,12
160,80,97142,6,2,B|80:40|64:104|72:176|160:144,1,200
160,224,98214,1,8
240,232,98571,2,0,B|200:312|264:328|336:320|304:232,1,200
392,104,99999,6,4,B|304:24|200:32|120:104,1,300
256,192,101428,12,4,102857
