osu file format v12

[General]
AudioFilename: Calendrier.mp3
AudioLeadIn: 0
PreviewTime: 49281
Countdown: 0
SampleSet: Soft
StackLeniency: 0.7
Mode: 0
LetterboxInBreaks: 1
WidescreenStoryboard: 0

[Editor]
DistanceSpacing: 1.2
BeatDivisor: 4
GridSize: 8

[Metadata]
Title:Calendrier (TV Size)
TitleUnicode:Calendrier (TV Size)
Artist:Aki Okui
ArtistUnicode:Aki Okui
Creator:kuroanchan
Version:Normal
Source:Tasogare Otome x Amnesia
Tags:ending single Setsurei veniastcline
BeatmapID:299815
BeatmapSetID:116126

[Difficulty]
HPDrainRate:3
CircleSize:4
OverallDifficulty:4
ApproachRate:4
SliderMultiplier:1.2
SliderTickRate:2

[Events]
//Background and Video events
0,0,"BG.jpg",0,0
//Break Periods
//Storyboard Layer 0 (Background)
//Storyboard Layer 1 (Fail)
//Storyboard Layer 2 (Pass)
//Storyboard Layer 3 (Foreground)
//Storyboard Sound Samples
//Background Colour Transformations
3,100,163,162,255

[TimingPoints]
986,365.87687614399,4,2,1,50,1,0
14158,-100,4,2,1,50,0,1
21475,-100,4,2,1,50,0,0
69008,-100,4,2,1,50,0,0

[Colours]
Combo1 : 255,255,0
Combo2 : 128,64,0
Combo3 : 255,128,0

[HitObjects]
32,216,985,5,0,0:0:0:0:
64,128,1352,2,0,P|104:72|168:64,1,120
224,96,2084,1,0,0:0:0:0:
296,64,2450,2,0,P|368:48|408:80,1,120
452,136,3182,5,0,0:0:0:0:
447,218,3548,2,0,P|423:266|343:282,1,120
288,304,4278,1,0,0:0:0:0:
210,288,4644,2,0,P|154:272|106:208,1,120
63,164,5376,5,0,0:0:0:0:
250,94,6108,2,0,B|288:89|313:117|317:158|298:193,1,120
69,233,7205,5,0,0:0:0:0:
152,232,7571,2,0,P|184:192|256:232,1,120
326,233,8303,2,0,P|338:186|420:157,1,120
395,73,9035,2,0,P|291:41|275:57,1,120
216,51,9768,6,0,P|146:164|228:237,1,240
272,258,10864,1,0,0:0:0:0:
329,210,11230,1,0,0:0:0:0:
273,161,11596,1,0,0:0:0:0:
214,207,11962,5,0,0:0:0:0:
78,145,12694,2,0,P|81:63|131:51,1,120
458,49,14157,5,0,0:0:0:0:
381,95,14523,2,0,B|359:44|314:51|273:66|273:104,1,120
195,57,15255,5,0,0:0:0:0:
109,82,15621,2,0,B|78:117|78:168|109:196,1,120
188,227,16353,2,0,L|83:331,2,120
277,234,17451,1,0,0:0:0:0:
436,196,18548,5,0,0:0:0:0:
350,193,18914,1,0,0:0:0:0:
262,194,19280,2,0,B|228:175|158:181|130:225,1,120
69,178,20012,1,0,0:0:0:0:
32,104,20377,2,0,P|80:32|128:32,1,120
256,200,21475,6,0,L|257:63,1,120
152,304,22938,6,0,P|216:248|264:240,1,120
202,169,23670,2,0,P|242:137|314:137,1,120
303,49,24402,2,0,P|359:33|431:73,1,120
417,139,25134,5,0,0:0:0:0:
417,215,25500,1,0,0:0:0:0:
343,216,25866,1,0,0:0:0:0:
341,141,26231,1,0,0:0:0:0:
359,184,27329,6,0,B|361:136|348:123|345:117|342:107|339:104|326:111|310:117|310:120|304:136|304:145|298:149|285:136|279:130|279:126|276:114|272:114|266:111|260:107|253:111|250:123|247:133|244:139|241:168|244:190,1,240
244,261,28426,1,0,0:0:0:0:
310,303,28792,1,0,0:0:0:0:
371,258,29158,2,0,B|371:214|390:195|405:188|412:214|380:220|364:220|364:179|383:138|377:150,1,120
257,67,30256,6,0,P|191:70|175:136,1,120
107,158,30987,1,0,0:0:0:0:
89,232,31353,1,0,0:0:0:0:
91,232,31719,2,0,B|162:275|263:303|339:272|414:183,1,360
418,105,33548,5,0,0:0:0:0:
419,104,33914,2,0,P|314:49|194:81,1,240
155,139,35013,1,0,0:0:0:0:
197,212,36110,5,0,0:0:0:0:
161,283,36476,1,0,0:0:0:0:
83,306,36842,1,0,0:0:0:0:
23,254,37208,6,0,P|56:168|192:120,1,240
219,200,38306,2,0,P|300:225|340:201,1,120
320,136,39037,2,0,P|384:56|400:56,1,120
440,315,40500,6,0,B|493:252|506:182|484:91|471:72,1,240
478,88,41598,2,0,P|320:88|384:224,1,360
342,287,43061,2,0,L|198:287,1,120
147,271,43793,1,0,0:0:0:0:
199,210,44159,2,0,P|219:158|159:123,1,120
177,119,44891,6,0,P|224:24|128:48,1,240
53,98,45988,1,0,0:0:0:0:
21,168,46354,1,0,0:0:0:0:
87,205,46720,1,0,0:0:0:0:
131,142,47087,2,0,B|237:141|293:61|221:45|205:109|253:213|429:133,1,360
416,192,49281,5,0,0:0:0:0:
380,274,49647,1,0,0:0:0:0:
294,263,50013,1,0,0:0:0:0:
312,184,50379,2,0,L|192:104,1,120
139,84,51111,6,0,P|73:81|44:138,1,120
39,199,51842,2,0,P|42:246|118:278,1,120
132,204,52574,2,0,L|263:183,2,120
45,189,53672,6,0,P|64:122|124:94,1,120
181,92,54403,2,0,B|237:28|237:-28|205:12|221:84|269:124|293:124|333:60,1,240
377,140,55501,1,0,0:0:0:0:
336,214,55867,2,0,P|400:254|464:230,1,120
438,163,56599,5,0,0:0:0:0:
368,116,56965,2,0,L|256:47,1,120
182,47,57696,1,0,0:0:0:0:
162,125,58062,2,0,P|149:171|83:180,1,120
18,144,58794,5,0,0:0:0:0:
18,228,59161,1,0,0:0:0:0:
83,282,59527,1,0,0:0:0:0:
155,249,59893,2,0,B|195:209|171:201|195:233|243:265,1,120
318,293,60623,5,0,0:0:0:0:
398,304,60989,1,0,0:0:0:0:
464,255,61355,2,0,P|486:198|464:116,1,120
409,106,62087,1,0,0:0:0:0:
408,108,62453,6,0,B|350:140|322:152|282:184,2,120
350,54,63550,1,0,0:0:0:0:
273,71,63916,1,0,0:0:0:0:
320,134,64282,5,0,0:0:0:0:
294,206,64648,2,0,B|225:159|175:181|160:200,1,120
106,187,65380,2,0,B|62:219|62:259|54:291,1,120
128,313,66111,5,0,0:0:0:0:
205,301,66477,1,0,0:0:0:0:
279,274,66843,2,0,P|326:229|301:172,1,120
274,115,67575,5,0,0:0:0:0:
213,66,67941,2,0,P|157:66|117:122,2,120
213,64,69038,1,0,0:0:0:0:
24,179,69770,5,0,0:0:0:0:
51,259,70136,2,0,B|123:202|83:162|83:194|115:242|163:298|243:282,1,240
220,284,71234,1,0,0:0:0:0:
271,218,71600,1,0,0:0:0:0:
221,150,71965,5,0,0:0:0:0:
221,152,72331,2,0,L|212:10,1,120
288,52,73063,1,0,0:0:0:0:
325,130,73429,5,0,0:0:0:0:
250,143,73795,1,0,0:0:0:0:
273,72,74161,2,0,P|216:56|160:80,1,120
111,134,74892,5,0,0:0:0:0:
74,64,75258,1,0,0:0:0:0:
112,136,75624,2,0,B|186:62|242:38|346:62,1,240
400,112,76722,2,0,B|368:160|312:232|240:272|120:272|96:216,1,360
360,94,78551,5,0,0:0:0:0:
360,94,78917,2,0,B|312:96|280:96|264:96|248:96|240:96|248:128|240:128|248:168|248:176|248:184|248:200|240:224|248:232|248:240|264:240|264:240|280:240|288:240|296:240|320:240|320:248|336:240|352:240|384:240,1,360
453,239,80381,1,0,0:0:0:0:
256,192,80746,12,0,85137,0:0:0:0:
446,134,85869,5,0,0:0:0:0:
448,136,86235,2,0,L|440:256,1,120
354,258,86966,1,0,0:0:0:0:
355,258,87332,6,0,L|235:258,1,120
160,220,88064,1,0,0:0:0:0:
105,154,88430,2,2,L|23:62,1,120
