osu file format v14

[General]
AudioFilename: 01. T.E.B Summer Mix.mp3
AudioLeadIn: 0
PreviewTime: 68583
Countdown: 0
SampleSet: Normal
StackLeniency: 0.3
Mode: 0
LetterboxInBreaks: 1
WidescreenStoryboard: 1

[Editor]
Bookmarks: 29384,33179,50070
DistanceSpacing: 1
BeatDivisor: 2
GridSize: 8
TimelineZoom: 0.8

[Metadata]
Title:Zenmai Koi Tokei (T.E.B. Summer Mix)
TitleUnicode:ゼンマイ恋時計(T.E.B Summer Mix)
Artist:Aki
ArtistUnicode:あき
Creator:El Koko
Version:Normal
Source:Touhou
Tags:touhou eurobeat chen theme koko sumaru100
BeatmapID:601493
BeatmapSetID:204282

[Difficulty]
HPDrainRate:4
CircleSize:3
OverallDifficulty:4
ApproachRate:5
SliderMultiplier:1.2
SliderTickRate:1

[Events]
//Background and Video events
0,0,"bce623dbb1679579b755486f91daa540.jpg",0,0
//Break Periods
2,201431,208781
//Storyboard Layer 0 (Background)
//Storyboard Layer 1 (Fail)
//Storyboard Layer 2 (Pass)
//Storyboard Layer 3 (Foreground)
//Storyboard Sound Samples

[TimingPoints]
11410,357.142857142857,4,2,0,100,1,0
22838,-100,4,1,0,100,0,0
33552,-100,4,2,0,100,0,0
53552,-100,4,3,0,100,0,0
68552,-100,4,1,0,100,0,1
93731,-100,4,1,0,100,0,0
104981,-100,4,2,0,100,0,0
116231,-100,4,3,0,100,0,0
139981,-100,4,1,0,100,0,1
165159,-100,4,1,0,100,0,0
177124,-100,4,2,0,100,0,0
188552,-100,4,3,0,100,0,0
212838,-100,4,1,0,100,0,1
232838,-100,4,1,0,100,0,0

[Colours]
Combo1 : 209,46,107
Combo2 : 7,129,194
Combo3 : 193,69,203
Combo4 : 96,57,208

[HitObjects]
352,192,11410,6,0,P|408:168|460:100,2,120,4|0|0,0:0|0:0|0:0,0:0:0:0:
232,192,12481,1,0,0:0:0:0:
168,192,12660,1,0,0:0:0:0:
112,192,12838,2,0,P|120:256|168:304,2,120,0|0|0,0:0|0:0|0:0,0:0:0:0:
96,72,13910,1,0,0:0:0:0:
208,120,14267,6,0,L|304:216,2,120,4|0|0,0:0|0:0|0:0,0:0:0:0:
152,224,15338,1,0,0:0:0:0:
184,272,15517,1,0,0:0:0:0:
216,328,15695,2,0,B|280:320|280:320|288:312|288:312|344:304,1,120
392,304,16231,2,0,B|392:248|392:248|408:224|400:176,1,120
400,128,16767,1,0,0:0:0:0:
320,224,17124,6,0,L|264:280,2,60,4|0|0,0:0|0:0|0:0,0:0:0:0:
344,104,17838,1,0,0:0:0:0:
344,104,18017,1,0,0:0:0:0:
344,104,18195,2,0,P|296:136|216:160,1,120
128,112,18910,2,0,P|176:80|256:56,2,120
208,216,19981,5,4,0:0:0:0:
208,216,20160,1,0,0:0:0:0:
208,216,20338,2,0,B|208:248|208:248|176:288|208:352,1,120
304,272,21052,2,0,B|304:240|304:240|336:200|304:136,1,120
208,216,21767,1,0,0:0:0:0:
152,112,22124,6,0,B|184:88|168:48|168:48|256:64|336:48,1,240
368,168,23195,1,8,0:0:0:0:
400,288,23552,2,0,L|424:360,2,60,0|0|8,0:0|0:0|0:0,0:0:0:0:
288,240,24267,1,0,0:0:0:0:
192,168,24624,1,8,0:0:0:0:
160,288,24981,2,0,L|136:344,2,60,0|0|8,0:0|0:0|0:0,0:0:0:0:
248,208,25695,6,0,B|280:184|336:184|336:184|368:136,1,120,0|8,0:0|0:0,0:0:0:0:
408,176,26231,1,0,0:0:0:0:
440,224,26409,2,0,P|392:264|368:320,2,120,0|8|0,0:0|0:0|0:0,0:0:0:0:
312,200,27481,2,0,B|272:184|248:216|176:216,2,120,8|0|8,0:0|0:0|0:0,0:0:0:0:
392,112,28552,6,0,B|336:80|336:80|336:72|336:72|296:48,1,120,0|8,0:0|0:0,0:0:0:0:
176,48,29267,2,0,B|136:72|136:72|136:80|136:80|80:112,1,120,0|8,0:0|0:0,0:0:0:0:
136,216,29981,2,0,B|120:264|136:304|136:304|112:344,2,120,0|8|0,0:0|0:0|0:0,0:0:0:0:
248,256,31052,1,8,0:0:0:0:
248,256,31231,1,0,0:0:0:0:
248,256,31409,2,0,P|256:200|240:128,1,120,4|8,0:0|0:0,0:0:0:0:
224,80,31945,1,4,0:0:0:0:
344,72,32302,2,0,P|384:120|440:152,1,120,4|0,0:0|0:0,0:0:0:0:
384,256,33017,2,2,L|248:288,1,120
208,304,33552,5,0,0:0:0:0:
232,184,33909,1,0,0:0:0:0:
248,64,34267,2,0,P|328:128|328:272,1,240
232,184,35338,1,0,0:0:0:0:
216,304,35695,2,0,B|144:264|144:264|160:192|104:96,1,240
224,72,36767,1,0,0:0:0:0:
256,192,37124,6,0,B|288:176|288:176|320:184|384:152,2,120
136,184,38195,1,0,0:0:0:0:
104,232,38373,1,0,0:0:0:0:
72,288,38552,2,0,P|144:320|208:328,2,120
168,216,39624,1,0,0:0:0:0:
104,112,39981,6,0,P|168:104|240:120,1,120,0|0,0:0|0:0,0:0:0:0:
168,216,40695,2,0,L|304:192,1,120
384,216,41409,2,0,B|392:160|360:144|360:88,2,120
408,336,42481,1,0,0:0:0:0:
288,344,42838,6,0,P|224:336|160:304,1,120
264,240,43552,1,0,0:0:0:0:
152,192,43909,1,0,0:0:0:0:
56,272,44267,2,0,B|40:224|40:224|88:184|64:40,1,240
152,192,45338,1,0,0:0:0:0:
224,288,45695,6,0,P|160:312|112:352,2,120,4|0|0,0:0|0:0|0:0,0:0:0:0:
336,248,46767,1,0,0:0:0:0:
336,248,46945,1,4,0:0:0:0:
336,248,47124,2,0,P|280:200|224:184,1,120
128,136,47838,2,0,P|184:88|240:72,1,120
344,80,48552,5,0,0:0:0:0:
416,176,48909,1,0,0:0:0:0:
432,232,49088,1,0,0:0:0:0:
448,288,49266,2,0,P|392:320|320:320,2,120
376,192,50338,1,0,0:0:0:0:
448,96,50695,2,0,P|388:88|336:60,1,120
224,96,51409,6,0,P|232:152|216:216,1,120
328,264,52124,2,0,P|377:236|442:228,1,120
352,144,52838,1,0,0:0:0:0:
256,72,53195,1,0,0:0:0:0:
352,144,53552,2,0,L|392:88,2,60,0|0|4,0:0|0:0|0:1,0:0:0:0:
360,264,54267,5,4,0:1:0:0:
256,320,54624,1,0,0:0:0:0:
152,264,54981,1,0,0:0:0:0:
120,144,55338,1,0,0:0:0:0:
200,56,55695,2,0,P|248:88|288:160,1,120
320,256,56409,2,0,L|344:312,2,60
216,320,57124,6,0,P|168:288|104:272,1,120
224,216,57838,2,0,P|272:184|336:168,1,120
408,264,58552,2,0,L|440:136,1,120
344,64,59267,1,0,0:0:0:0:
344,120,59445,1,0,0:0:0:0:
344,176,59624,1,0,0:0:0:0:
248,248,59981,6,0,P|192:240|128:248,1,120
64,144,60695,2,0,P|120:112|160:72,1,120
256,152,61409,1,0,0:0:0:0:
168,232,61767,1,0,0:0:0:0:
256,312,62124,2,0,B|272:296|272:296|312:304|376:272,1,120
352,152,62838,5,4,0:1:0:0:
257,214,63195,1,0,0:0:0:0:
144,256,63552,2,0,P|152:192|192:136,1,120
296,104,64267,2,0,P|289:163|258:214,1,120
168,152,64981,1,0,0:0:0:0:
112,176,65159,1,0,0:0:0:0:
72,224,65338,1,0,0:0:0:0:
176,288,65695,6,0,L|304:288,1,120
384,208,66409,2,0,L|256:208,1,120,0|0,0:0|0:0,0:0:0:0:
176,128,67124,2,0,L|304:128,1,120
416,104,67838,1,0,0:0:0:0:
432,224,68195,1,0,0:0:0:0:
328,288,68552,6,0,B|272:248|192:328|88:272,1,240
96,152,69624,1,8,0:0:0:0:
208,104,69981,2,0,P|240:160|288:192,1,120,0|8,0:0|0:0,0:0:0:0:
384,128,70695,2,0,L|416:72,2,60,0|0|8,0:0|0:0|0:0,0:0:0:0:
416,240,71409,6,0,P|344:280|280:288,1,120,0|8,0:0|0:0,0:0:0:0:
200,336,72124,2,0,P|200:248|232:200,1,120,0|8,0:0|0:0,0:0:0:0:
144,128,72838,2,0,P|200:112|272:120,2,120,0|8|0,0:0|0:0|0:0,0:0:0:0:
96,240,73909,1,8,0:0:0:0:
144,128,74267,6,0,L|256:40,1,120,0|8,0:0|0:0,0:0:0:0:
352,88,74981,2,0,L|240:176,1,120,0|8,0:0|0:0,0:0:0:0:
264,280,75695,2,0,L|376:192,2,120,0|8|0,0:0|0:0|0:0,0:0:0:0:
256,160,76767,1,8,0:0:0:0:
136,192,77124,5,4,0:0:0:0:
256,328,77659,1,4,0:0:0:0:
376,192,78195,1,4,0:0:0:0:
312,88,78552,2,0,P|256:80|192:88,3,120,0|8|0|8,0:0|0:0|0:0|0:0,0:0:0:0:
88,136,79981,6,0,B|120:152|120:152|128:272|256:272,1,240
232,152,81052,1,8,0:0:0:0:
352,120,81409,1,0,0:0:0:0:
392,232,81767,1,8,0:0:0:0:
312,320,82124,2,0,L|312:384,2,60,0|0|8,0:0|0:0|0:0,0:0:0:0:
200,288,82838,6,0,P|136:256|104:208,1,120,0|8,0:0|0:0,0:0:0:0:
32,120,83552,2,0,P|88:96|168:112,1,120,0|8,0:0|0:0,0:0:0:0:
256,64,84267,2,0,P|256:128|216:184,1,120,0|8,0:0|0:0,0:0:0:0:
168,280,84981,1,0,0:0:0:0:
88,192,85338,1,8,0:0:0:0:
144,96,85695,6,8,P|200:64|280:72,1,120,0|8,0:0|0:0,0:0:0:0:
368,128,86409,2,0,P|317:158|257:160,1,120,0|8,0:0|0:0,0:0:0:0:
280,40,87124,1,0,0:0:0:0:
368,128,87481,1,8,0:0:0:0:
368,248,87838,1,0,0:0:0:0:
280,328,88195,1,8,0:0:0:0:
160,304,88552,6,0,P|120:216|128:112,2,180,4|0|0,0:0|0:0|0:0,0:0:0:0:
232,208,89981,1,0,0:0:0:0:
344,256,90338,2,0,P|352:192|336:136,2,120,8|0|8,0:0|0:0|0:0,0:0:0:0:
232,208,91409,5,0,0:0:0:0:
144,296,91767,1,8,0:0:0:0:
120,176,92124,1,0,0:0:0:0:
160,64,92481,2,0,P|100:69|44:89,2,120,8|0|8,0:0|0:0|0:0,0:0:0:0:
256,144,93552,1,4,0:0:0:0:
256,144,93731,1,4,0:0:0:0:
80,176,94267,6,0,P|72:240|88:304,1,120,0|8,0:0|0:0,0:0:0:0:
192,240,94981,2,0,L|192:168,2,60,0|0|8,0:0|0:0|0:0,0:0:0:0:
296,296,95695,2,0,P|307:237|299:178,1,120,0|8,0:0|0:0,0:0:0:0:
208,96,96409,2,0,L|144:72,2,60,0|0|8,0:0|0:0|0:0,0:0:0:0:
304,168,97124,5,0,0:0:0:0:
400,240,97481,1,8,0:0:0:0:
400,240,97659,1,0,0:0:0:0:
400,240,97838,2,0,P|336:272|264:288,2,120,0|8|0,0:0|0:0|0:0,0:0:0:0:
304,168,98909,2,0,B|256:128|304:88|256:56,2,120,8|0|8,0:0|0:0|0:0,0:0:0:0:
400,240,99981,6,0,P|352:272|288:296,1,120,0|8,0:0|0:0,0:0:0:0:
184,344,100695,2,0,P|176:280|192:216,1,120,0|8,0:0|0:0,0:0:0:0:
219,97,101409,2,0,P|267:131|296:184,2,120,0|8|0,0:0|0:0|0:0,0:0:0:0:
184,208,102481,1,8,0:0:0:0:
184,208,102659,1,0,0:0:0:0:
184,208,102838,2,0,B|152:232|112:232|112:232|80:264,1,120,4|0,0:0|0:0,0:0:0:0:
64,320,103374,1,4,0:0:0:0:
168,328,103731,2,0,L|288:304,1,120,4|0,0:0|0:0,0:0:0:0:
408,312,104445,2,2,B|384:296|384:296|392:256|368:208,1,120
336,160,104981,5,0,0:0:0:0:
232,224,105338,1,0,0:0:0:0:
120,272,105695,2,0,B|96:208|144:168|144:168|88:96|128:48,1,240,4|0,0:0|0:0,0:0:0:0:
240,104,106767,1,0,0:0:0:0:
232,224,107124,2,0,B|320:280|384:152|464:216,1,240
384,312,108195,1,0,0:0:0:0:
264,320,108552,6,0,L|144:336,2,120
368,264,109624,1,0,0:0:0:0:
368,264,109802,1,0,0:0:0:0:
368,264,109981,2,0,P|312:240|272:184,1,120
156,180,110695,2,0,P|193:133|204:75,1,120
328,72,111409,6,0,L|416:160,1,120
400,280,112124,2,0,P|344:248|312:192,1,120
224,128,112838,2,0,B|248:112|248:112|288:128|360:96,2,120
144,216,113909,1,0,0:0:0:0:
88,328,114267,6,0,P|152:336|208:320,1,120,0|0,0:0|0:0,0:0:0:0:
312,272,114981,1,0,0:0:0:0:
432,280,115338,2,0,P|368:176|256:168,1,240,0|0,0:0|0:0,0:0:0:0:
216,280,116409,1,0,0:0:0:0:
216,280,116588,1,0,0:0:0:0:
216,280,116767,1,0,0:0:0:0:
216,280,116945,1,0,0:0:0:0:
216,280,117124,6,0,P|168:256|128:192,1,120,4|0,0:1|0:0,0:0:0:0:
248,176,117838,2,0,P|307:182|364:166,1,120
472,112,118552,2,0,P|472:176|440:232,2,120,0|0|0,0:0|0:0|0:0,0:0:0:0:
360,152,119624,1,0,0:0:0:0:
248,112,119981,6,0,P|192:144|160:192,1,120,0|0,0:0|0:0,0:0:0:0:
160,312,120695,2,0,P|216:280|248:232,1,120,0|0,0:0|0:0,0:0:0:0:
304,128,121409,2,0,P|352:168|384:232,1,120,0|0,0:0|0:0,0:0:0:0:
312,320,122124,1,0,0:0:0:0:
256,336,122302,1,0,0:0:0:0:
200,328,122481,1,0,0:0:0:0:
88,280,122838,6,0,P|80:224|96:160,1,120
192,88,123552,2,0,P|200:144|184:208,1,120
256,304,124267,1,0,0:0:0:0:
326,205,124624,2,0,P|312:147|320:88,2,120,0|0|4,0:0|0:0|0:1,0:0:0:0:
448,216,125695,6,0,P|432:264|376:312,2,120,4|0|0,0:1|0:0|0:0,0:0:0:0:
384,120,126767,1,0,0:0:0:0:
272,80,127124,1,0,0:0:0:0:
176,152,127481,1,0,0:0:0:0:
112,256,127838,2,0,L|80:312,2,60,0|0|0,0:0|0:0|0:0,0:0:0:0:
224,304,128552,6,0,B|280:304|280:304|288:296|288:296|344:296,1,120,4|0,0:1|0:0,0:0:0:0:
440,224,129267,2,0,B|440:168|440:168|432:160|432:160|432:104,1,120
344,192,129981,2,0,L|224:192,1,120
120,120,130695,1,0,0:0:0:0:
168,80,130874,1,0,0:0:0:0:
224,80,131052,1,0,0:0:0:0:
328,136,131409,6,0,P|360:208|360:264,2,120,0|0|0,0:0|0:0|0:0,0:0:0:0:
256,232,132481,2,0,L|128:272,1,120,0|0,0:0|0:0,0:0:0:0:
64,176,133195,1,0,0:0:0:0:
152,96,133552,1,0,0:0:0:0:
264,136,133909,1,0,0:0:0:0:
200,232,134267,6,0,P|240:272|320:296,1,120,4|0,0:1|0:0,0:0:0:0:
408,248,134981,2,0,P|368:208|288:184,1,120,0|0,0:0|0:0,0:0:0:0:
224,272,135695,1,0,0:0:0:0:
120,208,136052,1,0,0:0:0:0:
184,104,136409,1,0,0:0:0:0:
240,112,136588,1,0,0:0:0:0:
280,160,136767,1,0,0:0:0:0:
384,200,137124,6,0,L|320:336,1,120
216,336,137838,2,0,L|280:200,1,120
200,128,138552,2,0,L|136:264,2,120,4|0|0,0:1|0:0|0:0,0:0:0:0:
304,64,139624,1,4,0:2:0:0:
424,64,139981,6,0,B|424:112|424:112|320:136|272:224,1,240
384,224,141052,1,8,0:0:0:0:
464,288,141409,2,0,L|344:328,1,120,0|8,0:0|0:0,0:0:0:0:
312,216,142124,2,0,L|352:160,2,60,0|0|8,0:0|0:0|0:0,0:0:0:0:
192,232,142838,6,0,P|144:184|128:128,1,120,0|8,0:0|0:0,0:0:0:0:
192,32,143552,2,0,P|240:80|256:136,1,120,0|8,0:0|0:0,0:0:0:0:
192,232,144267,2,0,B|248:272|248:272|264:256|320:248,2,120,0|8|0,0:0|0:0|0:0,0:0:0:0:
104,152,145338,1,8,0:0:0:0:
192,80,145695,6,0,L|320:40,1,120,0|8,0:0|0:0,0:0:0:0:
408,112,146409,2,0,L|280:152,1,120,0|8,0:0|0:0,0:0:0:0:
240,256,147124,2,0,L|368:216,2,120,0|8|0,0:0|0:0|0:0,0:0:0:0:
136,304,148195,1,8,0:0:0:0:
88,192,148552,1,4,0:0:0:0:
256,64,149088,1,4,0:0:0:0:
424,192,149624,1,4,0:0:0:0:
304,240,149981,2,0,P|240:264|200:296,3,120,0|8|0|8,0:0|0:0|0:0|0:0,0:0:0:0:
128,216,151409,6,0,P|144:152|144:72,1,120,0|8,0:0|0:0,0:0:0:0:
248,40,152124,2,0,P|304:80|360:88,1,120,0|8,0:0|0:0,0:0:0:0:
416,192,152838,2,0,L|272:224,1,120,0|8,0:0|0:0,0:0:0:0:
184,240,153552,1,0,0:0:0:0:
120,240,153731,1,0,0:0:0:0:
64,216,153909,1,8,0:0:0:0:
144,144,154267,6,0,P|192:104|264:128,1,120,0|8,0:0|0:0,0:0:0:0:
256,232,154981,2,0,P|313:238|357:199,1,120,0|8,0:0|0:0,0:0:0:0:
440,112,155695,2,0,L|456:248,2,120,0|8|0,0:0|0:0|0:0,0:0:0:0:
357,199,156767,1,8,0:0:0:0:
288,280,157124,6,8,P|280:312|280:352,2,60
357,199,157838,2,0,P|272:160|208:176,1,120,0|8,0:0|0:0,0:0:0:0:
232,280,158552,1,0,0:0:0:0:
136,208,158909,1,8,0:0:0:0:
248,161,159267,1,0,0:0:0:0:
144,96,159624,1,8,0:0:0:0:
264,72,159981,6,0,B|248:136|264:192|264:192|232:248,2,180,4|0|4,0:0|0:0|0:0,0:0:0:0:
384,56,161409,1,0,0:0:0:0:
368,176,161767,2,0,L|344:304,2,120,8|0|8,0:0|0:0|0:0,0:0:0:0:
280,96,162838,1,0,0:0:0:0:
160,120,163195,1,8,0:0:0:0:
232,216,163552,1,0,0:0:0:0:
304,304,163909,2,0,B|360:288|360:288|368:280|368:280|416:264,2,120,8|0|8,0:0|0:0|0:0,0:0:0:0:
192,336,164981,1,4,0:0:0:0:
192,336,165159,1,4,0:0:0:0:
96,184,165695,6,0,P|152:184|208:120,1,120,0|8,0:0|0:0,0:0:0:0:
304,88,166409,2,0,L|296:24,2,60,0|0|8,0:0|0:0|0:0,0:0:0:0:
384,184,167124,2,0,P|328:184|272:248,1,120,0|8,0:0|0:0,0:0:0:0:
360,312,167838,2,0,L|368:376,2,60,0|0|8,0:0|0:0|0:0,0:0:0:0:
240,288,168552,5,0,0:0:0:0:
168,192,168909,1,8,0:0:0:0:
168,192,169087,1,0,0:0:0:0:
168,192,169267,2,0,B|200:160|200:160|232:160|272:120,2,120,0|8|0,0:0|0:0|0:0,0:0:0:0:
264,256,170338,2,0,L|352:360,2,120,8|0|8,0:0|0:0|0:0,0:0:0:0:
360,200,171409,6,0,P|376:136|360:72,1,120,0|8,0:0|0:0,0:0:0:0:
264,144,172124,2,0,P|200:160|136:144,1,120,0|8,0:0|0:0,0:0:0:0:
48,88,172838,2,0,P|37:146|53:204,2,120,0|8|0,0:0|0:0|0:0,0:0:0:0:
160,136,173909,5,8,0:0:0:0:
160,136,174088,1,0,0:0:0:0:
160,136,174267,2,0,L|280:160,1,120,4|0,0:0|0:0,0:0:0:0:
336,136,174802,2,0,B|344:176|344:176|368:200|352:256,2,120,4|0|0,0:0|0:0|0:0,0:0:0:0:
256,48,175874,1,4,0:0:0:0:
256,48,176052,1,4,0:0:0:0:
256,48,176231,1,4,0:0:0:0:
256,48,176409,1,4,0:0:0:0:
88,224,177124,6,0,B|88:264|88:264|200:224|288:264,1,240
400,296,178195,1,0,0:0:0:0:
368,184,178552,2,0,P|328:120|320:40,2,120
283,261,179624,1,0,0:0:0:0:
184,328,179981,6,0,B|152:312|152:312|168:280|128:200,1,120
72,128,180695,2,0,L|200:104,1,120
280,24,181409,2,0,P|312:88|256:184,2,180
184,96,182838,6,0,L|96:208,1,120
152,304,183552,2,0,L|226:209,1,120
296,112,184267,1,0,0:0:0:0:
336,224,184624,1,0,0:0:0:0:
424,144,184981,1,0,0:0:0:0:
464,256,185338,1,0,0:0:0:0:
368,320,185695,6,0,B|304:328|304:328|264:280|112:288,2,240
456,240,187481,1,0,0:0:0:0:
352,184,187838,2,0,P|296:136|288:64,1,120
168,104,188552,5,4,0:1:0:0:
96,200,188909,1,0,0:0:0:0:
192,272,189267,1,0,0:0:0:0:
264,176,189624,1,0,0:0:0:0:
192,80,189981,2,0,P|312:88|384:184,1,240
264,176,191052,5,0,0:0:0:0:
200,280,191409,2,0,L|88:224,1,120
88,104,192124,2,0,L|200:160,1,120
304,112,192838,2,0,B|256:160|344:272|272:344,1,240
192,256,193909,1,0,0:0:0:0:
96,192,194267,6,0,L|40:152,2,60,4|0|0,0:1|0:0|0:0,0:0:0:0:
192,256,194981,2,0,P|216:168|192:128,1,120
112,80,195695,2,0,P|160:40|224:32,1,120
304,104,196409,2,0,B|320:128|320:128|296:184|336:240,1,120
432,168,197124,6,0,L|408:32,1,120,4|0,0:1|0:0,0:0:0:0:
304,104,197838,2,0,L|216:160,2,60
184,72,198552,1,0,0:0:0:0:
168,128,198731,1,0,0:0:0:0:
152,184,198909,1,0,0:0:0:0:
136,240,199088,1,0,0:0:0:0:
120,296,199267,1,4,1:0:0:0:
256,192,199624,12,0,201231,0:0:0:0:
112,240,209981,6,0,P|96:160|144:104,1,120,4|0,0:1|0:0,0:0:0:0:
168,104,210517,2,0,B|208:88|232:72|232:72|256:80|288:80,1,120,4|0,0:1|0:0,0:0:0:0:
328,112,211052,2,2,L|344:240,1,120,6|2,0:1|0:1,0:1:0:0:
256,312,211767,5,0,0:0:0:0:
136,288,212124,1,0,0:0:0:0:
112,168,212481,1,0,0:0:0:0:
208,96,212838,6,0,B|248:48|248:48|304:112|432:136,1,240
472,232,213909,1,8,0:0:0:0:
400,328,214267,2,0,L|312:240,1,120,0|8,0:0|0:0,0:0:0:0:
216,176,214981,2,0,P|184:200|168:240,2,60,0|0|8,0:0|0:0|0:0,0:0:0:0:
312,104,215695,5,0,0:0:0:0:
416,40,216052,1,8,0:0:0:0:
312,104,216409,1,0,0:0:0:0:
200,64,216767,1,8,0:0:0:0:
160,176,217124,2,0,P|128:240|88:280,2,120,0|8|0,0:0|0:0|0:0,0:0:0:0:
200,64,218195,1,8,0:0:0:0:
248,176,218552,6,0,B|264:216|264:216|248:248|264:296,1,120,0|8,0:0|0:0,0:0:0:0:
368,240,219267,2,0,L|344:112,1,120,0|8,0:0|0:0,0:0:0:0:
272,216,219981,2,0,P|224:264|168:288,2,120,0|8|0,0:0|0:0|0:0,0:0:0:0:
200,120,221052,1,8,0:0:0:0:
128,192,221409,5,4,0:0:0:0:
256,56,221945,1,4,0:0:0:0:
376,192,222481,1,4,0:0:0:0:
256,168,222838,2,0,L|256:304,3,120,0|8|0|8,0:0|0:0|0:0|0:0,0:0:0:0:
136,288,224267,5,0,0:0:0:0:
56,200,224624,1,8,0:0:0:0:
168,160,224981,1,0,0:0:0:0:
88,72,225338,1,8,0:0:0:0:
168,160,225695,2,0,L|288:80,1,120,0|8,0:0|0:0,0:0:0:0:
288,208,226409,2,0,P|320:248|408:256,1,120,0|8,0:0|0:0,0:0:0:0:
384,144,227124,5,0,0:0:0:0:
280,80,227481,1,8,0:0:0:0:
256,200,227838,1,0,0:0:0:0:
144,152,228195,1,8,0:0:0:0:
192,264,228552,2,0,P|248:288|312:280,2,120,0|8|0,0:0|0:0|0:0,0:0:0:0:
144,152,229624,1,8,0:0:0:0:
256,88,229981,6,0,P|328:96|384:72,1,120,0|8,0:0|0:0,0:0:0:0:
432,184,230695,2,0,P|400:240|400:304,1,120,0|8,0:0|0:0,0:0:0:0:
288,344,231409,2,0,P|240:304|160:296,1,120,0|8,0:0|0:0,0:0:0:0:
256,192,232124,1,0,0:0:0:0:
256,72,232481,1,8,0:0:0:0:
256,192,232838,12,0,235338,0:0:0:0:
112,96,235695,6,0,L|144:224,1,120,0|8,0:0|0:0,0:0:0:0:
232,136,236409,2,0,L|264:264,1,120,0|8,0:0|0:0,0:0:0:0:
344,328,237124,2,2,B|408:312|408:312|480:232|440:112|440:112|408:136|336:120,1,360
288,216,238552,6,0,L|264:288,2,60,0|0|8,0:0|0:0|0:0,0:0:0:0:
168,248,239267,2,0,L|144:320,2,60,0|0|8,0:0|0:0|0:0,0:0:0:0:
80,184,239981,2,8,P|104:128|168:96,1,120,0|8,0:0|0:0,0:0:0:0:
272,104,240695,2,0,P|248:160|184:192,1,120,0|8,0:0|0:0,0:0:0:0:
96,248,241409,5,4,0:0:0:0:
96,248,241588,1,4,0:0:0:0:
96,248,241767,1,12,0:0:0:0:
96,248,241945,1,4,0:0:0:0:
200,304,242302,1,4,0:0:0:0:
272,208,242659,1,4,0:0:0:0:
176,128,243017,5,0,0:0:0:0:
176,128,243195,1,8,0:0:0:0:
176,128,243374,1,0,0:0:0:0:
176,128,243552,2,0,L|304:80,1,120,4|0,0:0|0:0,0:0:0:0:
368,176,244267,5,4,0:0:0:0:
304,280,244624,1,8,0:0:0:0:
192,232,244981,2,0,L|120:272,2,60,0|0|8,0:0|0:0|0:0,0:0:0:0:
136,128,245695,1,0,0:0:0:0:
256,144,246052,1,8,0:0:0:0:
360,88,246409,2,0,L|424:48,2,60,0|0|8,0:0|0:0|0:0,0:0:0:0:
368,192,247124,5,0,0:0:0:0:
312,296,247481,1,8,0:0:0:0:
312,296,247659,1,0,0:0:0:0:
312,296,247838,2,0,L|232:200,1,120,0|8,0:0|0:0,0:0:0:0:
112,216,248552,2,0,B|144:192|144:192|144:144|192:120,1,120,0|8,0:0|0:0,0:0:0:0:
304,120,249267,2,0,P|296:56|232:24,1,120,0|8,0:0|0:0,0:0:0:0:
192,128,249981,6,0,L|168:256,1,120,0|8,0:0|0:0,0:0:0:0:
256,328,250695,2,0,P|320:312|376:256,1,120,0|8,0:0|0:0,0:0:0:0:
280,192,251409,2,0,P|326:155|385:142,2,120,0|8|0,0:0|0:0|0:0,0:0:0:0:
256,312,252481,5,8,0:0:0:0:
256,312,252659,1,0,0:0:0:0:
256,312,252838,1,4,0:0:0:0:
168,192,253195,2,0,L|208:144,1,60,12|0,0:0|0:0,0:0:0:0:
256,32,253731,1,4,0:0:0:0:
304,144,254088,1,4,0:0:0:0:
256,256,254445,5,4,0:0:0:0:
256,256,254624,1,4,0:0:0:0:
256,256,254802,1,4,0:0:0:0:
256,256,254981,1,4,0:0:0:0:
256,192,255338,12,0,259981,0:0:0:0:
