osu file format v14

[General]
AudioFilename: 01. T.E.B Summer Mix.mp3
AudioLeadIn: 0
PreviewTime: 68583
Countdown: 0
SampleSet: Soft
StackLeniency: 0.4
Mode: 0
LetterboxInBreaks: 1
WidescreenStoryboard: 1

[Editor]
Bookmarks: 8552,64981,89624,118702,129844
DistanceSpacing: 1
BeatDivisor: 2
GridSize: 8
TimelineZoom: 0.8

[Metadata]
Title:Zenmai Koi Tokei (T.E.B. Summer Mix)
TitleUnicode:ゼンマイ恋時計(T.E.B Summer Mix)
Artist:Aki
ArtistUnicode:あき
Creator:El Koko
Version:Hard
Source:Touhou
Tags:touhou eurobeat chen theme koko sumaru100
BeatmapID:487203
BeatmapSetID:204282

[Difficulty]
HPDrainRate:6
CircleSize:3.5
OverallDifficulty:6
ApproachRate:7
SliderMultiplier:1.6
SliderTickRate:1

[Events]
//Background and Video events
0,0,"bce623dbb1679579b755486f91daa540.jpg",0,0
//Break Periods
2,201431,209081
//Storyboard Layer 0 (Background)
//Storyboard Layer 1 (Fail)
//Storyboard Layer 2 (Pass)
//Storyboard Layer 3 (Foreground)
//Storyboard Sound Samples

[TimingPoints]
11410,357.142857142857,4,2,0,100,1,0
22838,-100,4,1,0,100,0,0
33552,-100,4,2,0,100,0,0
53552,-100,4,3,0,100,0,0
68552,-100,4,1,0,100,0,1
93731,-100,4,1,0,100,0,0
104981,-100,4,2,0,100,0,0
116231,-100,4,3,0,100,0,0
139981,-100,4,1,0,100,0,1
165159,-100,4,1,0,100,0,0
177124,-100,4,2,0,100,0,0
188552,-100,4,3,0,100,0,0
212838,-100,4,1,0,100,0,1
232838,-100,4,1,0,100,0,0

[Colours]
Combo1 : 209,46,107
Combo2 : 7,129,194
Combo3 : 193,69,203
Combo4 : 96,57,208

[HitObjects]
72,256,11410,6,0,P|80:217|101:182,1,80,0|0,0:0|0:0,0:0:0:0:
152,120,11767,2,0,P|182:94|219:80,1,80,0|0,0:0|0:0,0:0:0:0:
304,80,12124,2,0,P|344:96|384:136,1,80,0|0,0:0|0:0,0:0:0:0:
424,184,12481,2,0,P|445:221|452:277,1,80,0|0,0:0|0:0,0:0:0:0:
384,304,12838,6,0,P|304:320|224:304,1,160,0|0,0:0|0:0,0:0:0:0:
256,224,13374,2,0,L|360:96,2,160,0|0|0,0:0|0:0|0:0,0:0:0:0:
208,160,14267,6,0,L|272:80,1,80,4|0,0:0|0:0,0:0:0:0:
328,56,14624,1,0,0:0:0:0:
400,80,14802,1,0,0:0:0:0:
448,144,14981,2,0,L|448:248,1,80,0|0,0:0|0:0,0:0:0:0:
432,304,15338,1,0,0:0:0:0:
376,360,15517,1,0,0:0:0:0:
296,360,15695,6,0,P|256:368|184:344,1,80,0|0,0:0|0:0,0:0:0:0:
264,208,16231,2,0,P|224:200|168:216,1,80
152,360,16767,2,0,P|112:368|40:344,1,80,0|0,0:0|0:0,0:0:0:0:
200,280,17124,6,0,P|192:232|168:192,1,80,4|0,0:0|0:0,0:0:0:0:
136,136,17481,1,0,0:0:0:0:
136,136,17660,1,0,0:0:0:0:
177,204,17838,2,0,P|256:232|284:225,1,80,0|0,0:0|0:0,0:0:0:0:
320,200,18195,1,0,0:0:0:0:
320,200,18374,1,0,0:0:0:0:
360,272,18552,6,0,P|400:240|424:192,2,80,0|0|0,0:0|0:0|0:0,0:0:0:0:
320,200,19088,1,0,0:0:0:0:
336,120,19267,2,0,P|376:112|432:128,1,80,0|0,0:0|0:0,0:0:0:0:
440,192,19624,2,0,P|432:248|408:288,1,80
352,216,19981,6,0,P|280:216|244:194,1,80,4|0,0:0|0:0,0:0:0:0:
208,264,20338,1,0,0:0:0:0:
128,256,20517,1,0,0:0:0:0:
96,184,20695,2,0,P|152:144|184:136,1,80,0|0,0:0|0:0,0:0:0:0:
240,144,21052,1,0,0:0:0:0:
304,192,21231,1,0,0:0:0:0:
272,264,21410,2,0,P|256:296|248:344,1,80
256,192,21767,12,0,22659,0:0:0:0:
136,192,22838,6,0,L|178:99,1,80,0|0,0:0|0:0,0:0:0:0:
200,48,23195,1,8,0:0:0:0:
360,56,23552,2,0,L|400:144,1,80,0|0,0:0|0:0,0:0:0:0:
448,184,23910,1,8,0:0:0:0:
368,208,24088,1,0,0:0:0:0:
288,208,24267,6,0,L|230:208,2,40,0|0|0,0:0|0:0|0:0,0:0:0:0:
288,288,24624,1,8,0:0:0:0:
160,200,24981,1,0,0:0:0:0:
88,224,25159,1,0,0:0:0:0:
88,224,25249,1,0,0:0:0:0:
88,224,25338,1,8,0:0:0:0:
80,64,25695,5,0,0:0:0:0:
160,40,25874,1,0,0:0:0:0:
240,40,26052,2,0,P|288:40|336:56,1,80,8|0,0:0|0:0,0:0:0:0:
392,88,26409,1,0,0:0:0:0:
424,160,26588,2,0,L|467:188,2,40,0|0|8,0:0|0:0|0:0,0:0:0:0:
304,56,27124,6,0,P|256:72|210:113,1,80
296,144,27481,2,0,P|312:184|304:232,1,80,8|0,0:0|0:0,0:0:0:0:
232,200,27838,2,0,P|224:250|253:293,1,80
280,344,28195,2,0,P|315:322|344:280,1,80,8|0,0:0|0:0,0:0:0:0:
384,224,28552,5,0,0:0:0:0:
384,224,28731,2,0,L|434:188,2,40,0|0|8,0:0|0:0|0:0,0:0:0:0:
224,256,29267,1,0,0:0:0:0:
224,256,29445,2,0,P|168:288|136:296,2,80,0|8|0,0:0|0:0|0:0,0:0:0:0:
160,208,29981,1,0,0:0:0:0:
160,208,30070,1,0,0:0:0:0:
160,208,30159,1,0,0:0:0:0:
128,136,30338,2,0,L|88:56,2,80,8|0|0,0:0|0:0|0:0,0:0:0:0:
256,200,31052,5,8,0:0:0:0:
216,272,31231,2,0,P|259:279|316:264,1,80
256,120,31767,1,8,0:0:0:0:
256,120,31945,1,4,0:0:0:0:
256,288,32302,1,4,0:0:0:0:
256,120,32659,1,4,0:0:0:0:
256,40,33017,5,4,0:0:0:0:
256,39,33195,1,4,0:0:0:0:
256,39,33374,1,4,0:0:0:0:
256,39,33552,6,0,P|199:46|170:60,1,80,0|0,0:0|0:0,0:0:0:0:
128,120,33909,1,0,0:0:0:0:
120,200,34088,1,0,0:0:0:0:
120,280,34267,2,0,B|176:320|296:320,1,160
352,312,34802,1,0,0:0:0:0:
416,264,34981,2,0,P|431:163|294:98,1,240,0|0,0:0|0:0,0:0:0:0:
256,128,35695,5,0,0:0:0:0:
399,192,36052,1,0,0:0:0:0:
256,128,36409,1,0,0:0:0:0:
399,192,36767,1,0,0:0:0:0:
288,312,37124,6,0,P|223:340|115:304,1,160
128,240,37659,1,0,0:0:0:0:
56,184,37838,2,0,P|128:152|208:184,1,160,0|0,0:0|0:0,0:0:0:0:
128,240,38374,1,0,0:0:0:0:
128,240,38552,1,0,0:0:0:0:
56,96,38909,5,0,0:0:0:0:
120,144,39088,1,0,0:0:0:0:
184,192,39267,2,0,P|224:160|240:128,1,80,0|0,0:0|0:0,0:0:0:0:
184,72,39624,1,0,0:0:0:0:
184,72,39802,1,0,0:0:0:0:
304,48,39981,6,0,P|375:55|448:144,1,160
432,192,40517,1,0,0:0:0:0:
400,264,40695,2,0,P|312:288|168:208,1,240
182,227,41409,5,0,0:0:0:0:
104,88,41767,1,0,0:0:0:0:
256,144,42124,1,0,0:0:0:0:
400,64,42481,1,0,0:0:0:0:
96,224,42838,6,0,P|176:264|272:248,1,160
248,176,43374,1,0,0:0:0:0:
312,224,43552,2,0,L|376:280,2,80,0|0|0,0:0|0:0|0:0,0:0:0:0:
248,176,44088,6,0,P|192:112|296:48,1,240
336,120,44802,2,0,L|360:160,2,40,0|0|0,0:0|0:0|0:0,0:0:0:0:
264,152,45159,1,0,0:0:0:0:
232,224,45338,1,0,0:0:0:0:
280,288,45517,1,0,0:0:0:0:
320,216,45695,6,0,P|416:208|392:336,1,240,4|0,0:0|0:0,0:0:0:0:
336,328,46409,2,0,P|248:272|208:112,1,240,0|2,0:0|0:0,0:0:0:0:
240,72,47124,1,0,0:0:0:0:
400,104,47481,1,0,0:0:0:0:
304,232,47838,1,0,0:0:0:0:
448,304,48195,1,0,0:0:0:0:
296,352,48552,6,0,P|224:337|144:288,1,160,0|0,3:0|0:0,0:0:0:0:
88,240,49088,1,0,0:0:0:0:
80,160,49267,2,0,P|130:116|168:104,1,80
224,104,49624,1,0,0:0:0:0:
304,120,49802,1,0,3:0:0:0:
368,168,49981,6,0,B|384:200|396:247|400:264,1,80,0|0,3:0|0:0,0:0:0:0:
384,320,50338,1,0,0:0:0:0:
312,360,50517,1,0,0:0:0:0:
232,360,50695,2,0,P|192:344|160:320,1,80,0|0,0:0|0:0,0:0:0:0:
224,272,51052,2,0,P|224:232|208:184,1,80,0|0,0:0|0:0,0:0:0:0:
128,152,51409,6,0,P|192:120|288:136,1,160
352,96,51945,1,0,0:0:0:0:
344,176,52124,2,0,P|336:248|352:352,1,160,0|0,0:0|3:0,0:0:0:0:
264,328,52659,1,0,0:0:0:0:
264,328,52838,1,0,0:0:0:0:
128,240,53195,1,0,0:0:0:0:
280,192,53552,6,0,L|338:192,2,40,0|0|0,0:0|0:0|0:0,3:0:0:0:
248,120,53909,1,0,3:0:0:0:
192,64,54088,1,0,3:0:0:0:
112,64,54267,6,0,P|88:88|69:143,1,80
64,208,54624,1,0,0:0:0:0:
112,272,54802,1,0,0:0:0:0:
184,304,54981,2,0,P|240:320|288:320,1,80,0|0,0:0|0:0,0:0:0:0:
344,336,55338,1,0,0:0:0:0:
424,320,55517,1,0,0:0:0:0:
440,240,55695,2,0,P|448:192|432:128,1,80
432,80,56052,1,0,0:0:0:0:
352,88,56231,6,0,L|312:40,4,40,0|0|0|0|0,0:0|0:0|0:0|0:0|0:0,0:0:0:0:
296,144,56767,2,0,L|248:160,2,40,0|0|0,0:0|0:0|0:0,0:0:0:0:
248,232,57124,6,0,P|288:232|344:208,1,80,4|0,0:1|0:0,0:0:0:0:
400,192,57481,1,0,0:0:0:0:
440,120,57659,2,0,P|368:88|288:104,1,160
288,184,58195,2,0,P|256:208|200:224,2,80,0|0|0,0:0|0:0|0:0,0:0:0:0:
352,136,58731,5,0,0:0:0:0:
368,56,58909,2,0,P|328:48|280:48,1,80
208,48,59267,2,0,P|168:48|128:56,1,80
120,136,59624,2,0,P|128:184|144:216,1,80
168,328,59981,6,0,P|224:336|278:330,1,80,0|0,0:0|0:0,0:0:0:0:
336,328,60338,1,0,0:0:0:0:
416,304,60517,2,0,P|423:246|376:152,1,160,0|0,0:0|0:0,0:0:0:0:
328,216,61052,2,0,P|280:208|232:184,1,80
208,128,61409,5,0,0:0:0:0:
352,64,61767,1,0,0:0:0:0:
208,128,62124,1,0,0:0:0:0:
64,64,62481,1,0,0:0:0:0:
80,224,62838,6,0,P|96:272|120:304,1,80,4|0,0:1|0:0,0:0:0:0:
192,312,63195,1,0,0:0:0:0:
272,312,63374,2,0,P|336:304|416:232,1,160
456,176,63909,1,0,0:0:0:0:
432,96,64088,1,0,0:0:0:0:
320,232,64267,6,0,P|360:240|400:232,1,80,0|0,0:0|0:0,0:0:0:0:
456,176,64624,2,0,P|464:136|456:96,1,80,0|0,0:0|0:0,0:0:0:0:
400,40,64981,2,0,P|360:32|320:40,1,80,0|0,0:0|0:0,0:0:0:0:
272,104,65338,2,0,P|264:144|272:184,1,80,0|0,0:0|0:0,0:0:0:0:
360,104,65695,5,0,0:0:0:0:
208,144,66052,1,0,0:0:0:0:
360,200,66409,1,0,0:0:0:0:
208,144,66767,1,0,0:0:0:0:
360,88,67124,1,4,0:0:0:0:
208,144,67481,1,4,0:0:0:0:
264,296,67838,6,0,L|304:328,2,40,0|0|0,0:0|0:0|0:0,0:0:0:0:
184,288,68195,2,0,L|176:328,2,40,0|0|0,0:0|0:0|0:0,0:0:0:0:
160,184,68552,6,0,P|195:119|288:96,1,160,0|8,0:0|0:0,0:0:0:0:
352,112,69088,1,0,0:0:0:0:
416,160,69267,2,0,P|423:210|352:304,1,160,0|8,0:0|0:0,0:0:0:0:
296,336,69802,1,0,0:0:0:0:
216,344,69981,6,0,P|176:352|112:320,1,80,0|0,0:0|0:0,0:0:0:0:
72,296,70338,1,8,0:0:0:0:
72,296,70517,1,0,0:0:0:0:
128,240,70695,2,0,P|168:232|216:240,1,80,0|0,0:0|0:0,0:0:0:0:
288,256,71052,2,0,P|328:232|360:192,1,80,8|0,0:0|0:0,0:0:0:0:
336,88,71409,6,0,P|296:112|264:152,1,80,0|0,0:0|0:0,0:0:0:0:
208,184,71767,1,8,0:0:0:0:
176,256,71945,1,0,0:0:0:0:
216,328,72124,2,0,P|256:344|312:336,1,80
352,288,72481,2,0,L|432:240,2,80,8|0|0,0:0|0:0|0:0,0:0:0:0:
272,304,73017,1,0,0:0:0:0:
192,296,73195,2,0,L|112:248,1,80,8|0,0:0|0:0,0:0:0:0:
72,192,73552,1,0,0:0:0:0:
224,152,73909,1,8,0:0:0:0:
272,304,74267,6,0,P|336:275|384:192,1,160,0|8,0:0|0:0,0:0:0:0:
384,112,74802,1,0,0:0:0:0:
312,72,74981,2,0,P|261:107|216:216,1,160,0|8,0:0|0:0,0:0:0:0:
392,208,75695,6,0,P|384:157|368:120,1,80
336,56,76052,1,8,0:0:0:0:
264,88,76231,1,0,0:0:0:0:
200,136,76409,2,0,P|142:150|106:136,1,80,0|0,0:0|0:0,0:0:0:0:
56,192,76767,1,8,0:0:0:0:
104,256,76945,1,0,0:0:0:0:
184,256,77124,6,0,P|263:220|335:270,1,160,0|8,0:0|0:0,0:0:0:0:
256,304,77659,2,0,P|320:347|421:318,1,160,0|0,0:0|0:0,0:0:0:0:
432,264,78195,2,0,P|446:184|367:112,1,160,8|0,0:0|0:0,0:0:0:0:
256,184,78909,2,0,L|256:224,8,40,0|0|0|0|0|0|0|0|0,0:0|0:0|0:0|0:0|0:0|0:0|0:0|0:0|0:0,0:0:0:0:
256,352,79981,6,0,P|216:360|112:296,1,160,0|8,0:0|0:0,0:0:0:0:
96,224,80517,1,0,0:0:0:0:
96,144,80695,2,0,P|144:96|240:72,1,160,0|8,0:0|0:0,0:0:0:0:
296,120,81231,1,0,0:0:0:0:
400,64,81409,6,0,P|418:99|430:137,1,80,0|0,0:0|0:0,0:0:0:0:
432,216,81767,2,0,P|416:264|384:312,1,80,8|0,0:0|0:0,0:0:0:0:
344,232,82124,2,0,L|240:232,1,80,0|0,0:0|0:0,0:0:0:0:
288,312,82481,2,0,L|208:312,1,80,8|0,0:0|0:0,0:0:0:0:
104,272,82838,6,0,P|96:224|112:178,1,80,0|0,0:0|0:0,0:0:0:0:
168,144,83195,1,8,0:0:0:0:
232,88,83374,1,0,0:0:0:0:
160,56,83552,2,0,P|96:88|64:120,1,80,0|0,0:0|0:0,0:0:0:0:
80,176,83909,1,8,0:0:0:0:
112,248,84088,1,0,0:0:0:0:
176,296,84267,2,0,P|244:321|264:320,1,80
328,320,84624,2,0,P|368:313|403:294,1,80,8|0,0:0|0:0,0:0:0:0:
440,224,84981,2,0,P|432:168|352:96,1,160,0|8,0:0|0:0,0:0:0:0:
256,216,85695,5,0,0:0:0:0:
256,216,85874,1,0,0:0:0:0:
256,216,86052,2,0,L|156:187,1,80,8|0,0:0|0:0,0:0:0:0:
168,272,86409,2,0,P|104:256|48:184,1,160,0|8,0:0|0:0,0:0:0:0:
156,62,87124,6,0,P|224:80|240:88,1,80
304,136,87481,1,8,0:0:0:0:
352,208,87659,1,0,0:0:0:0:
296,272,87838,2,0,P|248:264|208:232,1,80,0|0,0:0|0:0,0:0:0:0:
192,176,88195,1,8,0:0:0:0:
240,112,88374,1,0,0:0:0:0:
184,56,88552,6,0,P|128:88|80:168,1,160,0|8,0:0|0:0,0:0:0:0:
80,248,89088,2,0,P|118:317|185:360,1,160
264,360,89624,2,0,P|331:317|369:247,1,160,8|0,0:0|0:0,0:0:0:0:
256,136,90338,1,0,0:0:0:0:
256,136,90427,1,0,0:0:0:0:
256,136,90517,1,0,0:0:0:0:
256,136,90606,1,0,0:0:0:0:
256,136,90695,1,0,0:0:0:0:
256,136,90784,1,0,0:0:0:0:
256,136,90874,1,0,0:0:0:0:
256,136,90963,1,0,0:0:0:0:
256,136,91052,1,0,0:0:0:0:
160,264,91409,6,0,L|104:200,1,80,0|0,0:0|0:0,0:0:0:0:
192,184,91767,2,0,L|248:128,1,80,8|0,0:0|0:0,0:0:0:0:
152,112,92124,2,0,L|96:48,1,80,0|0,0:0|0:0,0:0:0:0:
176,24,92481,1,8,0:0:0:0:
256,48,92659,1,0,0:0:0:0:
328,80,92838,2,0,P|350:151|343:187,1,80,0|0,0:0|0:0,0:0:0:0:
328,232,93195,1,8,0:0:0:0:
256,272,93374,1,0,0:0:0:0:
256,192,93552,5,4,0:0:0:0:
256,192,93731,1,4,0:0:0:0:
256,48,94267,6,0,P|327:55|368:75,1,80,0|0,0:0|0:0,0:0:0:0:
408,88,94624,1,8,0:0:0:0:
280,184,94981,1,0,0:0:0:0:
208,144,95159,1,0,0:0:0:0:
128,128,95338,2,0,P|96:160|80:192,1,80,8|0,0:0|0:0,0:0:0:0:
96,272,95695,6,0,L|132:315,2,40,0|0|0,0:0|0:0|0:0,0:0:0:0:
176,248,96052,1,8,0:0:0:0:
312,328,96409,1,0,0:0:0:0:
376,272,96588,1,0,0:0:0:0:
376,272,96677,1,0,0:0:0:0:
376,272,96767,1,8,0:0:0:0:
328,208,96945,1,0,0:0:0:0:
376,144,97124,5,0,0:0:0:0:
328,80,97302,2,0,L|328:32,2,40,0|0|8,0:0|0:0|0:0,0:0:0:0:
168,112,97838,2,0,P|136:176|136:208,1,80
104,256,98195,1,8,0:0:0:0:
136,328,98374,1,0,0:0:0:0:
216,360,98552,2,0,P|273:338|296:312,1,80,0|0,0:0|0:0,0:0:0:0:
232,264,98909,2,0,P|263:235|304:225,1,80,8|0,0:0|0:0,0:0:0:0:
376,256,99267,5,0,0:0:0:0:
376,256,99445,1,0,0:0:0:0:
376,256,99624,1,8,0:0:0:0:
376,256,99802,1,0,0:0:0:0:
312,200,99981,5,0,0:0:0:0:
352,128,100159,2,0,L|388:92,2,40,0|0|8,0:0|0:0|0:0,0:0:0:0:
200,96,100695,1,0,0:0:0:0:
200,96,100874,1,0,0:0:0:0:
168,168,101052,1,8,0:0:0:0:
168,168,101231,1,0,0:0:0:0:
136,240,101409,5,0,0:0:0:0:
136,240,101499,1,0,0:0:0:0:
136,240,101588,1,0,0:0:0:0:
72,192,101767,2,0,P|101:156|144:142,1,80,8|0,0:0|0:0,0:0:0:0:
184,200,102124,1,0,0:0:0:0:
256,240,102302,1,0,0:0:0:0:
256,160,102481,6,0,L|256:67,2,80,8|0|0,0:0|0:0|0:0,0:0:0:0:
256,320,103195,1,8,0:0:0:0:
256,320,103374,1,0,0:0:0:0:
176,184,103731,1,0,0:0:0:0:
336,184,104088,1,0,0:0:0:0:
192,120,104445,5,4,0:0:0:0:
256,72,104624,1,4,0:0:0:0:
328,112,104802,1,4,0:0:0:0:
256,72,104981,2,0,L|256:165,1,80,4|0,0:0|0:0,0:0:0:0:
296,224,105338,1,0,0:0:0:0:
216,224,105517,1,0,0:0:0:0:
256,296,105695,6,0,P|168:344|72:264,1,240
168,264,106409,2,0,B|280:160|200:32,1,240
144,96,107124,1,0,0:0:0:0:
64,240,107481,1,0,0:0:0:0:
224,240,107838,1,0,0:0:0:0:
144,96,108195,1,0,0:0:0:0:
296,56,108552,6,0,P|360:112|400:192,1,160,0|0,0:0|0:0,0:0:0:0:
376,256,109088,1,0,0:0:0:0:
320,312,109267,2,0,P|240:312|160:272,1,160
120,216,109802,1,0,0:0:0:0:
120,216,109981,1,0,0:0:0:0:
256,104,110338,5,0,0:0:0:0:
176,128,110517,1,0,0:0:0:0:
112,176,110695,2,0,P|88:200|64:240,1,80,0|0,0:0|0:0,0:0:0:0:
80,320,111052,1,0,0:0:0:0:
144,368,111231,1,0,0:0:0:0:
224,352,111409,6,0,P|296:320|328:240,1,160
240,264,111945,1,0,0:0:0:0:
152,272,112124,2,0,P|184:200|255:169,1,160
255,168,112659,1,0,0:0:0:0:
304,232,112838,2,0,P|310:268|296:328,1,80,0|0,0:0|0:0,0:0:0:0:
208,310,113195,2,0,P|201:271|208:232,1,80,0|0,0:0|0:0,0:0:0:0:
256,168,113552,1,0,0:0:0:0:
112,248,113909,1,0,0:0:0:0:
64,176,114267,6,0,P|136:89|208:80,1,160
256,88,114802,1,0,0:0:0:0:
296,160,114981,2,0,P|256:168|200:152,1,80,0|0,0:0|0:0,0:0:0:0:
144,192,115338,1,0,0:0:0:0:
200,248,115517,2,0,P|312:272|424:192,1,240
344,168,116231,6,0,L|296:208,2,40,0|0|0,0:0|0:0|0:0,0:0:0:0:
280,112,116588,1,0,0:0:0:0:
216,56,116767,2,0,L|248:32,2,40,0|0|0,0:0|0:0|0:0,0:0:0:0:
120,104,117124,6,0,P|88:184|88:256,1,160,0|0,0:0|0:0,0:0:0:0:
144,312,117659,1,0,0:0:0:0:
224,296,117838,2,0,P|256:216|256:144,1,160,0|0,0:0|0:0,0:0:0:0:
255,143,118374,1,0,0:0:0:0:
255,143,118552,5,0,0:0:0:0:
408,192,118909,1,0,0:0:0:0:
272,280,119267,1,0,0:0:0:0:
176,152,119624,1,0,0:0:0:0:
80,280,119981,6,0,P|152:312|256:304,1,160
288,248,120517,1,0,0:0:0:0:
320,176,120695,2,0,P|296:144|256:112,1,80
184,120,121052,2,0,P|153:145|129:177,1,80,0|0,0:0|0:0,0:0:0:0:
224,240,121409,5,0,0:0:0:0:
224,240,121588,1,0,0:0:0:0:
184,312,121767,2,0,P|224:320|280:304,1,80
328,264,122124,1,0,0:0:0:0:
368,200,122302,2,0,L|400:160,4,40,0|0|0|0|0,0:0|0:0|0:0|0:0|0:0,0:0:0:0:
272,128,122838,6,0,P|208:80|120:80,1,160
88,144,123374,1,0,0:0:0:0:
112,224,123552,2,0,P|176:280|248:304,1,160
320,272,124088,1,0,0:0:0:0:
384,224,124267,2,0,P|383:172|370:109,1,80,0|0,0:0|0:0,0:0:0:0:
288,64,124624,5,0,0:0:0:0:
288,64,124802,1,0,0:0:0:0:
240,128,124981,2,0,L|240:185,2,40,4|0|0,0:1|0:0|0:0,0:0:0:0:
160,152,125338,2,0,L|160:209,2,40,4|0|0,0:1|0:0|0:0,0:0:0:0:
88,240,125695,6,0,P|80:192|88:144,1,80,0|0,0:0|0:0,0:0:0:0:
104,80,126052,1,0,0:0:0:0:
176,48,126231,1,0,0:0:0:0:
256,32,126409,2,0,P|296:32|344:40,1,80,0|0,0:0|0:0,0:0:0:0:
400,88,126767,2,0,P|408:144|400:184,1,80,0|0,0:0|0:0,0:0:0:0:
360,280,127124,5,0,0:0:0:0:
280,296,127302,1,0,0:0:0:0:
232,232,127481,1,0,0:0:0:0:
296,184,127659,2,0,L|320:136,4,40,0|0|0|0|0,0:0|0:0|0:0|0:0|0:0,0:0:0:0:
216,200,128195,2,0,L|188:243,2,40,0|0|0,0:0|0:0|0:0,0:0:0:0:
232,120,128552,6,0,P|272:120|341:127,1,80
368,176,128909,1,0,0:0:0:0:
408,248,129088,2,0,P|368:256|312:248,1,80,0|0,0:0|0:0,0:0:0:0:
256,288,129445,1,0,0:0:0:0:
184,256,129624,1,0,0:0:0:0:
104,264,129802,1,0,0:0:0:0:
56,152,129981,6,0,P|48:112|48:48,1,80
128,80,130338,2,0,P|136:120|136:184,1,80,0|0,0:0|0:0,0:0:0:0:
160,232,130695,2,0,P|200:248|240:248,1,80,0|0,0:0|0:0,0:0:0:0:
312,224,131052,1,0,0:0:0:0:
368,168,131231,1,0,0:0:0:0:
272,96,131409,6,0,P|224:104|184:128,1,80
128,168,131767,1,0,0:0:0:0:
120,248,131945,2,0,P|164:305|264:341,1,160,0|0,0:0|0:0,0:0:0:0:
243,339,132481,1,0,0:0:0:0:
243,339,132659,1,0,0:0:0:0:
328,256,132838,6,0,P|368:240|400:216,1,80
328,168,133195,2,0,P|304:136|288:96,1,80
376,96,133552,2,0,P|416:80|456:80,1,80
432,160,133909,2,0,P|448:200|446:260,1,80,0|0,0:0|0:0,0:0:0:0:
312,240,134267,6,0,P|294:204|290:164,1,80,0|0,0:0|0:0,0:0:0:0:
360,120,134624,1,4,0:1:0:0:
432,160,134802,2,0,P|428:202|408:239,1,80,0|0,0:0|0:0,0:0:0:0:
360,296,135159,1,0,0:0:0:0:
288,336,135338,2,0,P|240:336|192:312,1,80
160,216,135695,5,0,0:0:0:0:
160,216,135874,1,0,0:0:0:0:
88,176,136052,2,0,P|145:132|181:125,1,80
232,152,136409,1,0,0:0:0:0:
232,152,136588,1,0,0:0:0:0:
312,136,136767,2,0,P|355:100|376:56,1,80,0|0,0:0|0:0,0:0:0:0:
448,80,137124,5,0,0:0:0:0:
336,192,137481,1,0,0:0:0:0:
224,80,137838,1,0,0:0:0:0:
104,192,138195,1,0,0:0:0:0:
224,80,138552,1,4,0:0:0:0:
336,192,138909,1,0,0:0:0:0:
224,304,139267,1,0,0:0:0:0:
104,192,139624,1,0,0:0:0:0:
264,40,139981,6,2,P|344:80|408:232,1,240,0|0,0:0|0:0,0:0:0:0:
312,168,140695,1,0,0:0:0:0:
216,144,140874,2,2,P|237:209|338:281,1,160
408,256,141409,5,0,0:0:0:0:
408,256,141588,1,0,0:0:0:0:
344,200,141767,1,8,0:0:0:0:
344,200,141945,1,0,0:0:0:0:
416,168,142124,2,0,P|444:110|445:64,1,80,0|0,0:0|0:0,0:0:0:0:
376,56,142481,1,8,0:0:0:0:
296,72,142659,1,0,0:0:0:0:
184,112,142838,6,0,P|144:128|112:152,1,80
64,208,143195,1,8,0:0:0:0:
88,288,143374,1,0,0:0:0:0:
144,344,143552,2,0,P|183:358|225:359,1,80
288,312,143909,1,8,0:0:0:0:
304,232,144088,1,0,0:0:0:0:
240,184,144267,2,0,P|297:133|319:126,1,80
376,152,144624,1,8,0:0:0:0:
424,216,144802,1,0,0:0:0:0:
400,296,144981,2,0,P|349:317|213:310,1,160,0|8,0:0|0:0,0:0:0:0:
128,192,145695,5,0,0:0:0:0:
128,192,145874,1,0,0:0:0:0:
128,192,146052,1,8,0:0:0:0:
128,192,146231,1,0,0:0:0:0:
128,192,146409,2,0,P|178:242|294:278,1,160,0|8,0:0|0:0,0:0:0:0:
400,200,147124,5,0,0:0:0:0:
384,280,147302,1,0,0:0:0:0:
336,344,147481,2,0,P|264:344|224:336,1,80,8|0,0:0|0:0,0:0:0:0:
176,336,147838,1,0,0:0:0:0:
112,288,148017,1,0,0:0:0:0:
56,232,148195,2,0,P|56:184|72:136,1,80,8|0,0:0|0:0,0:0:0:0:
168,96,148552,6,0,P|248:96|320:144,1,160
264,200,149088,2,0,P|184:200|112:152,1,160,0|0,0:0|0:0,0:0:0:0:
144,80,149624,2,0,L|252:58,2,80,8|0|0,0:0|0:0|0:0,0:0:0:0:
256,192,150338,2,0,L|304:152,8,40,0|0|0|0|0|0|0|0|0,0:0|0:0|0:0|0:0|0:0|0:0|0:0|0:0|0:0,0:0:0:0:
432,96,151409,6,0,P|432:175|418:197,1,80,0|0,0:0|0:0,0:0:0:0:
408,248,151767,1,8,0:0:0:0:
352,304,151945,1,0,0:0:0:0:
296,248,152124,2,0,P|272:200|264:152,1,80
248,96,152481,1,8,0:0:0:0:
192,40,152659,1,0,0:0:0:0:
112,128,152838,6,0,P|126:186|155:222,1,80
160,280,153195,1,8,0:0:0:0:
224,328,153374,1,0,0:0:0:0:
304,336,153552,2,0,P|344:312|368:280,1,80,0|0,0:0|0:0,0:0:0:0:
400,216,153909,1,8,0:0:0:0:
400,216,154088,1,0,0:0:0:0:
408,96,154267,6,0,P|368:72|328:64,1,80,0|0,0:0|0:0,0:0:0:0:
256,64,154624,1,8,0:0:0:0:
176,80,154802,1,0,0:0:0:0:
112,128,154981,2,0,P|112:168|128:216,1,80,0|0,0:0|0:0,0:0:0:0:
176,264,155338,1,8,0:0:0:0:
256,240,155517,1,0,0:0:0:0:
336,216,155695,2,0,P|328:280|312:312,1,80,0|0,0:0|0:0,0:0:0:0:
256,336,156052,1,8,0:0:0:0:
184,296,156231,1,0,0:0:0:0:
120,248,156409,2,0,P|98:190|149:89,1,160,0|8,0:0|0:0,0:0:0:0:
320,56,157124,5,0,0:0:0:0:
320,56,157302,1,0,0:0:0:0:
320,56,157481,2,0,P|370:99|384:135,2,80,8|0|0,0:0|0:0|0:0,0:0:0:0:
232,56,158017,2,0,P|189:92|167:128,2,80,0|8|0,0:0|0:0|0:0,0:0:0:0:
352,64,158552,5,0,0:0:0:0:
352,144,158731,1,0,0:0:0:0:
320,216,158909,2,0,P|272:216|216:208,1,80,8|0,0:0|0:0,0:0:0:0:
168,176,159267,1,0,0:0:0:0:
104,128,159445,1,0,0:0:0:0:
56,192,159624,2,0,P|64:240|80:272,1,80,8|0,0:0|0:0,0:0:0:0:
160,256,159981,6,0,P|224:288|328:272,1,160,0|8,0:0|0:0,0:0:0:0:
248,208,160517,2,0,P|284:129|352:72,1,160
384,144,161052,2,0,P|408:216|392:296,1,160,8|0,0:0|0:0,0:0:0:0:
272,272,161767,1,0,0:0:0:0:
272,272,161856,1,0,0:0:0:0:
272,272,161946,1,0,0:0:0:0:
272,272,162035,1,0,0:0:0:0:
272,272,162124,1,0,0:0:0:0:
272,272,162214,1,0,0:0:0:0:
272,272,162303,1,0,0:0:0:0:
272,272,162392,1,0,0:0:0:0:
272,272,162481,1,0,0:0:0:0:
272,272,162838,6,0,P|257:215|229:186,1,80,0|0,0:0|0:0,0:0:0:0:
184,256,163195,1,8,0:0:0:0:
136,192,163374,1,0,0:0:0:0:
176,128,163552,2,0,P|216:112|280:112,1,80,0|0,0:0|0:0,0:0:0:0:
328,136,163909,1,8,0:0:0:0:
368,208,164088,1,0,0:0:0:0:
392,288,164267,2,0,P|341:346|312:368,1,80
256,352,164624,1,8,0:0:0:0:
256,192,164981,5,4,0:0:0:0:
256,192,165159,1,4,0:0:0:0:
64,344,165695,6,0,P|86:279|115:251,1,80,4|0,0:0|0:0,0:0:0:0:
160,328,166052,1,8,0:0:0:0:
320,352,166409,2,0,P|298:287|269:259,1,80,4|0,0:0|0:0,0:0:0:0:
224,328,166766,1,8,0:0:0:0:
184,256,166945,1,0,0:0:0:0:
248,208,167124,6,0,L|320:208,2,40,0|0|0,0:0|0:0|0:0,0:0:0:0:
184,256,167481,1,8,0:0:0:0:
120,112,167838,1,0,0:0:0:0:
168,48,168017,1,0,0:0:0:0:
168,48,168106,1,0,0:0:0:0:
168,48,168195,1,8,0:0:0:0:
256,208,168552,5,0,0:0:0:0:
192,264,168731,2,0,L|163:300,2,40,0|0|8,0:0|0:0|0:0,0:0:0:0:
256,208,169088,1,0,0:0:0:0:
256,208,169267,1,0,0:0:0:0:
320,264,169445,2,0,L|349:300,2,40,0|0|8,0:0|0:0|0:0,0:0:0:0:
256,208,169802,1,0,0:0:0:0:
256,120,169981,5,0,0:0:0:0:
256,120,170159,1,0,0:0:0:0:
216,48,170338,2,0,P|256:40|312:56,1,80,8|0,0:0|0:0,0:0:0:0:
344,112,170695,1,0,0:0:0:0:
344,112,170874,1,0,0:0:0:0:
368,192,171052,1,8,0:0:0:0:
368,192,171231,1,0,0:0:0:0:
336,320,171409,5,0,0:0:0:0:
256,304,171588,2,0,L|208:352,2,40,0|0|8,0:0|0:0|0:0,0:0:0:0:
136,192,172124,1,0,0:0:0:0:
136,192,172302,1,0,0:0:0:0:
136,192,172481,2,0,P|184:136|216:120,1,80,8|0,0:0|0:0,0:0:0:0:
312,128,172838,5,0,0:0:0:0:
312,128,172927,1,0,0:0:0:0:
312,128,173017,1,0,0:0:0:0:
312,208,173195,1,8,0:0:0:0:
440,296,173552,1,0,0:0:0:0:
376,344,173731,1,0,0:0:0:0:
296,352,173909,6,0,P|256:360|216:352,1,80,8|0,0:0|0:0,0:0:0:0:
256,280,174267,1,0,0:0:0:0:
256,120,174624,1,8,0:0:0:0:
256,120,174802,1,0,0:0:0:0:
112,192,175159,1,4,0:0:0:0:
400,192,175517,1,4,0:0:0:0:
256,288,175874,5,4,0:0:0:0:
256,288,176052,1,4,0:0:0:0:
256,288,176231,1,4,0:0:0:0:
256,288,176409,1,4,0:0:0:0:
448,264,177124,6,0,P|384:320|296:320,1,160,0|0,0:0|0:0,0:0:0:0:
224,320,177659,1,0,0:0:0:0:
152,288,177838,2,0,P|131:237|124:180,1,80
200,192,178195,1,0,0:0:0:0:
256,256,178374,1,0,0:0:0:0:
344,256,178552,6,0,P|400:192|392:88,1,160,0|0,0:0|0:0,0:0:0:0:
328,88,179088,1,0,0:0:0:0:
248,64,179267,2,0,P|208:80|169:121,1,80,0|0,0:0|0:0,0:0:0:0:
112,144,179624,1,0,0:0:0:0:
112,144,179802,1,0,0:0:0:0:
83,220,179981,6,0,P|140:314|216:336,1,160,0|0,0:0|0:0,0:0:0:0:
240,272,180517,1,0,0:0:0:0:
296,336,180695,2,0,P|363:295|395:223,1,160,0|0,0:0|0:0,0:0:0:0:
304,240,181231,1,0,0:0:0:0:
304,240,181409,2,0,P|261:176|233:75,2,160,0|0|0,0:0|0:0|0:0,0:0:0:0:
176,344,182481,1,0,0:0:0:0:
48,248,182838,6,0,P|62:184|84:141,1,80
136,216,183195,1,0,0:0:0:0:
136,216,183374,1,0,0:0:0:0:
216,200,183552,2,0,P|176:136|144:112,1,80
96,144,183909,1,0,0:0:0:0:
56,216,184088,1,0,0:0:0:0:
72,296,184267,6,0,P|152:328|232:320,1,160,0|0,0:0|0:0,0:0:0:0:
216,240,184802,1,0,0:0:0:0:
256,168,184981,2,0,P|320:168|356:190,1,80
400,224,185338,1,0,0:0:0:0:
400,224,185517,1,0,0:0:0:0:
440,296,185695,6,0,P|382:339|274:353,1,160,0|0,0:0|0:0,0:0:0:0:
216,328,186231,1,0,0:0:0:0:
144,280,186409,2,0,P|122:222|122:172,2,80,0|0|0,0:0|0:0|0:0,0:0:0:0:
216,328,186945,1,0,0:0:0:0:
296,312,187124,2,0,P|324:254|317:132,1,160
256,96,187659,1,0,0:0:0:0:
328,48,187838,2,0,L|421:48,2,80,0|0|0,0:0|0:0|0:0,0:0:0:0:
168,80,188552,6,0,P|183:130|272:208,1,160,4|0,0:1|0:0,0:0:0:0:
320,152,189088,1,0,0:0:0:0:
400,160,189267,2,0,P|376:216|296:288,1,160,0|0,0:0|0:0,0:0:0:0:
240,336,189802,1,0,0:0:0:0:
160,344,189981,2,0,P|120:304|80:200,1,160
200,96,190695,1,0,0:0:0:0:
304,216,191052,1,0,0:0:0:0:
200,320,191409,6,0,P|136:272|104:192,1,160,0|0,0:0|0:0,0:0:0:0:
120,120,191945,1,0,0:0:0:0:
184,72,192124,2,0,P|232:104|288:200,1,160,0|0,0:0|0:0,0:0:0:0:
248,264,192659,1,0,0:0:0:0:
288,336,192838,2,0,P|352:360|448:320,1,160
368,184,193552,6,0,L|440:184,2,40,0|0|0,0:0|0:0|0:0,0:0:0:0:
312,248,193909,2,0,L|254:248,2,40,0|0|0,0:0|0:0|0:0,0:0:0:0:
328,328,194267,6,0,L|235:328,1,80,4|0,0:1|0:0,0:0:0:0:
176,296,194624,1,0,0:0:0:0:
128,232,194802,1,0,0:0:0:0:
56,192,194981,2,0,P|88:160|143:134,1,80,0|0,0:0|0:0,0:0:0:0:
192,104,195338,1,0,0:0:0:0:
272,96,195517,1,0,0:0:0:0:
328,152,195695,2,0,P|328:202|314:252,1,80,0|0,0:0|0:0,0:0:0:0:
256,280,196052,5,0,0:0:0:0:
256,280,196231,1,0,0:0:0:0:
320,328,196409,1,0,0:0:0:0:
320,328,196588,1,0,0:0:0:0:
384,280,196767,1,0,0:0:0:0:
384,280,196945,1,0,0:0:0:0:
368,200,197124,6,0,B|332:178|332:178|289:200,1,80,0|0,0:0|0:0,0:0:0:0:
216,192,197481,1,0,0:0:0:0:
248,264,197659,1,0,0:0:0:0:
224,344,197838,2,0,P|176:344|130:330,1,80
80,288,198195,1,0,0:0:0:0:
152,248,198374,1,0,0:0:0:0:
88,200,198552,2,0,P|88:150|109:107,1,80
176,112,198909,1,0,0:1:0:0:
248,152,199088,1,4,0:1:0:0:
248,152,199177,1,4,0:1:0:0:
248,152,199267,1,4,0:1:0:0:
256,192,199356,12,0,201231,0:0:0:0:
256,64,209981,6,0,P|335:79|399:172,1,160
448,192,210517,2,0,P|362:228|275:206,1,160
352,144,211052,1,0,0:0:0:0:
280,112,211231,1,0,0:0:0:0:
208,144,211409,2,0,P|176:168|136:216,1,80
144,280,211767,2,0,L|94:280,4,40,0|0|0|0|0,0:0|0:0|0:0|0:0|0:0,0:0:0:0:
256,200,212481,5,0,0:0:0:0:
408,232,212838,6,0,P|401:167|379:131,1,80,0|0,0:0|0:0,0:0:0:0:
328,200,213195,1,8,0:0:0:0:
328,200,213374,1,0,0:0:0:0:
248,232,213552,2,0,P|255:167|277:131,1,80,0|0,0:0|0:0,0:0:0:0:
328,200,213909,1,8,0:0:0:0:
384,144,214088,1,0,0:0:0:0:
304,56,214267,6,0,P|256:64|216:80,1,80,0|0,0:0|0:0,0:0:0:0:
176,136,214624,2,0,P|144:168|128:200,1,80,8|0,0:0|0:0,0:0:0:0:
136,280,214981,2,0,P|160:320|216:352,1,80
266,340,215338,2,0,P|296:314|315:279,1,80,8|0,0:0|0:0,0:0:0:0:
192,224,215695,6,0,L|96:184,1,80
144,120,216052,2,0,L|232:56,1,80,8|0,0:0|0:0,0:0:0:0:
288,56,216409,1,0,0:0:0:0:
288,56,216588,1,0,0:0:0:0:
360,96,216767,1,8,0:0:0:0:
312,160,216945,1,0,0:0:0:0:
232,160,217124,6,0,P|217:203|225:253,2,80,0|0|8,0:0|0:0|0:0,0:0:0:0:
312,144,217659,1,0,0:0:0:0:
376,192,217838,1,0,0:0:0:0:
256,296,218195,1,8,0:0:0:0:
83,112,218552,6,0,P|140:69|176:62,1,80
224,80,218909,1,8,0:0:0:0:
200,160,219088,1,0,0:0:0:0:
144,216,219267,2,0,P|200:280|280:296,1,160,0|8,0:0|0:0,0:0:0:0:
328,144,219981,6,0,P|392:180|424:208,1,80
416,264,220338,1,8,0:0:0:0:
352,320,220517,1,0,0:0:0:0:
280,352,220695,2,0,P|224:352|168:328,1,80,0|0,0:0|0:0,0:0:0:0:
144,296,221052,1,8,0:0:0:0:
88,240,221231,1,0,0:0:0:0:
128,128,221409,6,0,P|178:92|293:121,1,160,0|8,0:0|0:0,0:0:0:0:
344,64,221945,2,0,P|380:157|344:229,1,160,0|0,0:0|0:0,0:0:0:0:
416,264,222481,2,0,P|360:320|280:336,1,160,8|0,0:0|0:0,0:0:0:0:
208,304,223017,1,0,0:0:0:0:
144,256,223195,1,0,0:0:0:0:
216,224,223374,1,0,0:0:0:0:
152,176,223552,2,0,L|123:133,5,40,0|0|0|0|0|0,0:0|0:0|0:0|0:0|0:0|0:0,0:0:0:0:
296,72,224267,6,0,L|382:36,1,80
432,88,224624,2,0,L|480:192,1,80,8|0,0:0|0:0,0:0:0:0:
424,224,224981,2,0,L|328:264,1,80
272,232,225338,1,8,0:0:0:0:
192,232,225517,1,0,0:0:0:0:
128,280,225695,6,0,P|144:336|171:374,1,80
232,360,226052,1,8,0:0:0:0:
312,352,226231,1,0,0:0:0:0:
376,312,226409,2,0,P|384:272|376:208,1,80
328,176,226767,1,8,0:0:0:0:
256,144,226945,1,0,0:0:0:0:
184,240,227124,6,0,L|83:240,1,80,0|0,0:0|0:0,0:0:0:0:
104,160,227481,2,0,L|184:160,1,80,8|0,0:0|0:0,0:0:0:0:
184,80,227838,2,0,L|83:80,1,80,0|0,0:0|0:0,0:0:0:0:
104,160,228195,2,0,L|184:160,1,80,8|0,0:0|0:0,0:0:0:0:
184,240,228552,2,0,L|83:240,1,80,0|0,0:0|0:0,0:0:0:0:
96,152,228909,1,8,0:0:0:0:
152,88,229088,1,0,0:0:0:0:
240,96,229267,2,0,P|276:182|240:268,1,160,0|8,0:0|0:0,0:0:0:0:
384,344,229981,6,0,B|416:320|416:320|427:279,1,80,0|0,0:0|0:0,0:0:0:0:
360,240,230338,1,8,0:0:0:0:
288,200,230517,1,0,0:0:0:0:
216,160,230695,2,0,B|184:136|184:136|172:96,1,80,0|0,0:0|0:0,0:0:0:0:
256,88,231052,1,8,0:0:0:0:
328,128,231231,1,0,0:0:0:0:
400,224,231409,6,0,P|368:289|339:302,1,80,0|0,0:0|0:0,0:0:0:0:
288,312,231767,2,0,P|240:296|216:264,1,80,8|0,0:0|0:0,0:0:0:0:
224,192,232124,2,0,L|281:192,2,40,0|0|0,0:0|0:0|0:0,0:0:0:0:
216,112,232481,2,0,L|159:112,2,40,8|0|4,0:0|0:0|0:0,0:0:0:0:
256,192,232838,12,0,235338,0:0:0:0:
216,232,235695,5,0,0:0:0:0:
296,200,235874,1,0,0:0:0:0:
256,128,236052,2,0,P|200:136|160:160,1,80,8|0,0:0|0:0,0:0:0:0:
176,232,236409,1,0,0:0:0:0:
176,232,236588,1,0,0:0:0:0:
136,312,236767,2,0,P|176:320|240:304,1,80,8|0,0:0|0:0,0:0:0:0:
256,192,237034,12,0,238195,0:0:0:0:
256,72,238552,5,0,0:0:0:0:
184,112,238731,1,0,0:0:0:0:
120,160,238909,2,0,P|120:208|136:256,1,80,8|0,0:0|0:0,0:0:0:0:
184,296,239267,1,0,0:0:0:0:
256,328,239445,2,0,L|336:336,2,80,0|8|0,0:0|0:0|0:0,0:0:0:0:
360,264,239981,1,0,0:0:0:0:
320,192,240159,1,0,0:0:0:0:
280,120,240338,2,0,P|236:156|208:206,1,80,8|0,0:0|0:0,0:0:0:0:
152,216,240695,2,0,P|168:264|192:304,2,80,0|0|8,0:0|0:0|0:0,0:0:0:0:
256,272,241231,5,0,0:0:0:0:
296,192,241409,2,0,L|216:192,1,80,0|0,0:0|0:0,0:0:0:0:
256,104,241767,1,8,0:0:0:0:
256,104,241945,1,4,0:0:0:0:
176,256,242302,1,4,0:0:0:0:
344,256,242659,1,4,0:0:0:0:
256,88,243017,5,4,0:0:0:0:
256,88,243195,1,4,0:0:0:0:
256,88,243374,1,0,3:0:0:0:
256,88,243552,1,0,3:0:0:0:
256,176,243731,2,0,L|256:227,2,40,0|0|0,0:0|0:0|0:0,3:0:0:0:
256,88,244088,1,0,0:0:0:0:
256,88,244177,1,0,3:0:0:0:
256,88,244267,6,0,P|327:96|356:110,1,80
392,160,244624,2,0,P|408:208|408:264,1,80,8|0,0:0|0:0,0:0:0:0:
360,304,244981,1,0,0:0:0:0:
288,336,245159,2,0,L|238:336,2,40,0|0|8,0:0|0:0|0:0,0:0:0:0:
144,272,245695,6,0,L|72:272,2,40,0|0|0,0:0|0:0|0:0,0:0:0:0:
200,216,246052,1,8,0:0:0:0:
152,152,246231,1,0,0:0:0:0:
200,88,246409,1,0,0:0:0:0:
272,48,246588,1,0,0:0:0:0:
272,48,246677,1,0,0:0:0:0:
272,48,246767,1,8,0:0:0:0:
432,120,247124,5,0,0:0:0:0:
432,200,247302,2,0,L|489:200,2,40,0|0|8,0:0|0:0|0:0,0:0:0:0:
272,216,247838,1,0,0:0:0:0:
328,272,248017,2,0,L|385:272,2,40,0|0|8,0:0|0:0|0:0,0:0:0:0:
176,320,248552,5,0,0:0:0:0:
112,272,248731,1,0,0:0:0:0:
80,200,248909,2,0,B|80:160|112:96,1,80,10|2,0:0|0:0,0:0:0:0:
176,88,249267,1,0,0:0:0:0:
176,88,249445,1,0,0:0:0:0:
256,64,249624,1,8,0:0:0:0:
256,64,249802,1,0,0:0:0:0:
296,176,249981,5,0,0:0:0:0:
376,168,250159,2,0,L|432:136,2,40,0|0|8,0:0|0:0|0:0,0:0:0:0:
256,280,250695,1,0,0:0:0:0:
192,240,250874,2,0,L|136:208,2,40,0|0|8,0:0|0:0|0:0,0:0:0:0:
336,304,251409,5,0,0:0:0:0:
408,336,251588,1,0,0:0:0:0:
472,288,251767,2,8,P|436:244|400:223,1,80,8|0,0:0|0:0,0:0:0:0:
408,152,252124,2,0,P|350:195|336:224,1,80
256,264,252481,5,8,0:0:0:0:
216,96,252659,2,0,L|328:96,1,80,0|0,0:0|0:0,0:0:0:0:
256,176,253195,2,0,L|256:288,1,80,8|0,0:0|0:0,0:0:0:0:
136,192,253731,1,0,0:0:0:0:
376,192,254088,1,0,0:0:0:0:
256,192,254445,5,4,0:0:0:0:
256,192,254624,1,4,0:0:0:0:
256,192,254802,1,4,0:0:0:0:
256,192,254981,1,4,0:0:0:0:
256,192,255070,12,0,259981,2:0:0:0:
