osu file format v14

[General]
AudioFilename: 01. T.E.B Summer Mix.mp3
AudioLeadIn: 0
PreviewTime: 68583
Countdown: 0
SampleSet: Soft
StackLeniency: 0.3
Mode: 0
LetterboxInBreaks: 1
WidescreenStoryboard: 1

[Editor]
Bookmarks: 26588,29384,33179
DistanceSpacing: 1
BeatDivisor: 4
GridSize: 4
TimelineZoom: 0.8

[Metadata]
Title:Zenmai Koi Tokei (T.E.B. Summer Mix)
TitleUnicode:ゼンマイ恋時計(T.E.B Summer Mix)
Artist:Aki
ArtistUnicode:あき
Creator:El Koko
Version:Easy
Source:Touhou
Tags:touhou eurobeat chen theme koko sumaru100
BeatmapID:508569
BeatmapSetID:204282

[Difficulty]
HPDrainRate:2
CircleSize:2
OverallDifficulty:2
ApproachRate:3
SliderMultiplier:0.8
SliderTickRate:1

[Events]
//Background and Video events
0,0,"bce623dbb1679579b755486f91daa540.jpg",0,0
//Break Periods
2,201609,208541
//Storyboard Layer 0 (Background)
//Storyboard Layer 1 (Fail)
//Storyboard Layer 2 (Pass)
//Storyboard Layer 3 (Foreground)
//Storyboard Sound Samples

[TimingPoints]
11410,357.142857142857,4,2,0,100,1,0
22838,-100,4,1,0,100,0,0
33552,-100,4,2,0,100,0,0
53552,-100,4,3,0,100,0,0
68552,-100,4,1,0,100,0,1
93731,-100,4,1,0,100,0,0
104981,-100,4,2,0,100,0,0
116231,-100,4,3,0,100,0,0
139981,-100,4,1,0,100,0,1
165159,-100,4,1,0,100,0,0
177124,-100,4,2,0,100,0,0
188552,-100,4,3,0,100,0,0
212838,-100,4,1,0,100,0,1
232838,-100,4,1,0,100,0,0

[Colours]
Combo1 : 209,46,107
Combo2 : 7,129,194
Combo3 : 193,69,203
Combo4 : 96,57,208

[HitObjects]
216,80,11410,6,0,L|56:80,2,160,4|0|0,0:0|0:0|0:0,0:0:0:0:
376,80,13552,1,0,0:0:0:0:
376,240,14267,2,0,P|280:336|248:336,2,160,4|0|0,0:0|0:0|0:0,0:0:0:0:
376,80,16410,1,0,0:0:0:0:
376,240,17124,6,0,B|376:320|376:320|296:320,1,160
136,320,18552,2,0,B|56:320|56:320|56:240,1,160,0|0,0:0|0:0,0:0:0:0:
64,80,19981,6,0,P|128:64|224:80,1,160,2|0,0:0|0:0,0:0:0:0:
360,152,21409,2,0,L|360:320,1,160
256,192,22838,6,0,L|88:192,2,160,0|8|0,0:0|0:0|0:0,0:0:0:0:
320,144,24624,1,0,0:0:0:0:
392,104,24981,1,8,0:0:0:0:
392,264,25695,2,0,P|320:280|224:264,1,160,0|8,0:0|0:0,0:0:0:0:
72,272,27124,1,0,0:0:0:0:
72,112,27838,1,8,0:0:0:0:
232,112,28552,6,0,L|408:112,2,160,0|8|0,0:0|0:0|0:0,0:0:0:0:
156,140,30338,1,0,0:0:0:0:
96,192,30695,1,8,0:0:0:0:
256,192,31409,5,0,0:0:0:0:
416,192,32124,1,8,0:0:0:0:
256,192,32838,2,0,L|256:288,2,80,0|0|8,0:0|0:0|0:0,0:0:0:0:
168,56,34267,6,0,B|88:56|88:56|88:144,1,160
88,296,35695,2,0,B|168:328|256:296,1,160
312,256,36767,1,0,0:0:0:0:
376,208,37124,2,0,L|456:208,2,80,0|0|0,0:0|0:0|0:0,0:0:0:0:
216,208,38552,2,0,L|120:208,2,80,0|0|0,0:0|0:0|0:0,0:0:0:0:
376,208,39981,6,0,B|376:152|376:152|360:128|280:96,1,160,0|0,0:0|0:0,0:0:0:0:
128,104,41409,1,0,0:0:0:0:
128,264,42124,1,0,0:0:0:0:
256,352,42838,2,0,B|336:312|384:248,1,160
256,152,44267,1,0,0:0:0:0:
104,192,44981,1,0,0:0:0:0:
104,192,45695,6,0,B|104:136|104:136|160:136|208:96,1,160,4|0,0:0|0:0,0:0:0:0:
360,112,47124,2,0,B|408:144|392:184|360:208|400:264,1,160,4|0,0:0|0:0,0:0:0:0:
316,268,48195,1,0,0:0:0:0:
232,264,48552,2,0,P|136:240|96:184,2,160,0|0|0,0:0|0:0|0:0,0:0:0:0:
392,264,50695,1,0,0:0:0:0:
232,264,51409,6,0,B|220:228|220:228|256:208|292:128,1,160,4|0,0:0|0:0,0:0:0:0:
372,128,52481,1,0,0:0:0:0:
448,128,52838,1,0,0:0:0:0:
360,264,53552,1,0,0:0:0:0:
272,128,54267,6,0,P|196:152|120:128,1,160
196,272,55695,2,0,L|196:356,2,80
352,264,57124,6,0,P|392:184|448:128,1,160,4|0,0:1|0:0,0:0:0:0:
304,56,58552,2,0,L|224:56,3,80
264,144,59981,1,0,0:0:0:0:
120,212,60695,1,0,0:0:0:0:
144,56,61409,2,0,L|232:56,2,80,0|0|0,0:0|0:0|0:0,0:0:0:0:
144,216,62838,6,0,P|168:296|240:344,1,160,4|0,0:1|0:0,0:0:0:0:
308,340,63909,1,0,0:0:0:0:
384,336,64267,2,0,P|446:287|467:211,1,160,4|0,0:1|0:0,0:0:0:0:
464,48,65695,5,0,0:0:0:0:
304,48,66409,1,0,0:0:0:0:
144,48,67124,1,0,0:0:0:0:
144,208,67838,1,0,0:0:0:0:
304,216,68552,6,0,B|316:168|312:140|312:140|340:144|392:96,1,160,0|8,0:0|0:0,0:0:0:0:
452,136,69624,1,0,0:0:0:0:
447,212,69981,2,0,P|424:287|368:344,1,160,0|8,0:0|0:0,0:0:0:0:
144,344,71409,2,0,P|88:288|64:200,1,160,0|8,0:0|0:0,0:0:0:0:
224,192,72838,1,0,0:0:0:0:
384,192,73552,1,8,0:0:0:0:
224,192,74267,6,0,L|48:192,1,160,0|8,0:0|0:0,0:0:0:0:
152,328,75695,2,0,L|312:328,1,160,0|8,0:0|0:0,0:0:0:0:
256,176,77124,1,0,0:0:0:0:
256,16,77838,1,8,0:0:0:0:
176,152,78552,2,0,P|256:160|336:152,1,160,0|8,0:0|0:0,0:0:0:0:
328,312,79981,6,0,P|256:336|176:312,1,160,0|8,0:0|0:0,0:0:0:0:
112,264,81052,1,0,0:0:0:0:
72,192,81409,2,0,B|128:136|208:104,1,160,0|8,0:0|0:0,0:0:0:0:
368,96,82838,2,0,B|368:264,1,160,0|8,0:0|0:0,0:0:0:0:
208,256,84267,2,0,B|208:96,1,160,0|8,0:0|0:0,0:0:0:0:
368,96,85695,5,0,0:0:0:0:
368,256,86409,1,8,0:0:0:0:
208,256,87124,2,0,P|160:200|144:112,1,160,0|8,0:0|0:0,0:0:0:0:
304,96,88552,6,0,B|360:96|360:96|416:200,1,160,0|8,0:0|0:0,0:0:0:0:
408,344,89981,2,0,L|320:344,3,80,0|0|8|0,0:0|0:0|0:0|0:0,0:0:0:0:
248,344,91409,5,0,0:0:0:0:
88,344,92124,1,8,0:0:0:0:
80,184,92838,1,0,0:0:0:0:
240,184,93552,1,4,0:0:0:0:
248,344,94267,6,0,L|408:344,2,160,0|8|0,0:0|0:0|0:0,0:0:0:0:
248,184,96409,1,8,0:0:0:0:
408,184,97124,1,0,0:0:0:0:
248,184,97838,1,8,0:0:0:0:
248,184,98552,2,0,L|248:352,1,160,0|8,0:0|0:0,0:0:0:0:
248,184,99981,6,0,B|280:112|280:112|368:112,1,160,0|8,0:0|0:0,0:0:0:0:
456,240,101409,2,0,P|416:328|352:352,2,160,0|8|0,0:0|0:0|0:0,0:0:0:0:
304,192,103552,1,8,0:0:0:0:
144,192,104267,1,0,0:0:0:0:
304,192,104981,1,4,0:0:0:0:
48,56,105695,6,0,L|216:56,1,160,0|0,0:0|0:0,0:0:0:0:
288,56,106767,1,0,0:0:0:0:
368,56,107124,2,0,L|368:232,1,160
368,296,108195,1,0,0:0:0:0:
288,296,108552,2,0,L|192:296,2,80,0|0|0,0:0|0:0|0:0,0:0:0:0:
288,136,109981,2,0,L|200:136,2,80,0|0|0,0:0|0:0|0:0,0:0:0:0:
136,184,111409,5,0,0:0:0:0:
56,44,112124,1,0,0:0:0:0:
216,44,112838,1,0,0:0:0:0:
136,184,113552,1,0,0:0:0:0:
216,184,113909,1,0,0:0:0:0:
296,184,114267,2,0,P|232:296|208:316,1,160,0|0,0:0|0:0,0:0:0:0:
48,312,115695,2,0,P|60:228|96:160,1,160
256,152,117124,5,4,0:1:0:0:
256,312,117838,1,0,0:0:0:0:
392,232,118552,1,0,0:0:0:0:
256,312,119267,1,0,0:0:0:0:
256,312,119981,6,0,L|172:312,2,80,0|0|0,0:0|0:0|0:0,0:0:0:0:
256,232,121052,1,0,0:0:0:0:
192,180,121409,2,0,P|256:140|324:196,1,160
160,180,122838,6,0,L|60:56,2,160,4|0|0,0:1|0:0|0:0,0:0:0:0:
208,244,124624,1,0,0:0:0:0:
244,316,124981,2,0,L|340:316,2,80,0|0|4,0:0|0:0|0:1,0:0:0:0:
84,320,126409,1,0,0:0:0:0:
160,180,127124,1,0,0:0:0:0:
320,184,127838,2,0,L|408:184,2,80,0|0|4,0:0|0:0|0:1,0:0:0:0:
320,184,129267,5,0,0:0:0:0:
160,184,129981,2,0,L|68:184,2,80,0|0|4,0:0|0:0|0:1,0:0:0:0:
164,344,131409,1,0,0:0:0:0:
160,184,132124,5,0,0:0:0:0:
192,112,132481,1,0,0:0:0:0:
248,56,132838,2,0,P|292:124|304:208,1,160
236,344,134267,6,0,B|152:344|152:344|80:304,1,160,0|0,0:0|0:0,0:0:0:0:
100,148,135695,1,0,0:0:0:0:
256,192,136409,1,0,0:0:0:0:
416,188,137124,6,0,L|416:24,2,160,0|0|0,0:0|0:0|0:0,0:0:0:0:
272,192,139267,1,4,1:1:0:0:
408,192,139981,5,0,0:0:0:0:
272,192,140695,1,8,0:0:0:0:
144,192,141409,1,0,0:0:0:0:
84,244,141767,1,0,0:0:0:0:
44,312,142124,1,8,0:0:0:0:
200,288,142838,2,0,B|292:288|292:288|356:236,1,160,0|8,0:0|0:0,0:0:0:0:
352,84,144267,2,0,L|272:84,2,80,0|0|8,0:0|0:0|0:0,0:0:0:0:
468,192,145695,5,0,0:0:0:0:
380,328,146409,1,8,0:0:0:0:
220,328,147124,2,0,B|148:324|148:324|124:316|112:232,1,160,0|8,0:0|0:0,0:0:0:0:
256,172,148552,5,0,0:0:0:0:
396,96,149267,1,8,0:0:0:0:
256,172,149981,2,0,L|160:172,3,80
176,92,151409,5,0,0:0:0:0:
336,96,152124,1,8,0:0:0:0:
396,152,152481,1,0,0:0:0:0:
424,228,152838,2,0,B|360:240|328:256|328:256|272:216,1,160,0|8,0:0|0:0,0:0:0:0:
124,260,154267,1,0,0:0:0:0:
120,100,154981,1,8,0:0:0:0:
280,96,155695,1,0,0:0:0:0:
280,256,156409,2,0,B|368:256|448:216,1,160,8|0,0:0|0:0,0:0:0:0:
432,64,157838,5,8,0:0:0:0:
272,64,158552,2,0,L|100:64,2,160,0|8|0,0:0|0:0|0:0,0:0:0:0:
432,60,160695,1,8,0:0:0:0:
432,60,161409,2,0,B|456:148|424:224,1,160,0|8,0:0|0:0,0:0:0:0:
316,332,162838,5,0,0:0:0:0:
220,252,163552,1,8,0:0:0:0:
132,332,164267,1,0,0:0:0:0:
44,252,164981,1,4,0:0:0:0:
128,116,165695,6,0,L|44:116,2,80,0|0|8,0:0|0:0|0:0,0:0:0:0:
208,116,166767,1,0,0:0:0:0:
288,116,167124,2,0,L|288:204,2,80,0|0|8,0:0|0:0|0:0,0:0:0:0:
256,224,168552,1,0,0:0:0:0:
128,224,169267,1,8,0:0:0:0:
128,88,169981,2,0,B|204:60|204:60|284:88,1,160,0|8,0:0|0:0,0:0:0:0:
388,204,171409,5,0,0:0:0:0:
260,260,172124,1,8,0:0:0:0:
132,204,172838,1,0,0:0:0:0:
260,260,173552,1,8,0:0:0:0:
180,120,174267,2,0,P|256:96|336:120,2,160,0|8|0,0:0|0:0|0:0,0:0:0:0:
256,192,176409,1,0,0:0:0:0:
136,168,177124,6,0,P|256:136|376:168,1,240,0|0,0:0|0:0,0:0:0:0:
368,244,178552,2,0,P|256:276|128:244,1,240,0|0,0:0|0:0,0:0:0:0:
184,184,179981,2,0,B|184:96|184:96|236:36|332:40,1,240
324,120,181409,2,0,B|268:224|268:224|132:224,1,240,0|0,0:0|0:0,0:0:0:0:
68,216,182838,6,0,L|68:48,2,160,0|0|0,0:0|0:0|0:0,0:0:0:0:
228,208,184981,1,0,0:0:0:0:
224,48,185695,2,0,L|52:48,2,160,0|0|0,0:0|0:0|0:0,0:0:0:0:
344,56,187659,2,0,L|424:160,1,120,0|0,0:0|0:0,0:0:0:0:
420,232,188552,5,4,0:1:0:0:
260,240,189267,1,0,0:0:0:0:
100,240,189981,1,0,0:0:0:0:
260,240,190695,1,0,0:0:0:0:
180,100,191409,2,0,P|260:84|340:100,1,160
336,260,192838,2,0,P|257:274|179:258,1,160
216,104,194267,6,0,L|56:104,2,160,4|0|0,0:1|0:0|0:0,0:0:0:0:
360,176,196409,1,4,0:1:0:0:
256,300,197124,1,4,0:1:0:0:
256,140,197838,1,4,0:1:0:0:
256,140,198552,1,0,0:0:0:0:
256,192,198909,12,0,201409,2:0:0:0:
256,340,209981,5,0,0:1:0:0:
256,180,210695,1,4,0:1:0:0:
176,40,211409,2,0,L|256:40|336:40,1,160,4|0,0:1|0:0,0:1:0:0:
256,176,212838,5,0,0:0:0:0:
96,172,213552,1,8,0:0:0:0:
100,332,214267,2,0,B|188:332|188:332|260:284,2,160,0|8|0,0:0|0:0|0:0,0:0:0:0:
92,252,216052,1,0,0:0:0:0:
92,172,216409,1,8,0:0:0:0:
220,76,217124,2,0,P|296:60|388:76,1,160,0|8,0:0|0:0,0:0:0:0:
376,232,218552,5,0,0:0:0:0:
216,232,219267,1,8,0:0:0:0:
220,72,219981,2,0,P|292:48|376:80,2,160,0|8|0,0:0|0:0|0:0,0:0:0:0:
168,136,221767,1,0,0:0:0:0:
136,208,222124,2,0,P|212:236|288:208,1,160,8|0,0:0|0:0,0:0:0:0:
356,208,223195,1,0,0:0:0:0:
356,208,223552,2,0,L|356:40,1,160,8|0,0:0|0:0,0:0:0:0:
196,56,224981,5,8,0:0:0:0:
72,160,225695,1,0,0:0:0:0:
72,320,226409,1,8,0:0:0:0:
72,160,227124,2,2,B|128:80|180:76|180:76|228:76|292:76,1,240,2|8,0:0|0:0,0:0:0:0:
360,84,228552,2,2,B|344:172|344:172|272:200|184:196,1,240,0|8,0:0|0:0,0:0:0:0:
196,196,229981,5,0,0:0:0:0:
356,196,230695,1,8,0:0:0:0:
196,196,231409,1,0,0:0:0:0:
356,196,232124,1,8,0:0:0:0:
216,336,232838,6,0,B|152:296|152:296|128:204,1,160,0|8,0:0|0:0,0:0:0:0:
184,152,233909,1,0,0:0:0:0:
260,120,234267,2,0,B|272:192|272:192|264:248|316:276,1,160,0|8,0:0|0:0,0:0:0:0:
444,192,235695,1,0,0:0:0:0:
284,192,236409,1,8,0:0:0:0:
124,196,237124,1,0,0:0:0:0:
44,196,237481,2,2,P|72:148|172:128,1,160,0|0,0:0|0:0,0:0:0:0:
248,128,238552,6,0,L|248:40,2,80,0|0|8,0:0|0:0|0:0,0:0:0:0:
256,288,239981,1,0,0:0:0:0:
96,288,240695,1,8,0:0:0:0:
96,128,241409,2,0,B|172:108|172:108|252:124,1,160,0|8,0:0|0:0,0:0:0:0:
412,116,242838,1,0,0:0:0:0:
416,276,243552,2,0,L|324:276,2,80,8|0|0,0:0|0:0|0:0,0:0:0:0:
412,116,244981,5,8,0:0:0:0:
252,112,245695,1,0,0:0:0:0:
92,112,246409,1,8,0:0:0:0:
100,272,247124,2,0,B|176:304|256:268,1,160,0|8,0:0|0:0,0:0:0:0:
256,108,248552,2,0,P|344:132|388:184,1,160
332,244,249624,1,0,0:0:0:0:
252,268,249981,6,0,L|156:268,2,80,0|0|8,0:0|0:0|0:0,0:0:0:0:
256,108,251409,2,0,L|340:108,2,80,0|0|8,0:0|0:0|0:0,0:0:0:0:
260,268,252838,5,4,0:0:0:0:
176,132,253552,1,4,0:0:0:0:
336,132,254267,1,4,0:0:0:0:
256,192,254981,12,0,258552,0:0:0:0:
