osu file format v5

[General]
AudioFilename: Akeboshi - Wind - VL.mp3
AudioLeadIn: 0
PreviewTime: 72335
Countdown: 0
SampleSet: Soft
StackLeniency: 0.7
Mode: 0
LetterboxInBreaks: 1
EditorBookmarks: 24327,38044,72335,141604,155321
EditorDistanceSpacing: 0.899999976158142

[Metadata]
Title:Wind
Artist:Akeboshi
Creator:CheeseWarlock
Version:Genin
Source:
Tags:

[Difficulty]
HPDrainRate:1
CircleSize:4
OverallDifficulty:3
SliderMultiplier:0.9
SliderTickRate:1

[Events]
//Background and Video events
0,0,"naruto_207_800.jpg"
//Break Periods
2,51274,57179
2,99282,108959
2,127402,133306
//Storyboard Layer 0 (Background)
//Storyboard Layer 1 (Failing)
//Storyboard Layer 2 (Passing)
//Storyboard Layer 3 (Foreground)
//Storyboard Sound Samples
//Background Colour Transformations
3,100,163,162,255

[TimingPoints]
6149,342.915928444876,4,2,0,100,1,0

[Colours]
Combo1 : 249,255,0
Combo2 : 85,238,11
Combo3 : 55,148,251
Combo4 : 248,118,1

[HitObjects]
40,288,24323,2,0,B|16:144|144:240|144:56,1,270,0|2
200,192,26038,2,0,B|144:264|224:320|328:296|296:176,1,270,0|8
432,120,27752,2,0,B|352:48|296:160|168:80,1,270,0|2
48,152,29467,2,0,B|24:224|96:264|144:216|160:184|256:200,1,270,0|4
400,200,31181,6,0,B|424:120|336:104|320:184|248:136|288:56|208:56,1,270,0|2
248,192,32896,2,0,B|176:216|224:120|112:128|128:224|200:280|112:296|56:216,1,270,0|8
24,88,34611,2,0,B|88:96|104:8|176:24|160:120|288:64,1,270,0|2
416,104,36325,2,0,B|344:160|432:208|416:296|408:312|352:304|320:256,1,270,0|8
184,240,38040,5,4
328,80,39068,1,0
328,224,39754,1,0
184,56,40783,1,0
72,152,41469,5,2
288,152,42498,1,0
176,240,43183,1,0
392,240,44212,1,0
312,120,44898,6,0,B|264:56|192:56|184:176|88:192,1,270,2|0
136,328,46613,2,0,B|208:312|240:344,3,90,0|8|8|8
368,304,48327,1,2
432,96,49356,1,2
312,184,50042,2,0,B|272:216|216:184,3,90,0|8|8|8
72,48,58615,6,0,B|144:24|176:96|264:96,1,180,2|0
312,104,59643,1,0
384,232,60329,2,0,B|264:248|152:224|136:144,1,270
192,296,62044,6,0,B|96:328|96:240|8:272,1,180,2|0
48,336,63073,1,0
264,328,64101,1,8
264,328,64787,1,4
376,240,65473,6,0,B|288:248|336:160|224:160,1,180,2|0
160,192,66502,1,0
64,80,67188,2,0,B|112:112|160:72|240:8|360:80,1,270
384,192,68902,6,2,B|328:280|224:272|152:192,1,270
200,328,70617,2,0,B|264:352|320:328,3,90,0|8|8|8
416,280,72331,6,0,B|432:184|376:120,2,135,4|0|0
352,240,73703,1,0
288,208,74046,2,2,B|216:264|192:128|80:136|88:256,1,270
208,320,75760,6,0,B|304:312|352:272,2,135
136,296,77132,1,0
72,264,77475,2,2,B|40:216|16:160|184:184|160:40,1,270
288,104,79190,6,0,B|352:64|400:136|448:64,2,135
232,144,80561,1,0
184,200,80904,2,2,B|240:248|336:200|392:176|464:240,1,270
328,312,82619,6,2,B|192:320|128:280|120:192,1,270
216,88,84333,2,0,B|288:72|304:104,3,90,0|8|8|8
368,224,86048,6,0,B|296:256|272:200|208:224,2,135,4|0|0
416,168,87420,1,0
448,104,87762,2,2,B|368:32|304:24|312:160|216:128,1,270
104,216,89477,6,0,B|96:160|24:216|32:112,2,135
120,288,90849,1,0
168,344,91192,2,2,B|240:288|312:360|352:344|392:240,1,270
312,120,92906,6,0,B|376:96|416:128|456:136,2,135
264,176,94278,1,0
200,200,94621,2,2,B|120:200|64:208|120:128|224:80|64:64,1,270
208,72,96335,6,2,B|264:32|296:96|344:64,1,135
304,168,97364,1,2
368,296,98050,6,0,B|296:272|256:304,3,90,0|8|8|2
136,104,110395,6,2,B|224:48|296:48|408:120,1,270
392,248,112110,2,2,B|312:296|192:288|136:232,1,270,2|2
328,168,114167,5,4
112,168,115196,1,0
168,296,115882,1,0
384,296,116910,1,0
320,168,117596,6,0,B|272:208|232:208|192:168,5,135,0|2|0|8|0|2
360,96,121025,5,2
144,96,122054,1,0
48,200,122740,1,0
264,200,123769,1,0
216,280,126169,5,2
432,280,127198,1,4
88,88,134742,5,2
304,88,135771,1,0
400,192,136457,2,0,B|296:144|248:256|128:184,1,270
88,320,138171,6,0,B|208:288|368:312,1,270,2|8
464,216,139886,2,0,B|336:264|192:216,1,270,2|8
56,200,141600,6,0,B|16:160|80:104|32:72,2,135,4|0|0
112,240,142972,1,0
176,264,143315,2,2,B|248:256|280:216|336:208|424:296,1,270,2|8
440,152,145029,2,0,B|376:104|472:80|432:32,2,135,4|0|0
400,216,146401,1,0
328,240,146744,2,2,B|240:232|320:136|240:72|112:112,1,270,2|8
256,192,148459,12,4,155317
