osu file format v5

[General]
AudioFilename: Akeboshi - Wind - VL.mp3
AudioLeadIn: 0
PreviewTime: 72335
Countdown: 0
SampleSet: Soft
StackLeniency: 0.7
Mode: 0
LetterboxInBreaks: 1
EditorBookmarks: 24327,38044,72335,141604,155321
EditorDistanceSpacing: 0.899999976158142

[Metadata]
Title:Wind
Artist:Akeboshi
Creator:CheeseWarlock
Version:Chuunin
Source:
Tags:

[Difficulty]
HPDrainRate:5
CircleSize:5
OverallDifficulty:4
SliderMultiplier:1.2
SliderTickRate:1

[Events]
//Background and Video events
0,0,"naruto_207_800.jpg"
//Break Periods
2,51960,57299
2,100311,109079
2,128087,133426
//Storyboard Layer 0 (Background)
//Storyboard Layer 1 (Failing)
//Storyboard Layer 2 (Passing)
//Storyboard Layer 3 (Foreground)
//Storyboard Sound Samples
//Background Colour Transformations
3,100,163,162,255

[TimingPoints]
6149,342.915928444876,4,2,0,100,1,0

[Colours]
Combo1 : 249,255,0
Combo2 : 85,238,11
Combo3 : 55,148,251
Combo4 : 248,118,1

[HitObjects]
136,160,24323,2,0,B|136:80|200:112|200:112|280:160|264:48|344:112,1,240
424,144,25352,1,8
328,320,26038,2,0,B|264:328|232:288|232:288|176:224|128:328,1,240,0|0
56,240,27066,1,2
264,184,27752,6,0,B|320:160|320:120|320:120|320:48|248:72|280:128|192:112,1,240
96,104,28781,1,8
256,32,29124,5,4
416,104,29467,6,0,B|360:160|280:152|280:152|208:144|240:96|240:184|184:184|184:184|224:232|256:176|288:224,1,360,0|2
480,248,31181,6,0,B|408:232|320:264|320:264|256:248|336:304|256:304,1,240
224,208,32210,1,8
32,256,32896,2,0,B|88:272|120:240|120:240|144:216|192:280|128:320|208:344,1,240
288,280,33925,1,2
368,208,34268,1,2
264,168,34611,6,0,B|184:200|144:176|144:176|104:152|56:176|112:216|40:224,1,240
56,112,35639,1,8
160,48,35982,5,4
280,40,36325,6,0,B|200:208|416:24|384:176|384:176|392:184|456:152|440:208|440:208|424:280|280:208,1,480,0|8
192,176,38040,5,4
112,320,38554,1,0
272,320,39068,1,0
192,240,39411,1,8
280,176,39754,2,2,B|392:160|312:248|384:200|384:200|368:256|392:320,1,240,0|0
456,232,40783,2,2,B|496:176|432:152|464:104,1,120,0|0
352,128,41469,5,0
272,56,41812,1,0
432,56,42326,1,8
440,216,42841,1,0
336,200,43183,2,0,B|248:176|256:232|256:232|184:184|160:224|120:168,1,240,0|0
72,88,44212,2,0,B|32:80|40:112|40:112|48:144|24:192,1,120,0|2
136,184,44898,5,4
176,80,45241,1,0
336,56,45755,2,0,B|368:32|440:80|376:112|376:112|320:144|368:160,1,180,8|0
480,328,46955,2,0,B|416:328|360:360,2,120,0|0|8
304,168,48327,5,2
464,168,48842,1,2
304,168,49356,1,2
360,72,49699,1,0
256,56,50042,1,0
152,72,50385,2,8,B|72:88|56:160,2,120,8|8|10
352,152,51756,5,4
288,80,58615,6,0,B|328:112|368:72|344:120|360:160,1,120,4|0
464,152,59300,1,0
384,224,59643,1,8
320,312,59986,1,0
112,256,60672,5,0
216,64,61358,2,8,B|256:24|296:80|336:80,1,120,8|0
432,80,62044,5,2
280,128,62558,1,2
424,208,63073,1,2
344,280,63415,1,0
232,296,63758,1,8
120,296,64101,2,0,B|184:216|120:200|120:200|64:192|144:136|64:96,1,240,0|4
288,64,65473,5,2
448,64,65987,1,0
288,64,66502,1,8
312,168,66845,1,8
408,208,67188,5,0
328,280,67530,2,0,B|280:320|256:248|200:312,2,120
416,80,68902,5,2
256,80,69416,1,2
96,80,69931,1,2
368,256,70960,1,0
256,256,71303,1,8
144,256,71645,1,4
256,160,71988,5,0
360,72,72331,5,2
464,80,72674,1,0
400,168,73017,2,0,B|328:184|344:256|344:256|352:304|272:336|248:288,1,240,4|0
256,192,74046,1,0
320,104,74389,1,8
160,80,74903,1,8
32,184,75418,1,0
32,288,75760,5,2
128,232,76103,1,0
160,128,76446,2,0,B|184:64|296:80|232:136|232:136|192:168|304:200,1,240,4|0
360,120,77475,1,0
464,120,77818,1,8
336,216,78332,1,8
176,216,78847,1,4
160,320,79190,5,2
256,272,79533,1,0
272,168,79875,2,0,B|288:64|352:128|352:96|352:96|352:56|248:56,1,240,4|0
144,56,80904,1,8
144,56,81247,1,8
56,192,81761,1,8
208,232,82276,1,0
280,312,82619,5,2
424,232,83133,1,2
320,104,83647,1,2
248,184,83990,1,0
248,184,84162,2,0,B|192:144|144:224|80:144,1,180,8|0
32,48,85019,1,0
32,48,85191,1,2
256,192,86048,5,2
312,288,86391,1,0
384,208,86734,2,0,B|480:224|424:160|472:152|472:152|416:120|496:64|392:80,1,240,4|0
296,80,87762,1,8
184,88,88105,1,8
224,248,88620,1,8
72,184,89134,1,0
104,288,89477,5,2
200,328,89820,1,0
304,320,90163,2,0,B|360:280|288:248|312:168|312:168|264:184|280:136|240:152,1,240,4|0
136,160,91192,1,8
72,72,91535,1,8
176,40,91877,1,8
248,120,92220,1,0
392,64,92563,5,4
408,216,92906,5,2
376,320,93249,1,0
272,344,93592,2,0,B|200:344|280:192|152:384|72:192,1,240,4|0
48,120,94621,1,8
152,80,94964,2,0,B|208:32|264:80|264:80|296:112|336:72,2,180,8|8|0
96,176,96335,5,2
256,176,96850,1,2
416,176,97364,1,2
256,320,98050,1,8
176,240,98393,1,8
104,320,98736,1,0
24,240,99079,2,0,B|72:216|80:176|80:176|16:176|16:128|16:128|72:120|0:88|56:80,1,240,8|0
144,80,100107,1,4
440,192,110395,6,0,B|376:160|320:192,1,120,2|0
272,280,111081,2,0,B|208:232|176:288|176:288|152:280|184:176|136:208|136:208|96:232|88:200,1,240,8|0
16,264,112110,1,2
16,264,112452,1,8
32,160,112795,1,0
120,96,113138,2,0,B|176:48|232:96|232:96|184:128|248:136|224:208,1,240,8|2
320,144,114167,6,0,B|400:96|496:144,2,180,4|0|2
400,224,115539,1,0
352,320,115882,2,8,B|272:272|320:352|240:320,3,120,8|8|0|8
32,272,117596,5,2
32,112,118111,1,8
176,48,118625,1,2
336,48,119139,1,8
480,112,119654,1,0
480,272,120168,1,8
256,112,121025,5,2
160,160,121368,1,2
144,48,121711,1,0
48,96,122054,2,2,B|48:128|64:144|64:144|32:192|80:208,1,120
160,256,122740,2,0,B|240:256|224:192|336:176,2,180,8|2|0
256,304,124112,1,0
352,272,124454,2,0,B|432:272|368:224|448:208|448:208|368:144|544:128|448:48|352:48,1,360
144,96,126169,2,0,B|160:80|128:48|48:80|48:128|112:176,2,180,8|2|0
256,112,127541,2,0,B|320:64|352:144,1,120,0|4
288,112,134742,6,0,B|384:80|464:144,1,180,2|0
416,240,135599,1,0
416,240,135771,2,0,B|352:288|304:288,1,120
208,240,136457,2,0,B|144:192|112:256|96:256|80:160,1,180,2|0
176,112,137314,1,0
176,112,137485,1,0
384,64,137828,5,0
352,240,138171,5,2
248,256,138514,1,2
144,224,138857,1,2
216,144,139200,2,8,B|272:112|296:168|344:144,1,120,8|2
328,312,139886,5,8
424,264,140229,1,2
472,168,140572,1,2
448,64,140914,1,2
448,64,141257,1,0
336,216,141600,5,4
232,184,141943,1,0
152,112,142286,2,0,B|224:160|272:104|272:104|336:152|288:56|376:104,1,240,2|0
416,192,143315,1,8
400,296,143658,1,8
240,312,144172,1,8
96,232,144687,1,0
112,64,145029,5,2
240,160,145372,5,0
384,208,145715,6,0,B|440:176|344:160|392:104|392:104|312:72|416:24,1,240,4|0
304,40,146744,1,8
192,40,147087,1,8
256,128,147430,1,0
296,224,147773,1,8
120,168,148116,5,4
168,320,148459,5,2
360,320,148802,5,0
464,200,149144,6,0,B|400:104|296:288|352:64|224:144,1,240,4|0
144,136,150173,1,8
104,240,150516,2,0,B|184:208|192:288|288:248,2,180,8|8|0
256,192,151888,12,4,155317
