osu file format v14

[General]
AudioFilename: Watashi, Shuyaku no Akaza Akari Desu.mp3
AudioLeadIn: 1500
PreviewTime: 55253
Countdown: 0
SampleSet: Soft
StackLeniency: 0.7
Mode: 0
LetterboxInBreaks: 0
WidescreenStoryboard: 1

[Editor]
Bookmarks: 543,10490,20595,30700,40964,48543,56121,64964,73806,83911,93069,95200
DistanceSpacing: 1
BeatDivisor: 4
GridSize: 4
TimelineZoom: 1.8

[Metadata]
Title:Watashi, Shuyaku no Akaza Akari desu
TitleUnicode:私、主役の赤座あかりです
Artist:Akaza Akari(CV:Mikami Shiori)
ArtistUnicode:赤座あかり(CV:三上枝織)
Creator:Setz
Version:samp la turn's Easy
Source:ゆるゆり
Tags:Yuru Yuri no Uta Yuruyuri Yr Yr Character song Nanamori-chu * Goraku-bu 七森中☆ごらく部 Lanturn samplefish A_Mystery A mystery kakifly
BeatmapID:706712
BeatmapSetID:313330

[Difficulty]
HPDrainRate:2
CircleSize:2.5
OverallDifficulty:2
ApproachRate:3
SliderMultiplier:0.999999999999999
SliderTickRate:1

[Events]
//Background and Video events
0,0,"akaribg2.jpg",0,0
//Break Periods
//Storyboard Layer 0 (Background)
//Storyboard Layer 1 (Fail)
//Storyboard Layer 2 (Pass)
//Storyboard Layer 3 (Foreground)
Sprite,Foreground,Centre,"Lanturn.png",320,240 M,1,227,543,520,428,490,428 F,0,227,543,0,1 M,0,543,10490,490,428 F,0,543,10490,1 M,2,10490,10806,490,428,460,428 F,0,10490,10806,1,0
Sprite,Foreground,Centre,"samplefish.png",320,240 M,1,10490,10806,120,428,150,428 F,0,10490,10806,0,1 M,0,10806,20595,150,428 F,0,10806,20595,1 M,2,20595,20911,150,428,180,428 F,0,20595,20911,1,0
Sprite,Foreground,Centre,"Lanturn.png",320,240 M,1,20595,20911,520,428,490,428 F,0,20595,20911,0,1 M,0,20911,30700,490,428 F,0,20911,30700,1 M,2,30700,31016,490,428,460,428 F,0,30700,31016,1,0
Sprite,Foreground,Centre,"samplefish.png",320,240 M,1,30700,31016,120,428,150,428 F,0,30700,31016,0,1 M,0,31016,40805,150,428 F,0,31016,40805,1 M,2,40806,41121,150,428,180,428 F,0,40806,41121,1,0
Sprite,Foreground,Centre,"Lanturn.png",320,240 M,1,40964,41280,520,428,490,428 F,0,40964,41280,0,1 M,0,41280,48543,490,428 F,0,41280,48543,1 M,2,48543,48858,490,428,460,428 F,0,48543,48858,1,0
Sprite,Foreground,Centre,"samplefish.png",320,240 M,1,48543,48859,120,428,150,428 F,0,48543,48859,0,1 M,0,48859,56121,150,428 F,0,48859,56121,1 M,2,56121,56437,150,428,180,428 F,0,56121,56437,1,0
Sprite,Foreground,Centre,"Lanturn.png",320,240 M,1,56121,56437,520,428,490,428 F,0,56121,56437,0,1 M,0,56437,64964,490,428 F,0,56437,64964,1 M,2,64964,65279,490,428,460,428 F,0,64964,65279,1,0
Sprite,Foreground,Centre,"samplefish.png",320,240 M,1,64964,65280,120,428,150,428 F,0,64964,65280,0,1 M,0,65280,73806,150,428 F,0,65280,73806,1 M,2,73806,74121,150,428,180,428 F,0,73806,74121,1,0
Sprite,Foreground,Centre,"Lanturn.png",320,240 M,1,73806,74122,520,428,490,428 F,0,73806,74122,0,1 M,0,74122,83911,490,428 F,0,74122,83911,1 M,2,83911,84227,490,428,460,428 F,0,83911,84227,1,0
Sprite,Foreground,Centre,"samplefish.png",320,240 M,1,83911,84227,120,428,150,428 F,0,83911,84227,0,1 M,0,84227,93069,150,428 F,0,84227,93069,1 M,2,93069,93385,150,428,180,428 F,0,93069,93385,1,0
//Storyboard Sound Samples

[TimingPoints]
543,315.789473684211,4,2,4,55,1,0
5595,-100,4,2,4,65,0,0
24700,-100,4,2,4,50,0,0
25648,-100,4,2,4,65,0,0
35911,-100,4,2,4,55,0,0
43490,-100,4,2,4,65,0,0
49174,-100,4,2,4,65,0,0
49806,-100,4,2,4,65,0,0
50161,-100,4,2,4,35,0,0
50437,-100,4,2,4,65,0,0
53595,-100,4,2,4,55,0,0
53911,-100,4,2,4,60,0,0
54543,-100,4,2,4,70,0,0
54858,-100,4,2,4,75,0,0
56121,-100,4,2,4,80,0,1
66148,-100,4,2,4,80,0,0
66227,-100,4,2,4,80,0,1
73806,-100,4,2,4,80,0,0
78858,-100,4,2,4,60,0,1
81543,-100,4,2,4,20,0,1
82490,-100,4,2,4,50,0,1
83911,-100,4,2,4,65,0,0
90385,-100,4,2,4,45,0,0
91490,-100,4,2,4,50,0,0
92279,-100,4,2,4,75,0,0

[Colours]
Combo1 : 255,255,128
Combo2 : 255,128,192
Combo3 : 128,0,255
Combo4 : 225,72,96
Combo5 : 236,0,236

[HitObjects]
149,93,543,6,0,B|117:161|117:161|117:237,2,150,2|2|0,0:0|0:0|0:0,0:0:0:0:
232,40,1806,2,0,P|307:41|384:83,1,150,2|2,0:0|0:0,0:0:0:0:
373,323,3069,6,0,P|306:355|231:356,1,150,2|2,0:0|0:0,0:0:0:0:
44,288,4174,2,0,B|76:212|24:212|52:140,1,150,4|2,0:0|0:0,0:0:0:0:
112,64,4964,1,2,0:0:0:0:
252,204,5595,6,0,B|224:248|234:300|234:300|208:316|192:344,2,150,4|10|8,0:0|0:0|0:0,0:0:0:0:
332,268,6858,2,0,B|360:224|350:172|350:172|376:156|392:128,2,150,2|10|8,0:0|0:0|0:0,0:0:0:0:
388,348,8121,6,0,B|452:344|472:304|472:304|464:272|472:240,1,150,2|10,0:0|0:0,0:0:0:0:
492,56,9227,2,0,P|420:76|348:56,1,150,4|0,0:0|0:0,0:0:0:0:
256,96,10016,1,2,0:0:0:0:
188,232,10490,6,0,P|288:188|396:196,1,200,10|10,0:0|0:0,0:0:0:0:
512,336,11753,2,0,B|476:280|476:280|532:220|496:136,1,200,10|10,0:0|0:0,0:0:0:0:
344,36,13016,5,2,0:0:0:0:
228,132,13490,2,0,P|248:200|252:288,1,150,6|2,0:0|0:0,0:0:0:0:
120,208,14437,2,0,P|100:140|96:52,1,150,8|8,0:0|0:0,0:0:0:0:
296,60,15543,6,0,L|445:48,1,150,4|10,0:0|0:0,0:0:0:0:
416,144,16332,2,0,B|404:192|404:192|424:244,1,99.9999999999999,2|8,0:0|0:0,0:0:0:0:
448,336,16964,2,0,L|296:324,1,150,2|2,0:0|0:0,0:0:0:0:
100,348,18069,6,0,B|116:280|116:280|124:228|68:200,1,150,0|10,0:0|0:0,0:0:0:0:
20,136,18858,2,0,P|68:112|124:120,1,99.9999999999999,2|10,0:0|0:0,0:0:0:0:
192,176,19490,2,0,P|280:176|328:124,1,150,2|0,0:0|0:0,0:0:0:0:
392,208,20279,2,0,L|388:320,1,99.9999999999999,0|6,0:0|0:0,0:0:0:0:
236,344,21069,5,2,0:0:0:0:
140,312,21385,2,0,L|24:348,1,99.9999999999999,2|10,0:0|0:0,0:0:0:0:
52,240,22016,2,0,P|40:192|56:144,1,99.9999999999999,2|10,0:0|0:0,0:0:0:0:
144,100,22648,2,0,P|156:148|140:196,1,99.9999999999999,2|8,0:0|0:0,0:0:0:0:
220,256,23279,6,0,B|280:248|312:284|312:284|344:248|404:256,1,200,0|2,0:0|0:0,0:0:0:0:
468,68,24543,2,0,B|372:24|372:108|276:68,1,200
124,68,25648,6,0,B|120:120|152:162|152:162|132:216,1,150,4|8,0:0|0:0,0:0:0:0:
206,276,26437,1,2,0:0:0:0:
306,276,26753,1,8,0:0:0:0:
377,208,27069,2,0,B|360:162|360:162|392:120|388:68,1,150,2|0,0:0|0:0,0:0:0:0:
496,236,28174,6,0,P|459:301|393:330,1,150,2|10,0:0|0:0,0:0:0:0:
306,276,28964,2,0,L|206:276,1,99.9999999999999,2|10,0:0|0:0,0:0:0:0:
119,330,29595,2,0,P|52:300|16:236,1,150,2|2,0:0|0:0,0:0:0:0:
113,60,30700,1,6,0:0:0:0:
256,112,31174,6,0,L|256:228,1,99.9999999999999,2|2,0:0|0:0,0:0:0:0:
256,312,31806,1,10,0:0:0:0:
348,348,32121,2,0,P|408:344|444:308,1,99.9999999999999,2|10,0:0|0:0,0:0:0:0:
417,221,32753,2,0,B|407:185|418:146|418:146|380:126|358:77,1,150,2|2,0:0|0:0,0:0:0:0:
324,185,33543,6,0,P|256:214|184:180,1,150,2|0,0:0|0:0,0:0:0:0:
206,87,34332,1,8,0:0:0:0:
306,87,34648,1,8,0:0:0:0:
392,40,34964,2,0,L|428:150,1,99.9999999999999,8|0,0:0|0:0,0:0:0:0:
424,236,35595,1,8,0:0:0:0:
349,303,35911,6,0,P|253:335|150:293,1,200,4|8,0:0|0:1,0:0:0:0:
163,103,37174,2,0,P|256:71|349:103,1,200,8|8,0:1|0:1,0:0:0:0:
404,296,38437,6,0,P|360:292|304:304,1,99.9999999999999,8|0,0:1|0:0,0:0:0:0:
206,303,39069,2,0,P|157:292|108:296,1,99.9999999999999,8|8,0:1|0:0,0:0:0:0:
44,372,39700,2,0,P|48:240|28:164,1,200,8|8,0:1|0:1,0:0:0:0:
224,112,40964,6,0,B|264:148|316:148|340:112|340:112|324:76|336:40,1,200,8|8,0:1|0:1,0:0:0:0:
488,172,42227,2,0,B|480:208|488:240|488:240|428:264|476:304|404:332,1,200,8|8,0:1|0:1,0:0:0:0:
204,336,43490,6,0,B|128:344|128:344|104:336,1,99.9999999999999,10|2,0:1|0:0,0:0:0:0:
136,240,44121,2,0,B|212:232|212:232|236:240,1,99.9999999999999,2|2,0:0|0:0,0:0:0:0:
316,296,44753,2,0,B|370:215|284:180|332:104,1,200,2|10,0:0|0:1,0:0:0:0:
144,44,46016,6,0,B|120:96|127:142|127:142|96:136|72:156,1,150,4|8,0:0|0:0,0:0:0:0:
224,356,47279,2,0,B|248:304|241:258|241:258|272:264|296:244,1,150,6|8,0:0|0:0,0:0:0:0:
396,144,48227,1,2,0:0:0:0:
312,88,48543,6,0,B|272:68|216:88|216:88|204:72|204:72|160:104|108:88,2,200,10|10|8,0:0|0:0|0:0,0:0:0:0:
396,144,50121,2,0,P|412:192|408:252,1,99.9999999999999,10|10,0:0|0:0,0:0:0:0:
388,340,50753,1,10,0:0:0:0:
288,328,51069,6,0,L|172:320,1,99.9999999999999,2|0,0:0|0:0,0:0:0:0:
164,224,51700,2,0,L|263:230,1,99.9999999999999,2|0,0:0|0:0,0:0:0:0:
232,136,52332,2,0,L|116:128,1,99.9999999999999,10|0,0:0|0:0,0:0:0:0:
108,32,52963,2,0,L|207:38,1,99.9999999999999,2|2,0:0|0:0,0:0:0:0:
308,60,53595,6,0,P|352:32|420:40,2,99.9999999999999,8|8|10,0:0|0:0|0:0,0:0:0:0:
381,125,54543,2,0,P|394:174|398:224,1,99.9999999999999,10|6,0:0|0:0,0:0:0:0:
113,224,56121,6,0,P|117:174|130:126,1,99.9999999999999,4|10,0:0|0:0,0:0:0:0:
228,136,56753,2,0,P|224:185|211:234,1,99.9999999999999,0|8,0:0|0:0,0:0:0:0:
160,320,57385,2,0,B|236:364|236:304|303:341|303:341|336:292,1,200,2|2,0:0|0:0,0:0:0:0:
383,213,58332,1,8,0:0:0:0:
325,131,58648,6,0,B|277:143|277:143|228:136,1,99.9999999999999,2|10,0:0|0:0,0:0:0:0:
281,51,59279,2,0,B|329:39|329:39|378:46,1,99.9999999999999,0|8,0:0|0:0,0:0:0:0:
423,136,59911,2,0,P|467:227|411:295,1,200,2|0,0:0|0:0,0:0:0:0:
312,280,60858,1,8,0:0:0:0:
223,323,61174,6,0,P|175:311|137:280,1,99.9999999999999,2|8,0:0|0:0,0:0:0:0:
82,192,61806,2,0,B|52:123|52:123|68:84|52:48,2,150,0|2|8,0:0|0:0|0:0,0:0:0:0:
184,192,63069,2,0,B|214:123|214:123|198:84|214:48,2,150,0|2|10,0:0|0:0|0:0,0:0:0:0:
137,280,64332,6,0,P|187:292|233:280,1,99.9999999999999,2|10,0:0|0:0,0:0:0:0:
319,228,64964,2,0,B|331:205|331:205|320:184|320:184|330:164|330:164|319:140|319:140|332:117|332:117|322:89|322:89|334:74|334:74|331:44,1,200,2|2,0:0|0:0,0:0:0:0:
428,73,65911,1,8,0:0:0:0:
449,170,66227,6,0,P|441:219|470:277,1,99.9999999999999,4|10,0:0|0:0,0:0:0:0:
396,342,66858,2,0,P|347:334|289:363,1,99.9999999999999,0|8,0:0|0:0,0:0:0:0:
201,365,67490,2,0,B|208:248,1,99.9999999999999,2|8,0:0|0:0,0:0:0:0:
112,228,68121,1,2,0:0:0:0:
74,137,68437,1,8,0:0:0:0:
130,54,68753,6,0,P|190:36|245:38,1,99.9999999999999,2|10,0:0|0:0,0:0:0:0:
272,124,69385,2,0,P|321:121|368:105,1,99.9999999999999,2|8,0:0|0:0,0:0:0:0:
422,20,70016,2,0,P|459:61|464:123,1,99.9999999999999,2|8,0:0|0:0,0:0:0:0:
426,194,70648,2,0,L|421:308,1,99.9999999999999,0|8,0:0|0:0,0:0:0:0:
328,253,71279,6,0,P|255:241|181:254,1,150,8|8,0:0|0:0,0:0:0:0:
90,293,72069,2,0,L|86:194,2,99.9999999999999,8|8|8,0:0|0:0|0:0,0:0:0:0:
182,341,73016,2,0,P|255:353|329:341,1,150,8|8,0:0|0:0,0:0:0:0:
416,292,73806,5,0,0:0:0:0:
356,100,74437,1,0,0:0:0:0:
156,100,75069,1,0,0:0:0:0:
96,292,75700,1,0,0:0:0:0:
288,344,76332,6,0,B|348:340|372:298|372:298|396:340|456:344,2,200,0|0|0,0:0|0:0|0:0,0:0:0:0:
96,292,78227,1,0,0:0:0:0:
160,104,78858,6,0,B|204:88|204:88|228:72|260:72,1,99.9999999999999,10|10,0:0|0:0,0:0:0:0:
324,144,79490,2,0,B|280:160|280:160|256:176|224:176,1,99.9999999999999,10|10,0:0|0:0,0:0:0:0:
132,200,80121,2,0,P|144:248|128:308,1,99.9999999999999,10|10,0:0|0:0,0:0:0:0:
40,256,80753,2,0,P|28:208|44:148,1,99.9999999999999,10|10,0:0|0:0,0:0:0:0:
256,192,81385,12,0,82490,0:0:0:0:
306,252,83911,6,0,B|354:268|414:236|414:236|450:256,2,150,4|10|8,0:0|0:0|0:0,0:0:0:0:
206,252,85174,2,0,B|158:268|98:236|98:236|62:256,1,150,2|10,0:0|0:0,0:0:0:0:
168,145,86121,1,8,0:0:0:0:
257,99,86437,6,0,P|344:86|411:94,1,150,2|10,0:0|0:0,0:0:0:0:
405,291,87543,2,0,P|330:297|257:285,1,150,4|0,0:0|0:0,0:0:0:0:
160,260,88332,1,4,0:0:0:0:
256,48,89595,5,4,0:0:0:0:
356,160,90069,2,0,B|456:144|456:144|448:204|448:204|516:232|520:288|500:360|456:384|396:376|348:332,1,450,4|8,0:0|0:0,0:0:0:0:
180,272,92121,1,8,0:1:0:0:
256,48,93069,5,4,0:0:0:0:
