osu file format v14

[General]
AudioFilename: Watashi, Shuyaku no Akaza Akari Desu.mp3
AudioLeadIn: 1500
PreviewTime: 55253
Countdown: 0
SampleSet: Soft
StackLeniency: 0.7
Mode: 0
LetterboxInBreaks: 0
WidescreenStoryboard: 1

[Editor]
Bookmarks: 48543,51069
DistanceSpacing: 1
BeatDivisor: 2
GridSize: 4
TimelineZoom: 1.2

[Metadata]
Title:Watashi, Shuyaku no Akaza Akari desu
TitleUnicode:私、主役の赤座あかりです
Artist:Akaza Akari(CV:Mikami Shiori)
ArtistUnicode:赤座あかり(CV:三上枝織)
Creator:Setz
Version:Normal
Source:ゆるゆり
Tags:Yuru Yuri no Uta Yuruyuri Yr Yr Character song Nanamori-chu * Goraku-bu 七森中☆ごらく部 Lanturn samplefish A_Mystery A mystery kakifly
BeatmapID:706711
BeatmapSetID:313330

[Difficulty]
HPDrainRate:4
CircleSize:3.5
OverallDifficulty:4
ApproachRate:5
SliderMultiplier:1.2
SliderTickRate:1

[Events]
//Background and Video events
0,0,"akaribg2.jpg",0,0
//Break Periods
//Storyboard Layer 0 (Background)
//Storyboard Layer 1 (Fail)
//Storyboard Layer 2 (Pass)
//Storyboard Layer 3 (Foreground)
//Storyboard Sound Samples

[TimingPoints]
543,315.789473684211,4,2,4,55,1,0
5595,-100,4,2,4,65,0,0
13490,-100,4,2,4,65,0,0
25648,-100,4,2,4,65,0,0
35911,-100,4,2,4,55,0,0
43490,-100,4,2,4,65,0,0
46964,-100,4,2,4,65,0,0
47279,-100,4,2,4,65,0,0
48227,-100,4,2,4,65,0,0
48543,-100,4,2,4,65,0,0
51227,-100,4,2,4,25,0,0
51858,-100,4,2,4,30,0,0
52490,-100,4,2,4,35,0,0
53121,-100,4,2,4,40,0,0
53753,-100,4,2,4,45,0,0
54227,-100,4,2,4,50,0,0
54543,-100,4,2,4,60,0,0
54858,-100,4,2,4,75,0,0
56121,-100,4,2,4,80,0,1
66148,-100,4,2,4,80,0,0
66227,-100,4,2,4,80,0,1
73806,-100,4,2,4,80,0,0
78858,-100,4,2,4,60,0,1
81385,-100,4,2,4,20,0,1
82490,-100,4,2,4,50,0,1
83911,-100,4,2,4,65,0,0
90227,-100,4,2,4,25,0,0
91490,-100,4,2,4,50,0,0
92279,-100,4,2,4,75,0,0

[Colours]
Combo1 : 255,255,128
Combo2 : 255,128,192
Combo3 : 128,0,255
Combo4 : 225,72,96
Combo5 : 236,0,236

[HitObjects]
428,72,543,6,0,P|459:147|421:242,2,180,2|2|0,0:0|0:0|0:0,0:0:0:0:
339,153,1806,2,0,B|248:120|244:184|163:151,1,180,2|2,0:0|0:0,0:0:0:0:
81,62,2595,2,0,P|45:117|46:184,1,120,2|0,0:0|0:0,0:0:0:0:
63,226,3069,6,0,P|133:272|234:272,1,180,2|2,0:0|0:0,0:0:0:0:
343,246,3858,1,2,0:0:0:0:
447,186,4174,2,0,P|373:128|279:142,1,180,4|2,0:0|0:0,0:0:0:0:
182,187,4964,1,2,0:0:0:0:
334,1,5595,6,0,L|351:129,1,120,4|8,0:0|0:0,0:0:0:0:
353,180,6069,2,0,B|312:214|262:180|262:180|178:187,1,180,10|8,0:0|0:0,0:0:0:0:
107,281,6858,2,0,L|243:272,1,120,2|10,0:0|0:0,0:0:0:0:
287,276,7332,1,10,0:0:0:0:
399,316,7648,2,0,L|403:378,2,60,2|8|0,0:0|0:0|0:0,0:0:0:0:
444,276,8121,6,0,P|466:223|443:156,1,120,2|8,0:0|0:0,0:0:0:0:
413,116,8595,1,10,0:0:0:0:
308,56,8911,2,0,L|241:52,1,60,2|10,0:0|0:0,0:0:0:0:
191,74,9227,2,0,P|177:134|176:198,1,120,4|2,0:0|0:0,0:0:0:0:
201,246,9700,1,2,0:0:0:0:
127,340,10016,2,0,P|186:365|255:353,1,120,2|2,0:0|0:0,0:0:0:0:
297,339,10490,5,10,0:0:0:0:
397,272,10806,2,0,L|471:281,2,60,2|2|10,0:0|0:0|0:0,0:0:0:0:
299,201,11437,2,0,L|225:210,2,60,2|2|10,0:0|0:0|0:0,0:0:0:0:
389,121,12069,2,0,L|472:131,2,60,2|2|10,0:0|0:0|0:0,0:0:0:0:
280,68,12700,2,0,L|197:78,1,60,2|2,0:0|0:0,0:0:0:0:
160,82,13016,1,10,0:0:0:0:
5,173,13490,5,6,0:0:0:0:
80,336,13964,1,2,0:0:0:0:
221,224,14437,2,0,L|206:153,2,60,8|8|8,0:0|0:0|0:0,0:0:0:0:
264,266,14911,1,8,0:0:0:0:
215,30,15543,6,0,P|311:17|382:60,1,180,4|10,0:0|0:0,0:0:0:0:
439,161,16332,2,0,P|448:223|446:291,1,120,2|8,0:0|0:0,0:0:0:0:
353,355,16964,2,0,P|300:371|233:356,1,120,2|8,0:0|0:0,0:0:0:0:
123,322,17595,2,0,P|98:321|60:317,2,60,2|2|8,0:0|0:0|0:0,0:0:0:0:
156,271,18069,6,0,P|172:185|158:84,1,180,0|10,0:0|0:0,0:0:0:0:
265,34,18858,2,0,P|323:35|383:54,1,120,2|10,0:0|0:0,0:0:0:0:
469,135,19490,2,0,B|468:260,1,120,2|8,0:0|0:0,0:0:0:0:
439,308,19964,1,0,0:0:0:0:
330,359,20279,2,0,L|260:362,1,60,0|8,0:0|0:0,0:0:0:0:
211,355,20595,1,6,0:0:0:0:
105,208,21069,5,2,0:0:0:0:
161,101,21385,1,2,0:0:0:0:
261,165,21700,5,10,0:0:0:0:
331,68,22016,2,0,L|474:58,1,120,2|10,0:0|0:0,0:0:0:0:
380,156,22648,2,0,L|260:164,1,120,2|8,0:0|0:0,0:0:0:0:
210,130,23121,1,2,0:0:0:0:
115,56,23437,6,0,P|89:127|128:220,1,180,2|2,0:0|0:0,0:0:0:0:
220,296,24227,1,8,0:0:0:0:
332,337,24543,2,0,P|390:350|450:350,2,120,0|0|0,0:0|0:0|0:0,0:0:0:0:
241,181,25648,6,0,B|272:66|272:66|328:6,1,180,4|8,0:0|0:0,0:0:0:0:
344,138,26437,2,0,B|309:260,1,120,2|8,0:0|0:0,0:0:0:0:
220,332,27069,2,0,B|175:357|175:357|107:352,1,120,2|8,0:0|0:0,0:0:0:0:
77,236,27700,2,0,L|17:231,2,60,2|0|8,0:0|0:0|0:0,0:0:0:0:
128,204,28174,6,0,B|190:202|190:202|259:232|310:190,1,180,2|10,0:0|0:0,0:0:0:0:
240,91,28964,2,0,B|198:66|198:66|110:69,1,120,2|10,0:0|0:0,0:0:0:0:
39,150,29595,2,0,P|26:209|39:280,1,120,2|8,0:0|0:0,0:0:0:0:
70,315,30069,1,2,0:0:0:0:
187,290,30385,2,0,P|215:292|254:291,1,60,0|8,0:0|0:0,0:0:0:0:
304,276,30700,1,6,0:0:0:0:
458,368,31174,5,2,0:0:0:0:
511,260,31490,1,2,0:0:0:0:
429,171,31806,5,10,0:0:0:0:
469,58,32121,2,0,P|402:54|343:89,1,120,2|10,0:0|0:0,0:0:0:0:
271,162,32753,2,0,L|273:224,2,60,2|2|8,0:0|0:0|0:0,0:0:0:0:
221,128,33227,1,2,0:0:0:0:
159,25,33542,6,0,B|84:18|84:18|43:38,1,120,2|0,0:0|0:0,0:0:0:0:
12,89,34016,2,0,P|12:157|16:230,1,120,2|8,0:0|0:0,0:0:0:0:
76,312,34648,1,8,0:0:0:0:
187,271,34964,2,0,P|186:213|189:141,2,120,8|0|8,0:0|0:0|0:0,0:0:0:0:
278,348,35911,6,0,P|347:375|438:330,1,180,4|8,0:0|0:1,0:0:0:0:
474,284,36542,1,8,0:1:0:0:
500,166,36858,1,8,0:0:0:0:
436,63,37174,2,0,P|367:36|276:81,1,180,8|8,0:1|0:1,0:0:0:0:
240,127,37805,1,8,0:1:0:0:
332,203,38121,1,8,0:0:0:0:
254,294,38437,6,0,B|202:294|178:310|178:310|159:295|126:295,1,120,8|0,0:1|0:0,0:0:0:0:
81,279,38911,1,8,0:1:0:0:
81,279,39069,2,0,L|84:149,1,120,8|8,0:1|0:0,0:0:0:0:
142,54,39700,2,0,B|181:110|181:110|178:235,1,180,8|8,0:1|0:1,0:0:0:0:
177,282,40332,1,8,0:1:0:0:
275,351,40648,1,8,0:0:0:0:
390,319,40964,6,0,B|456:220|352:220|405:133,1,180,8|8,0:1|0:1,0:0:0:0:
415,91,41596,1,8,0:1:0:0:
316,22,41911,1,8,0:0:0:0:
202,54,42227,2,0,B|136:153|240:153|187:240,1,180,8|8,0:1|0:1,0:0:0:0:
177,282,42859,1,8,0:1:0:0:
80,353,43174,1,8,0:0:0:0:
14,252,43490,6,0,P|0:191|23:127,1,120,10|2,0:1|0:0,0:0:0:0:
65,102,43964,1,2,0:0:0:0:
65,102,44121,2,0,P|113:111|183:90,1,120,2|2,0:0|0:0,0:0:0:0:
291,46,44753,2,0,P|339:101|313:215,1,180,2|2,0:0|0:0,0:0:0:0:
292,251,45385,1,10,0:1:0:0:
381,329,45700,1,0,0:0:0:0:
268,373,46016,6,0,P|205:378|146:355,1,120,6|0,0:0|0:0,0:0:0:0:
109,316,46490,1,8,0:0:0:0:
26,228,46806,2,0,L|21:164,1,60,2|2,0:0|0:0,0:0:0:0:
88,68,47279,2,0,P|151:63|210:86,1,120,6|0,0:0|0:0,0:0:0:0:
247,125,47753,1,8,0:0:0:0:
339,200,48069,2,0,L|334:259,1,60,2|2,0:0|0:0,0:0:0:0:
263,357,48543,6,0,P|321:378|400:359,1,120,10|2,0:0|0:0,0:0:0:0:
481,310,49174,2,0,P|490:251|468:193,1,120,10|2,0:0|0:0,0:0:0:0:
370,263,49806,1,8,0:0:0:0:
260,309,50121,1,10,0:0:0:0:
181,219,50437,1,10,0:0:0:0:
243,115,50753,1,10,0:0:0:0:
360,143,51069,5,2,0:0:0:0:
256,192,51227,12,6,54858,0:0:0:0:
63,315,56121,6,0,P|119:294|184:309,1,120,4|10,0:0|0:0,0:0:0:0:
232,328,56595,2,0,P|287:342|355:325,1,120,0|2,0:0|0:0,0:0:0:0:
402,304,57069,1,8,0:0:0:0:
496,229,57385,2,0,P|509:169|483:101,1,120,2|8,0:0|0:0,0:0:0:0:
384,60,58016,2,0,L|387:0,2,60,2|0|8,0:0|0:0|0:0,0:0:0:0:
344,106,58490,1,0,0:0:0:0:
344,106,58648,6,0,P|293:125|221:98,1,120,2|10,0:0|0:0,0:0:0:0:
180,75,59121,2,0,P|138:106|106:170,1,120,0|2,0:0|0:0,0:0:0:0:
94,224,59595,1,8,0:0:0:0:
36,329,59911,2,0,P|96:340|160:314,1,120,2|8,0:0|0:0,0:0:0:0:
263,280,60543,2,0,P|289:286|324:290,2,60,2|0|8,0:0|0:0|0:0,0:0:0:0:
231,228,61016,1,0,0:0:0:0:
231,228,61175,6,0,P|220:166|238:112,1,120,2|8,0:0|0:0,0:0:0:0:
334,41,61806,2,0,P|386:33|453:54,1,120,2|8,0:0|0:0,0:0:0:0:
491,95,62279,2,0,P|503:139|488:227,1,120,0|0,0:0|0:0,0:0:0:0:
451,255,62753,1,8,0:0:0:0:
350,321,63069,2,0,L|352:380,2,60,2|0|8,0:0|0:0|0:0,0:0:0:0:
304,281,63543,1,0,0:0:0:0:
304,281,63700,6,0,P|261:256|189:262,1,120,2|10,0:0|0:0,0:0:0:0:
78,298,64332,1,2,0:0:0:0:
21,191,64648,1,10,0:0:0:0:
82,87,64964,2,0,P|139:57|211:52,1,120,2|10,0:0|0:0,0:0:0:0:
294,115,65595,2,0,P|318:114|365:108,2,60,2|0|8,0:0|0:0|0:0,0:0:0:0:
253,159,66069,1,0,0:0:0:0:
253,159,66227,6,0,P|237:218|252:283,1,120,4|10,0:0|0:0,0:0:0:0:
293,314,66700,2,0,P|341:318|414:299,1,120,0|2,0:0|0:0,0:0:0:0:
461,269,67174,1,8,0:0:0:0:
495,154,67490,2,0,B|486:98|486:98|433:63,1,120,2|8,0:0|0:0,0:0:0:0:
318,99,68121,2,0,L|314:161,2,60,2|0|8,0:0|0:0|0:0,0:0:0:0:
273,58,68595,1,0,0:0:0:0:
273,58,68753,6,0,P|214:32|157:47,1,120,2|10,0:0|0:0,0:0:0:0:
111,77,69227,2,0,P|108:138|109:199,1,120,0|2,0:0|0:0,0:0:0:0:
135,250,69700,2,0,P|136:281|134:309,1,60,8|0,0:0|0:0,0:0:0:0:
181,346,70016,2,0,P|240:353|295:330,1,120,2|8,0:0|0:0,0:0:0:0:
399,271,70648,2,0,P|414:215|398:141,1,120,2|8,0:0|0:0,0:0:0:0:
306,84,71279,6,0,P|273:80|246:81,1,60,8|8,0:0|0:0,0:0:0:0:
128,105,71753,1,8,0:0:0:0:
216,185,72068,1,8,0:0:0:0:
105,231,72384,1,8,0:0:0:0:
195,310,72700,1,8,0:0:0:0:
314,297,73016,2,0,L|377:317,2,60,8|8|8,0:0|0:0|0:1,0:0:0:0:
292,240,73490,1,8,0:0:0:0:
327,125,73805,5,0,0:0:0:0:
101,43,74437,1,0,0:0:0:0:
181,268,75068,1,0,0:0:0:0:
240,35,75700,1,0,0:0:0:0:
60,194,76332,5,0,0:0:0:0:
293,140,76963,1,0,0:0:0:0:
233,372,77595,1,0,0:0:0:0:
459,294,78226,1,0,0:0:0:0:
254,167,78858,5,10,0:0:0:0:
144,213,79173,1,10,0:0:0:0:
65,123,79489,1,10,0:0:0:0:
127,19,79805,1,10,0:0:0:0:
244,47,80121,1,10,0:0:0:0:
254,167,80437,1,10,0:0:0:0:
334,256,80753,1,10,0:0:0:0:
234,323,81068,1,10,0:0:0:0:
256,192,81384,12,0,82490,0:0:0:0:
429,290,83911,6,0,P|445:232|436:174,1,120,4|8,0:0|0:0,0:0:0:0:
406,121,84385,2,0,B|350:86|294:118|294:118|232:112,1,180,10|8,0:0|0:0,0:0:0:0:
154,21,85174,2,0,P|120:68|117:143,1,120,2|10,0:0|0:0,0:0:0:0:
120,188,85648,1,10,0:0:0:0:
181,291,85964,2,0,P|180:321|186:360,2,60,2|8|0,0:0|0:0|0:0,0:0:0:0:
230,257,86437,6,0,P|287:246|356:261,1,120,2|8,0:0|0:0,0:0:0:0:
402,280,86911,1,10,0:0:0:0:
492,201,87227,2,0,L|474:133,1,60,2|8,0:0|0:0,0:0:0:0:
440,94,87543,2,0,B|392:68|392:68|324:73,1,120,4|0,0:0|0:0,0:0:0:0:
272,97,88016,1,2,0:0:0:0:
159,54,88332,2,0,P|101:41|28:70,1,120,4|2,0:0|0:0,0:0:0:0:
9,107,88806,6,0,L|19:242,1,120,2|2,0:0|0:0,0:0:0:0:
51,276,89279,1,8,0:0:0:0:
132,187,89595,1,4,0:0:0:0:
234,335,90069,1,4,0:0:0:0:
256,192,90227,12,8,91490,0:0:0:0:
127,267,92279,6,0,P|165:273|206:265,1,60,2|2,0:0|0:0,0:0:0:0:
244,256,92595,1,2,0:0:0:0:
170,91,93069,1,4,0:0:0:0:
