osu file format v14

[General]
AudioFilename: by.mp3
AudioLeadIn: 0
PreviewTime: 2581
Countdown: 1
SampleSet: Normal
StackLeniency: 0.7
Mode: 0
LetterboxInBreaks: 1
WidescreenStoryboard: 0

[Editor]
DistanceSpacing: 2
BeatDivisor: 4
GridSize: 4
TimelineZoom: 2.4

[Metadata]
Title:Dandan takaku naru
TitleUnicode:だんだん高くなる
Artist:Akatin
ArtistUnicode:赤ティン
Creator:Suzuya Jyuzo
Version:Extra
Source:
Tags:Akatin Dandan takaku naru 40mp
BeatmapID:684909
BeatmapSetID:305908

[Difficulty]
HPDrainRate:5
CircleSize:4
OverallDifficulty:8
ApproachRate:9.2
SliderMultiplier:1.8
SliderTickRate:1

[Events]
//Background and Video events
0,0,"ss+(2015-04-23+at+04.30.33).jpg",0,0
Video,0,"shishipin.avi"
//Break Periods
2,95842,105174
//Storyboard Layer 0 (Background)
//Storyboard Layer 1 (Fail)
//Storyboard Layer 2 (Pass)
//Storyboard Layer 3 (Foreground)
//Storyboard Sound Samples

[TimingPoints]
1357,306.122448979592,4,1,0,15,1,0
2581,-100,4,1,0,30,0,0
7479,-90.9090909090909,4,1,0,40,0,0
12377,-83.3333333333333,4,1,0,50,0,0
17275,-76.9230769230769,4,1,0,60,0,0
24010,-100,4,1,0,30,0,0
51561,-100,4,1,0,35,0,0
56459,-90.9090909090909,4,1,0,45,0,0
61357,-83.3333333333333,4,1,0,55,0,0
66254,-76.9230769230769,4,1,0,65,0,0
70540,-100,4,1,0,30,0,0
75974,-83.3333333333333,4,1,0,30,0,0
76357,-100,4,1,0,30,0,0
118295,-100,4,1,0,40,0,0
123193,-90.9090909090909,4,1,0,50,0,0
128091,-83.3333333333333,4,1,0,60,0,0
132989,-76.9230769230769,4,1,0,70,0,0
137887,-71.4285714285714,4,1,0,80,0,0
142785,-66.6666666666667,4,1,0,90,0,0
147683,-62.5,4,1,0,100,0,0
152581,-58.8235294117647,4,1,0,100,0,0

[HitObjects]
72,336,1357,5,0,0:0:0:0:
104,256,1663,1,0,0:0:0:0:
132,176,1969,1,0,0:0:0:0:
164,100,2275,1,0,0:0:0:0:
200,24,2581,6,0,P|204:108|248:168,1,135
260,136,2887,2,0,P|192:120|116:156,1,135
132,176,3193,1,0,0:0:0:0:
176,284,3346,1,0,0:0:0:0:
76,224,3499,1,0,0:0:0:0:
192,216,3652,6,0,P|124:192|68:236,1,135
75,223,3959,1,0,0:0:0:0:
192,216,4112,1,0,0:0:0:0:
364,60,4418,1,0,0:0:0:0:
448,140,4571,1,0,0:0:0:0:
336,172,4724,1,0,0:0:0:0:
144,308,5030,6,0,B|180:384|272:376,1,135
284,356,5336,2,0,P|236:304|260:224,1,135
272,220,5642,1,0,0:0:0:0:
344,312,5795,1,0,0:0:0:0:
243,244,5948,1,0,0:0:0:0:
356,276,6101,6,0,P|396:236|360:168,1,135
367,171,6408,1,0,0:0:0:0:
356,276,6561,1,0,0:0:0:0:
364,160,6714,1,0,0:0:0:0:
444,244,6867,1,0,0:0:0:0:
344,312,7020,1,0,0:0:0:0:
456,280,7173,1,0,0:0:0:0:
372,196,7326,1,0,0:0:0:0:
252,240,7479,5,0,0:0:0:0:
232,252,7785,1,0,0:0:0:0:
212,264,8091,2,0,P|136:256|132:208,1,99.0000030212403
76,128,8397,1,0,0:0:0:0:
72,120,8550,6,0,B|48:104|48:104|12:160|48:232,1,148.50000453186
41,218,8857,1,0,0:0:0:0:
68,112,9010,2,0,L|44:220,1,99.0000030212403
84,340,9316,1,0,0:0:0:0:
46,208,9469,1,0,0:0:0:0:
120,324,9622,2,0,L|146:220,1,99.0000030212403
232,120,9928,5,0,0:0:0:0:
244,104,10234,1,0,0:0:0:0:
256,88,10540,1,0,0:0:0:0:
380,24,10693,1,0,0:0:0:0:
308,140,10846,1,0,0:0:0:0:
316,0,10999,2,0,L|224:128,1,148.50000453186
232,120,11305,5,0,0:0:0:0:
233,268,11459,1,0,0:0:0:0:
308,140,11612,1,0,0:0:0:0:
196,204,11765,1,0,0:0:0:0:
345,204,11918,1,0,0:0:0:0:
308,269,12071,1,0,0:0:0:0:
233,140,12224,1,0,0:0:0:0:
432,136,12377,6,0,P|337:102|232:140,1,215.999993408203
8,304,12989,1,0,0:0:0:0:
128,196,13142,1,0,0:0:0:0:
56,52,13295,1,0,0:0:0:0:
188,144,13448,1,0,0:0:0:0:
188,144,13754,5,0,0:0:0:0:
64,252,13908,1,0,0:0:0:0:
384,308,14214,2,0,L|472:232,1,107.999996704102
312,284,14520,1,0,0:0:0:0:
108,32,14826,6,0,P|80:120|124:200,1,161.999995056153
144,196,15132,2,0,P|120:156|128:216,1,161.999995056153
144,196,15438,1,0,0:0:0:0:
240,248,15591,1,0,0:0:0:0:
324,180,15744,1,0,0:0:0:0:
292,76,15897,6,0,P|376:88|432:160,1,161.999995056153
425,142,16203,1,0,0:0:0:0:
292,76,16357,1,0,0:0:0:0:
292,236,16510,1,0,0:0:0:0:
360,108,16663,1,0,0:0:0:0:
360,276,16816,1,0,0:0:0:0:
292,76,16969,1,0,0:0:0:0:
432,312,17122,1,0,0:0:0:0:
432,312,17198,1,0,0:0:0:0:
432,312,17275,5,0,0:0:0:0:
220,48,17581,1,0,0:0:0:0:
220,48,17887,2,0,L|184:168,1,116.999994644165
88,276,18193,1,0,0:0:0:0:
239,296,18346,6,0,P|239:192|155:160,1,175.499991966248
185,159,18652,1,0,0:0:0:0:
239,296,18805,1,0,0:0:0:0:
185,159,18959,1,0,0:0:0:0:
356,240,19112,1,0,0:0:0:0:
168,244,19265,1,0,0:0:0:0:
356,152,19418,1,0,0:0:0:0:
268,368,19571,1,0,0:0:0:0:
116,192,19724,6,0,P|196:110|310:100,1,233.999989288331
56,140,20948,5,0,0:0:0:0:
344,72,21101,1,0,0:0:0:0:
132,264,21254,1,0,0:0:0:0:
252,184,21408,1,0,0:0:0:0:
288,204,21484,1,0,0:0:0:0:
320,176,21561,1,0,0:0:0:0:
344,144,21637,1,0,0:0:0:0:
388,144,21714,1,0,0:0:0:0:
424,168,21790,1,0,0:0:0:0:
416,212,21867,1,0,0:0:0:0:
416,212,21943,1,0,0:0:0:0:
416,212,22020,1,0,0:0:0:0:
416,212,22096,1,0,0:0:0:0:
416,212,22173,6,0,L|216:308,1,175.499991966248
200,280,22479,2,0,L|358:204,1,175.499991966248
388,152,22785,2,0,L|265:211,5,116.999994644165
168,204,23703,2,0,P|264:136|208:40,1,233.999989288331
80,72,24163,1,0,0:0:0:0:
80,72,24316,1,0,0:0:0:0:
80,72,24622,6,0,L|84:188,1,90
164,114,24928,2,0,L|168:230,1,90
248,158,25234,1,0,0:0:0:0:
252,248,25387,2,0,L|248:140,1,90
184,92,25693,2,0,P|243:63|304:88,1,135
304,88,25999,5,0,0:0:0:0:
344,168,26152,1,0,0:0:0:0:
396,96,26305,1,0,0:0:0:0:
444,268,26612,1,0,0:0:0:0:
464,356,26765,1,0,0:0:0:0:
380,328,26918,1,0,0:0:0:0:
380,328,26994,1,0,0:0:0:0:
380,328,27071,6,0,L|272:328,1,90
212,368,27377,2,0,P|200:320|220:272,1,90
290,328,27683,1,0,0:0:0:0:
212,282,27836,1,0,0:0:0:0:
212,368,27989,1,0,0:0:0:0:
290,328,28142,1,0,0:0:0:0:
132,244,28448,6,0,L|40:200,1,90
40,296,28754,2,0,L|137:342,1,90
132,244,29061,2,0,L|220:200,1,90
244,120,29367,1,0,0:0:0:0:
132,244,29520,6,0,L|220:200,1,90
244,120,29826,2,0,P|292:152|296:204,1,90
272,268,30132,1,0,0:0:0:0:
212,203,30285,1,0,0:0:0:0:
299,180,30438,1,0,0:0:0:0:
212,203,30591,1,0,0:0:0:0:
388,160,30897,5,0,0:0:0:0:
388,160,30974,1,0,0:0:0:0:
388,160,31050,1,0,0:0:0:0:
344,316,31203,1,0,0:0:0:0:
324,384,31357,1,0,0:0:0:0:
212,203,31510,1,0,0:0:0:0:
232,136,31663,1,0,0:0:0:0:
388,160,31816,1,0,0:0:0:0:
448,196,31969,6,0,B|512:228|512:228|464:244,1,90
388,232,32275,2,0,P|424:272|424:316,1,90
494,233,32581,1,0,0:0:0:0:
388,232,32734,1,0,0:0:0:0:
448,196,32887,1,0,0:0:0:0:
426,306,33040,2,0,L|279:344,1,135
295,339,33346,5,0,0:0:0:0:
426,306,33499,2,0,P|419:262|388:232,1,90
295,339,33805,1,0,0:0:0:0:
388,232,33959,1,0,0:0:0:0:
295,339,34112,2,0,P|252:352|204:336,1,90
244,248,34418,6,0,P|196:232|156:256,1,90
209,339,34724,2,0,P|166:352|118:336,1,90
162,248,35030,1,0,0:0:0:0:
209,339,35183,1,0,0:0:0:0:
244,248,35336,1,0,0:0:0:0:
123,339,35489,2,0,P|84:304|88:260,1,90
162,248,35795,5,0,0:0:0:0:
162,248,35948,2,0,P|144:196|76:200,1,90
88,268,36254,2,0,P|112:232|112:176,1,90
27,207,36561,2,0,L|127:183,1,90
168,104,36867,6,0,L|276:72,1,90
316,156,37173,2,0,L|216:172,1,90
168,104,37479,1,0,0:0:0:0:
316,156,37632,1,0,0:0:0:0:
254,78,37785,1,0,0:0:0:0:
227,170,37938,1,0,0:0:0:0:
254,78,38091,6,0,L|224:176,1,90
168,104,38397,2,0,P|144:36|112:28,1,90
88,100,38703,1,0,0:0:0:0:
4,248,38857,1,0,0:0:0:0:
144,360,39010,2,0,P|220:356|264:364,1,90
372,308,39316,6,0,P|296:304|252:312,1,90
140,260,39622,2,0,P|216:256|260:264,1,90
372,308,39928,1,0,0:0:0:0:
229,257,40081,1,0,0:0:0:0:
380,232,40234,1,0,0:0:0:0:
396,80,40387,2,0,L|384:192,1,90
372,308,40693,5,0,0:0:0:0:
386,169,40846,2,0,B|404:188|404:188|400:100,1,90
248,32,41152,1,0,0:0:0:0:
140,176,41305,1,0,0:0:0:0:
386,169,41459,1,0,0:0:0:0:
204,92,41612,1,0,0:0:0:0:
204,92,41688,1,0,0:0:0:0:
204,92,41765,6,0,B|184:96|184:96|224:132|224:132|268:144,1,90
323,233,42071,2,0,L|405:149,1,90
472,176,42377,1,0,0:0:0:0:
385,168,42530,1,0,0:0:0:0:
323,233,42683,1,0,0:0:0:0:
448,360,42836,2,0,P|492:312|492:272,1,90
408,264,43142,5,0,0:0:0:0:
323,233,43295,2,0,B|248:200|248:200|232:176,1,90
220,80,43601,1,0,0:0:0:0:
323,233,43754,1,0,0:0:0:0:
408,264,43908,2,0,P|408:200|372:164,1,90
323,233,44214,6,0,P|323:297|359:333,1,90
408,264,44520,2,0,L|316:232,1,90
224,172,44826,2,0,L|316:120,1,90
372,32,45132,1,0,0:0:0:0:
302,127,45285,2,0,L|288:248,1,90
372,32,45591,5,0,0:0:0:0:
224,172,45744,2,0,L|210:293,1,90
372,32,46050,1,0,0:0:0:0:
388,148,46203,1,0,0:0:0:0:
484,80,46357,2,0,P|440:44|392:36,1,90
312,104,46663,6,0,P|356:140|404:148,1,90
480,220,46969,2,0,P|428:240|360:236,1,90
312,104,47275,1,0,0:0:0:0:
144,40,47428,1,0,0:0:0:0:
28,176,47581,1,0,0:0:0:0:
152,308,47734,2,0,P|196:328|252:328,1,90
394,241,48040,5,0,0:0:0:0:
237,330,48193,2,0,B|288:336|352:288,1,90
412,172,48499,1,0,0:0:0:0:
480,320,48652,1,0,0:0:0:0:
322,307,48805,2,0,L|420:276,1,90
360,64,49112,6,0,L|324:168,1,90
120,80,49418,2,0,L|236:60,1,90
168,280,49724,2,0,L|144:204,1,45
168,192,49877,1,0,0:0:0:0:
168,192,49953,2,0,L|332:192,1,135
464,276,50336,5,0,0:0:0:0:
464,276,51561,6,0,P|388:312|320:304,1,135
304,276,51867,2,0,P|384:252|440:204,1,135
424,172,52173,1,0,0:0:0:0:
284,116,52326,1,0,0:0:0:0:
456,56,52479,1,0,0:0:0:0:
352,148,52632,2,0,P|296:192|264:188,1,90
108,144,52938,5,0,0:0:0:0:
280,192,53091,2,0,P|304:152|272:112,1,90
108,144,53397,1,0,0:0:0:0:
180,48,53550,1,0,0:0:0:0:
64,48,53703,2,0,B|24:96|24:96|8:144,1,90
48,244,54010,6,0,P|144:308|184:308,1,135
159,309,54316,2,0,B|184:284|184:284|208:356|264:328,1,135
256,331,54622,1,0,0:0:0:0:
159,309,54775,1,0,0:0:0:0:
352,232,54928,1,0,0:0:0:0:
444,268,55081,2,0,P|388:320|348:312,1,90
352,232,55387,5,0,0:0:0:0:
379,320,55540,2,0,P|440:356|472:352,1,90
428,172,55846,1,0,0:0:0:0:
379,320,55999,1,0,0:0:0:0:
336,144,56152,1,0,0:0:0:0:
456,355,56305,1,0,0:0:0:0:
416,88,56459,5,0,0:0:0:0:
416,88,56765,2,0,B|432:60|432:60|368:68|300:100,1,148.50000453186
336,108,57071,1,0,0:0:0:0:
416,88,57224,1,0,0:0:0:0:
240,24,57377,1,0,0:0:0:0:
160,44,57530,2,0,L|272:100,1,99.0000030212403
324,204,57836,5,0,0:0:0:0:
248,88,57989,2,0,L|144:128,1,99.0000030212403
304,216,58295,1,0,0:0:0:0:
200,108,58448,1,0,0:0:0:0:
60,156,58601,2,0,B|72:172|72:172|40:224|92:272,1,99.0000030212403
208,224,58908,6,0,B|236:292|184:328|176:332|176:332|136:328,1,148.50000453186
144,260,59214,2,0,L|288:304,1,148.50000453186
286,303,59520,1,0,0:0:0:0:
208,224,59673,1,0,0:0:0:0:
151,329,59826,1,0,0:0:0:0:
24,300,59979,2,0,L|116:256,1,99.0000030212403
28,76,60285,5,0,0:0:0:0:
113,257,60438,1,0,0:0:0:0:
228,96,60591,1,0,0:0:0:0:
228,96,60668,1,0,0:0:0:0:
228,96,60744,1,0,0:0:0:0:
66,148,60897,1,0,0:0:0:0:
151,329,61050,1,0,0:0:0:0:
266,168,61203,1,0,0:0:0:0:
266,168,61280,1,0,0:0:0:0:
266,168,61356,5,0,0:0:0:0:
266,168,61663,2,0,B|296:196|296:196|304:120|292:64,1,161.999995056153
294,75,61969,1,0,0:0:0:0:
266,168,62122,1,0,0:0:0:0:
488,76,62275,1,0,0:0:0:0:
392,76,62428,2,0,P|416:144|488:160,1,107.999996704102
488,76,62734,5,0,0:0:0:0:
444,159,62887,2,0,B|444:192|444:192|512:240|464:296,1,107.999996704102
388,276,63193,1,0,0:0:0:0:
483,251,63346,1,0,0:0:0:0:
464,345,63499,2,0,B|383:310|375:266|399:254,1,107.999996704102
295,231,63805,6,0,B|247:223|247:223|303:335,1,161.999995056153
298,325,64112,2,0,B|320:365|320:365|172:341,1,161.999995056153
206,347,64418,1,0,0:0:0:0:
298,325,64571,1,0,0:0:0:0:
108,320,64724,1,0,0:0:0:0:
16,344,64877,2,0,P|40:252|88:240,1,107.999996704102
108,320,65183,5,0,0:0:0:0:
148,172,65336,1,0,0:0:0:0:
312,120,65489,1,0,0:0:0:0:
456,216,65642,1,0,0:0:0:0:
298,325,65795,1,0,0:0:0:0:
148,172,65948,1,0,0:0:0:0:
372,96,66101,1,0,0:0:0:0:
284,364,66254,5,0,0:0:0:0:
56,40,66561,2,0,B|100:84|100:84|168:40|224:112,1,175.499991966248
203,90,66867,1,0,0:0:0:0:
148,172,67020,1,0,0:0:0:0:
100,80,67173,1,0,0:0:0:0:
80,256,67326,2,0,B|68:216|68:216|16:208|-4:148,1,116.999994644165
88,112,67632,5,0,0:0:0:0:
80,256,67785,2,0,B|108:304|108:304|104:324|104:324|128:372,1,116.999994644165
122,360,68091,1,0,0:0:0:0:
20,316,68244,1,0,0:0:0:0:
240,332,68397,2,0,B|216:320|216:320|280:304|328:344,1,116.999994644165
412,364,68703,6,0,B|444:368|444:368|422:256|422:256|396:272,1,175.499991966248
397,271,69010,2,0,B|368:292|368:292|344:180|344:180|396:188,1,175.499991966248
368,183,69316,1,0,0:0:0:0:
397,271,69469,1,0,0:0:0:0:
456,40,69622,1,0,0:0:0:0:
436,132,69775,1,0,0:0:0:0:
156,24,69928,5,0,0:0:0:0:
196,316,70081,1,0,0:0:0:0:
196,316,70158,1,0,0:0:0:0:
196,316,70234,1,0,0:0:0:0:
300,80,70387,1,0,0:0:0:0:
176,168,70540,1,0,0:0:0:0:
320,240,70693,1,0,0:0:0:0:
236,124,70846,1,0,0:0:0:0:
236,124,70923,1,0,0:0:0:0:
236,124,70999,1,0,0:0:0:0:
248,204,71152,5,0,0:0:0:0:
484,112,71459,1,0,0:0:0:0:
472,32,71612,1,0,0:0:0:0:
220,48,71918,1,0,0:0:0:0:
140,64,72071,1,0,0:0:0:0:
176,312,72377,5,0,0:0:0:0:
176,312,72453,1,0,0:0:0:0:
176,312,72530,2,0,L|264:360,1,90
424,168,72989,1,0,0:0:0:0:
344,136,73142,1,0,0:0:0:0:
356,216,73295,2,0,P|472:240|488:228,1,135
424,168,73601,6,0,P|408:80|336:48,1,135
344,136,73908,1,0,0:0:0:0:
356,216,74061,2,0,P|288:200|272:116,1,135
264,144,74367,1,0,0:0:0:0:
344,136,74520,2,0,P|296:64|200:88,1,180
264,144,74902,5,0,0:0:0:0:
264,144,74979,2,0,P|164:144|136:92,1,135
146,123,75285,1,0,0:0:0:0:
212,75,75438,2,0,L|200:232,1,135
124,232,75744,2,0,L|124:356,1,90
201,209,75974,1,0,0:0:0:0:
201,209,76050,6,0,L|312:208,1,107.999996704102
64,196,76357,2,0,B|0:228|0:228|48:244,1,90
124,232,76663,2,0,P|88:272|88:316,1,90
18,233,76969,1,0,0:0:0:0:
124,232,77122,1,0,0:0:0:0:
64,196,77275,1,0,0:0:0:0:
86,306,77428,2,0,L|233:344,1,135
217,339,77734,5,0,0:0:0:0:
86,306,77887,2,0,P|93:262|124:232,1,90
217,339,78193,1,0,0:0:0:0:
124,232,78347,1,0,0:0:0:0:
217,339,78500,2,0,P|260:352|308:336,1,90
268,248,78806,6,0,P|316:232|356:256,1,90
303,339,79112,2,0,P|346:352|394:336,1,90
350,248,79418,1,0,0:0:0:0:
303,339,79571,1,0,0:0:0:0:
268,248,79724,1,0,0:0:0:0:
389,339,79877,2,0,P|428:304|424:260,1,90
350,248,80183,5,0,0:0:0:0:
350,248,80336,2,0,P|368:196|436:200,1,90
424,268,80642,2,0,P|400:232|400:176,1,90
485,207,80949,2,0,L|385:183,1,90
344,104,81255,6,0,L|236:72,1,90
196,156,81561,2,0,L|296:172,1,90
344,104,81867,1,0,0:0:0:0:
196,156,82020,1,0,0:0:0:0:
258,78,82173,1,0,0:0:0:0:
285,170,82326,1,0,0:0:0:0:
258,78,82479,6,0,L|288:176,1,90
344,104,82785,2,0,P|368:36|400:28,1,90
424,100,83091,1,0,0:0:0:0:
508,248,83245,1,0,0:0:0:0:
368,360,83398,2,0,P|292:356|248:364,1,90
140,308,83704,6,0,P|216:304|260:312,1,90
372,260,84010,2,0,P|296:256|252:264,1,90
140,308,84316,1,0,0:0:0:0:
283,257,84469,1,0,0:0:0:0:
132,232,84622,1,0,0:0:0:0:
116,80,84775,2,0,L|128:192,1,90
140,308,85081,5,0,0:0:0:0:
126,169,85234,2,0,B|108:188|108:188|112:100,1,90
264,32,85540,1,0,0:0:0:0:
372,176,85693,1,0,0:0:0:0:
126,169,85847,1,0,0:0:0:0:
308,92,86000,1,0,0:0:0:0:
308,92,86076,1,0,0:0:0:0:
308,92,86153,6,0,B|328:96|328:96|288:132|288:132|244:144,1,90
189,233,86459,2,0,L|107:149,1,90
40,176,86765,1,0,0:0:0:0:
127,168,86918,1,0,0:0:0:0:
189,233,87071,1,0,0:0:0:0:
64,360,87224,2,0,P|20:312|20:272,1,90
104,264,87530,5,0,0:0:0:0:
189,233,87683,2,0,B|264:200|264:200|280:176,1,90
292,80,87989,1,0,0:0:0:0:
189,233,88142,1,0,0:0:0:0:
104,264,88296,2,0,P|104:200|140:164,1,90
189,233,88602,6,0,P|189:297|153:333,1,90
104,264,88908,2,0,L|196:232,1,90
288,172,89214,2,0,L|196:120,1,90
140,32,89520,1,0,0:0:0:0:
210,127,89673,2,0,L|224:248,1,90
140,32,89979,5,0,0:0:0:0:
288,172,90132,2,0,L|302:293,1,90
140,32,90438,1,0,0:0:0:0:
124,148,90591,1,0,0:0:0:0:
28,80,90745,2,0,P|72:44|120:36,1,90
200,104,91051,6,0,P|156:140|108:148,1,90
32,220,91357,2,0,P|84:240|152:236,1,90
200,104,91663,1,0,0:0:0:0:
368,40,91816,1,0,0:0:0:0:
484,176,91969,1,0,0:0:0:0:
360,308,92122,2,0,P|316:328|260:328,1,90
118,241,92428,5,0,0:0:0:0:
275,330,92581,2,0,B|224:336|160:288,1,90
100,172,92887,1,0,0:0:0:0:
32,320,93040,1,0,0:0:0:0:
190,307,93193,2,0,L|92:276,1,90
152,64,93500,6,0,L|188:168,1,90
444,84,93806,2,0,L|364:72,1,45
232,160,93959,2,0,L|288:172,1,45
432,272,94112,2,0,L|376:260,1,45
208,312,94265,2,0,L|264:320,1,45
424,352,94418,5,0,0:0:0:0:
424,352,95030,1,0,0:0:0:0:
424,352,95107,1,0,0:0:0:0:
424,352,95183,1,0,0:0:0:0:
424,352,95260,1,0,0:0:0:0:
424,352,95336,1,0,0:0:0:0:
40,32,95642,5,0,0:0:0:0:
268,136,105744,5,0,0:0:0:0:
180,272,106357,1,0,0:0:0:0:
184,128,106969,1,0,0:0:0:0:
328,200,107581,1,0,0:0:0:0:
276,312,108193,1,0,0:0:0:0:
172,224,108805,1,0,0:0:0:0:
392,256,109418,1,0,0:0:0:0:
304,128,110030,1,0,0:0:0:0:
200,220,110642,1,0,0:0:0:0:
104,124,111254,1,0,0:0:0:0:
200,100,111867,1,0,0:0:0:0:
152,212,112479,1,0,0:0:0:0:
320,164,113091,1,0,0:0:0:0:
256,256,113703,1,0,0:0:0:0:
152,256,114316,1,0,0:0:0:0:
360,192,114469,1,0,0:0:0:0:
360,192,114545,1,0,0:0:0:0:
360,192,114622,1,0,0:0:0:0:
360,192,114698,1,0,0:0:0:0:
360,192,114775,1,0,0:0:0:0:
360,192,114851,1,0,0:0:0:0:
360,192,114928,1,0,0:0:0:0:
360,192,115004,1,0,0:0:0:0:
360,192,115081,1,0,0:0:0:0:
360,192,115158,1,0,0:0:0:0:
360,192,115234,5,0,0:0:0:0:
348,200,115693,1,0,0:0:0:0:
200,124,116152,1,0,0:0:0:0:
276,288,116612,1,0,0:0:0:0:
348,124,117071,1,0,0:0:0:0:
348,124,117377,1,0,0:0:0:0:
136,224,117683,1,0,0:0:0:0:
224,308,117989,1,0,0:0:0:0:
200,360,118295,6,0,P|204:276|248:216,1,135
260,248,118601,2,0,P|192:264|116:228,1,135
132,208,118907,1,0,0:0:0:0:
176,100,119060,1,0,0:0:0:0:
76,160,119213,1,0,0:0:0:0:
192,168,119366,6,0,P|124:192|68:148,1,135
75,161,119673,1,0,0:0:0:0:
192,168,119826,1,0,0:0:0:0:
364,324,120132,1,0,0:0:0:0:
448,244,120285,1,0,0:0:0:0:
336,212,120438,1,0,0:0:0:0:
144,76,120744,6,0,B|180:0|272:8,1,135
284,28,121050,2,0,P|236:80|260:160,1,135
272,164,121356,1,0,0:0:0:0:
344,72,121509,1,0,0:0:0:0:
243,140,121662,1,0,0:0:0:0:
356,108,121815,6,0,P|396:148|360:216,1,135
367,213,122122,1,0,0:0:0:0:
356,108,122275,1,0,0:0:0:0:
364,224,122428,1,0,0:0:0:0:
444,140,122581,1,0,0:0:0:0:
344,72,122734,1,0,0:0:0:0:
456,104,122887,1,0,0:0:0:0:
372,188,123040,1,0,0:0:0:0:
252,144,123193,5,0,0:0:0:0:
232,132,123499,1,0,0:0:0:0:
212,120,123805,2,0,P|136:128|132:176,1,99.0000030212403
76,256,124111,1,0,0:0:0:0:
72,264,124264,6,0,B|48:280|48:280|12:224|48:152,1,148.50000453186
41,166,124571,1,0,0:0:0:0:
68,272,124724,2,0,L|44:164,1,99.0000030212403
84,44,125030,1,0,0:0:0:0:
46,176,125183,1,0,0:0:0:0:
120,60,125336,2,0,L|146:164,1,99.0000030212403
232,264,125642,5,0,0:0:0:0:
244,280,125948,1,0,0:0:0:0:
256,296,126254,1,0,0:0:0:0:
380,360,126407,1,0,0:0:0:0:
308,244,126560,1,0,0:0:0:0:
316,384,126713,2,0,L|224:256,1,148.50000453186
232,264,127019,5,0,0:0:0:0:
233,116,127173,1,0,0:0:0:0:
308,244,127326,1,0,0:0:0:0:
196,180,127479,1,0,0:0:0:0:
345,180,127632,1,0,0:0:0:0:
308,115,127785,1,0,0:0:0:0:
233,244,127938,1,0,0:0:0:0:
432,248,128091,6,0,P|337:282|232:244,1,215.999993408203
8,80,128703,1,0,0:0:0:0:
128,188,128856,1,0,0:0:0:0:
56,332,129009,1,0,0:0:0:0:
188,240,129162,1,0,0:0:0:0:
188,240,129468,5,0,0:0:0:0:
64,132,129622,1,0,0:0:0:0:
384,76,129928,2,0,L|472:152,1,107.999996704102
312,100,130234,1,0,0:0:0:0:
108,352,130540,6,0,P|80:264|124:184,1,161.999995056153
144,188,130846,2,0,P|120:228|128:168,1,161.999995056153
144,188,131152,1,0,0:0:0:0:
240,136,131305,1,0,0:0:0:0:
324,204,131458,1,0,0:0:0:0:
292,308,131611,6,0,P|376:296|432:224,1,161.999995056153
425,242,131917,1,0,0:0:0:0:
292,308,132071,1,0,0:0:0:0:
292,148,132224,1,0,0:0:0:0:
360,276,132377,1,0,0:0:0:0:
360,108,132530,1,0,0:0:0:0:
292,308,132683,1,0,0:0:0:0:
432,72,132836,1,0,0:0:0:0:
432,72,132912,1,0,0:0:0:0:
432,72,132989,5,0,0:0:0:0:
220,336,133295,1,0,0:0:0:0:
220,336,133601,2,0,L|184:216,1,116.999994644165
88,108,133907,1,0,0:0:0:0:
239,88,134060,6,0,P|239:192|155:224,1,175.499991966248
185,225,134366,1,0,0:0:0:0:
239,88,134519,1,0,0:0:0:0:
185,225,134673,1,0,0:0:0:0:
356,144,134826,1,0,0:0:0:0:
168,140,134979,1,0,0:0:0:0:
356,232,135132,1,0,0:0:0:0:
268,16,135285,1,0,0:0:0:0:
116,192,135438,6,0,P|196:274|310:284,1,233.999989288331
368,16,136050,5,0,0:0:0:0:
444,80,136203,1,0,0:0:0:0:
350,379,136356,1,0,0:0:0:0:
256,384,136509,1,0,0:0:0:0:
49,176,136662,5,0,0:0:0:0:
69,79,136815,1,0,0:0:0:0:
368,16,137121,1,0,0:0:0:0:
350,379,137274,1,0,0:0:0:0:
49,176,137428,1,0,0:0:0:0:
256,200,137581,1,0,0:0:0:0:
256,200,137734,1,0,0:0:0:0:
312,24,137887,6,0,P|332:112|240:192,1,188.999994232178
240,136,138193,2,0,P|324:100|420:152,1,188.999994232178
380,176,138499,1,0,0:0:0:0:
296,348,138652,1,0,0:0:0:0:
472,228,138805,1,0,0:0:0:0:
330,240,138958,6,0,P|422:220|474:255,1,125.999996154785
330,240,139265,1,0,0:0:0:0:
472,228,139418,1,0,0:0:0:0:
148,60,139724,1,0,0:0:0:0:
12,152,139877,1,0,0:0:0:0:
156,224,140030,1,0,0:0:0:0:
392,236,140336,6,0,B|384:336|260:372,1,188.999994232178
228,356,140642,2,0,P|276:304|248:176,1,188.999994232178
224,200,140948,1,0,0:0:0:0:
104,348,141101,1,0,0:0:0:0:
263,193,141254,1,0,0:0:0:0:
156,276,141407,6,0,P|116:236|152:168,1,125.999996154785
172,320,141714,1,0,0:0:0:0:
124,112,141867,1,0,0:0:0:0:
48,288,142020,1,0,0:0:0:0:
168,120,142173,1,0,0:0:0:0:
168,312,142326,1,0,0:0:0:0:
56,328,142479,1,0,0:0:0:0:
208,132,142632,1,0,0:0:0:0:
260,240,142785,5,0,0:0:0:0:
280,252,143091,1,0,0:0:0:0:
300,264,143397,2,0,P|376:256|380:208,1,135.000005149842
436,128,143703,1,0,0:0:0:0:
440,120,143856,6,0,B|464:104|464:104|500:160|464:232,1,135.000005149842
472,344,144163,1,0,0:0:0:0:
444,112,144316,2,0,L|472:252,1,135.000005149842
424,360,144622,1,0,0:0:0:0:
456,180,144775,1,0,0:0:0:0:
376,368,144928,2,0,L|336:220,1,135.000005149842
268,92,145234,5,0,0:0:0:0:
256,76,145540,1,0,0:0:0:0:
244,60,145846,1,0,0:0:0:0:
56,0,145999,1,0,0:0:0:0:
204,192,146152,1,0,0:0:0:0:
204,0,146305,2,0,L|296:128,1,135.000005149842
392,364,146612,5,0,0:0:0:0:
261,127,146765,1,0,0:0:0:0:
461,248,146918,1,0,0:0:0:0:
191,243,147071,1,0,0:0:0:0:
256,360,147224,1,0,0:0:0:0:
396,130,147377,1,0,0:0:0:0:
56,128,147683,6,0,P|196:88|340:136,1,288
504,304,148295,1,0,0:0:0:0:
336,160,148448,1,0,0:0:0:0:
476,28,148601,1,0,0:0:0:0:
248,80,148754,1,0,0:0:0:0:
252,88,149060,5,0,0:0:0:0:
428,240,149214,1,0,0:0:0:0:
128,308,149520,2,0,L|12:208,1,144
200,284,149826,1,0,0:0:0:0:
424,16,150132,6,0,P|452:104|388:208,1,216
368,196,150438,2,0,P|416:144|384:216,1,216
368,196,150744,1,0,0:0:0:0:
232,324,150897,1,0,0:0:0:0:
124,184,151050,1,0,0:0:0:0:
144,64,151203,6,0,P|60:76|4:148,1,144
124,184,151509,1,0,0:0:0:0:
228,24,151663,1,0,0:0:0:0:
216,280,151816,1,0,0:0:0:0:
144,64,151969,1,0,0:0:0:0:
136,324,152122,1,0,0:0:0:0:
308,0,152275,1,0,0:0:0:0:
56,352,152428,1,0,0:0:0:0:
56,352,152504,1,0,0:0:0:0:
56,352,152581,5,0,0:0:0:0:
396,0,152887,1,0,0:0:0:0:
396,0,153193,2,0,L|448:160,1,153.000002918243
436,328,153499,1,0,0:0:0:0:
273,296,153652,6,0,P|273:192|357:160,1,153.000002918243
476,104,153958,1,0,0:0:0:0:
273,296,154111,1,0,0:0:0:0:
360,120,154265,1,0,0:0:0:0:
88,228,154418,1,0,0:0:0:0:
376,184,154571,1,0,0:0:0:0:
100,160,154724,1,0,0:0:0:0:
248,360,154877,1,0,0:0:0:0:
424,148,155030,6,0,P|307:53|140:84,1,306.000005836487
144,368,155642,5,0,0:0:0:0:
68,304,155795,1,0,0:0:0:0:
162,5,155948,1,0,0:0:0:0:
256,0,156101,1,0,0:0:0:0:
463,208,156254,1,0,0:0:0:0:
443,305,156407,1,0,0:0:0:0:
144,368,156561,1,0,0:0:0:0:
162,5,156714,2,0,L|248:72,1,76.5000014591217
463,208,156867,6,0,L|372:284,1,76.5000014591217
144,368,157020,2,0,B|128:304|160:280|160:280|152:244|164:236|164:172,1,153.000002918243
256,0,157326,1,0,0:0:0:0:
256,0,157402,1,0,0:0:0:0:
256,0,157479,1,0,0:0:0:0:
308,124,157785,1,0,0:0:0:0:
420,44,157938,1,0,0:0:0:0:
304,240,158244,5,0,0:0:0:0:
192,328,158397,1,0,0:0:0:0:
48,48,158703,1,0,0:0:0:0:
192,76,158857,1,0,0:0:0:0:
264,200,159163,1,0,0:0:0:0:
264,200,159239,1,0,0:0:0:0:
264,200,159316,5,0,0:0:0:0:
416,360,159469,1,0,0:0:0:0:
488,168,159622,1,0,0:0:0:0:
48,48,159928,1,0,0:0:0:0:
256,192,160081,12,0,161152,0:0:0:0:
