osu file format v12

[General]
AudioFilename: Kill Me Baby ED ( ) 720p.mp3
AudioLeadIn: 2000
PreviewTime: 60530
Countdown: 0
SampleSet: Soft
StackLeniency: 0.7
Mode: 0
LetterboxInBreaks: 0
WidescreenStoryboard: 0

[Editor]
Bookmarks: 9620,11439,29620
DistanceSpacing: 1
BeatDivisor: 4
GridSize: 4

[Metadata]
Title:Futari no Kimochi no Honto no Himitsu (TV Size)
TitleUnicode:ふたりのきもちのほんとのひみつ (TV Size)
Artist:Akasaki Chinatsu, Tamura Mutsumi
ArtistUnicode:赤﨑千夏、田村睦心
Creator:Irreversible
Version:Insane
Source:Baby, please kill me.
Tags:j.c.staff manga time kirara carat yasuna to sonya ending 折部 やすな ソーニャ
BeatmapID:266685
BeatmapSetID:100517

[Difficulty]
HPDrainRate:7
CircleSize:4
OverallDifficulty:7
ApproachRate:8
SliderMultiplier:1.9
SliderTickRate:2

[Events]
//Background and Video events
0,0,"desu.jpg",0,0
Video,0,"ed.flv"
//Break Periods
//Storyboard Layer 0 (Background)
//Storyboard Layer 1 (Fail)
//Storyboard Layer 2 (Pass)
//Storyboard Layer 3 (Foreground)
//Storyboard Sound Samples
//Background Colour Transformations
3,100,163,162,255

[TimingPoints]
530,454.545454545455,4,2,1,40,1,0
4166,-100,4,2,1,70,0,0
33598,-100,4,2,1,70,0,0
38711,-133.333333333333,4,2,1,70,0,0
39109,-100,4,2,1,70,0,0
45984,-200,4,2,1,50,0,0
58711,-133.333333333333,4,2,1,70,0,0
60530,-100,4,2,1,70,0,0
85927,-100,4,2,1,5,0,0
87575,-100,4,2,1,5,0,0

[Colours]
Combo1 : 243,233,33
Combo2 : 242,45,45
Combo3 : 238,48,204

[HitObjects]
76,36,530,2,0,P|52:64|48:128,1,95,4|2,0:0|0:0,0:0:0:0:
148,108,984,2,0,P|181:141|248:144,1,95,2|0,0:0|0:0,0:0:0:0:
312,92,1439,2,0,L|336:184,1,95,8|0,0:0|0:0,0:0:0:0:
383,165,1780,1,0,0:0:0:0:
432,144,1893,2,0,L|456:240,1,95,8|0,0:0|0:0,0:0:0:0:
352,260,2348,6,0,L|324:350,1,95,0|2,0:0|0:0,0:0:0:0:
276,176,2802,2,0,L|248:266,1,95,2|0,0:0|0:0,0:0:0:0:
184,112,3257,2,0,P|132:100|76:112,1,95,8|2,0:0|0:0,0:0:0:0:
56,120,3598,1,0,0:0:0:0:
36,156,3711,2,0,L|12:256,1,95,8|2,0:0|0:0,0:0:0:0:
256,36,4166,5,4,0:0:0:0:
384,124,4620,2,0,P|352:168|228:152,1,190,8|2,0:0|0:0,0:0:0:0:
296,84,5302,1,0,0:0:0:0:
300,288,5530,1,8,0:0:0:0:
144,144,5757,2,0,B|48:77|48:77|88:160,1,190,2|2,0:0|0:0,2:0:0:0:
148,248,6439,1,8,0:0:0:0:
208,344,6666,1,2,0:0:0:0:
337,192,6893,6,0,L|225:180,1,95,8|0,0:0|0:0,0:0:0:0:
208,344,7348,2,0,L|320:356,1,95,8|0,0:0|0:0,0:0:0:0:
404,320,7802,5,4,0:0:0:0:
240,180,8257,1,8,0:0:0:0:
320,112,8484,2,0,P|280:80|228:76,1,95,2|2,0:0|0:0,0:0:0:0:
204,76,8825,1,0,0:0:0:0:
176,92,8939,1,2,0:0:0:0:
80,192,9166,1,8,0:0:0:0:
172,260,9393,6,0,B|256:324,2,95,8|0|0,3:0|0:0|0:0,0:0:0:0:
240,180,10075,2,0,L|336:148,2,95,8|0|0,3:0|0:0|0:0,0:0:0:0:
156,232,10757,2,0,L|44:272,2,95,8|8|0,3:0|3:0|0:0,0:0:0:0:
252,116,11439,6,0,P|204:96|144:100,1,95,4|2,0:0|0:0,0:0:0:0:
58,132,11893,1,8,0:0:0:0:
84,232,12120,2,0,P|120:284|240:292,1,190,2|2,0:0|0:0,0:0:0:0:
376,192,12802,1,8,0:0:0:0:
388,296,13030,1,2,0:0:0:0:
252,116,13484,2,0,P|220:88|160:80,1,95,8|8,0:0|0:0,0:0:0:0:
72,112,13939,1,0,0:0:0:0:
148,184,14166,2,0,B|184:224|184:224|184:288,1,95,0|8,0:0|0:0,0:0:0:0:
184,368,14620,1,8,0:0:0:0:
368,280,14848,6,0,L|260:316,1,95,2|4,0:0|0:0,0:0:0:0:
76,360,15530,1,8,0:0:0:0:
72,152,15984,2,0,B|48:104|48:104|48:48,2,95,2|0|8,0:0|0:0|0:0,0:0:0:0:
152,220,16666,2,0,P|212:188|320:236,1,190,2|2,0:0|0:0,0:0:0:0:
336,336,17348,2,0,P|272:320|244:280,1,95,8|2,0:0|0:0,0:0:0:0:
152,220,17802,1,8,0:0:0:0:
317,232,18030,1,8,0:0:0:0:
320,240,18143,1,2,0:0:0:0:
324,248,18257,1,8,0:0:0:0:
112,304,18484,1,10,0:0:0:0:
240,164,18711,6,0,P|304:140|416:196,1,190,4|8,0:0|0:0,0:0:0:0:
444,288,19393,1,8,0:0:0:0:
360,348,19620,1,2,0:0:0:0:
264,312,19848,1,8,0:0:0:0:
164,340,20075,1,8,0:0:0:0:
76,288,20302,2,0,P|40:224|40:92,1,190,2|2,0:0|0:0,0:0:0:0:
96,24,20984,2,0,P|116:56|124:120,1,95,8|0,0:0|0:0,0:0:0:0:
264,312,21439,6,0,L|228:212,1,95,8|2,0:0|0:0,0:0:0:0:
360,348,21893,2,0,L|392:248,1,95,8|2,0:0|0:0,0:0:0:0:
484,232,22348,6,0,P|440:172|368:160,1,142.5,4|0,0:0|0:0,0:0:0:0:
352,172,22802,2,0,L|188:172,1,142.5,10|0,0:0|0:0,0:0:0:0:
189,192,23257,2,0,L|64:192,2,95,0|0|8,0:0|0:0|0:0,0:0:0:0:
232,288,23939,2,0,P|236:344|360:328,1,190,2|0,0:0|0:0,0:0:0:0:
312,216,24620,1,8,0:0:0:0:
232,288,24848,1,2,0:0:0:0:
128,256,25075,5,8,0:0:0:0:
32,352,25302,1,2,0:0:0:0:
232,288,25530,1,8,0:0:0:0:
328,352,25757,1,10,0:0:0:0:
256,36,25984,5,4,0:0:0:0:
232,288,26439,1,8,0:0:0:0:
480,232,26893,1,0,0:0:0:0:
292,216,27120,1,2,0:0:0:0:
148,328,27348,2,0,P|92:352|56:356,1,95,8|0,0:0|0:0,0:0:0:0:
156,200,27802,2,0,P|100:192|60:168,1,95,8|0,0:0|0:0,0:0:0:0:
201,33,28257,2,0,P|164:56|140:100,1,95,8|0,0:0|0:0,0:0:0:0:
240,128,28711,2,0,P|276:172|380:172,1,142.5,8|2,0:0|0:0,0:0:0:0:
428,168,29166,2,0,P|404:128|355:111,1,95,8|2,0:0|0:0,0:0:0:0:
240,128,29620,5,4,0:0:0:0:
164,200,29848,1,2,0:0:0:0:
128,100,30075,2,0,L|40:60,1,95,8|0,0:0|0:0,0:0:0:0:
164,200,30530,2,0,L|252:240,1,95,0|0,0:0|0:0,0:0:0:0:
68,180,30984,1,8,0:0:0:0:
256,324,31211,1,0,0:0:0:0:
376,112,31439,6,0,L|356:224,2,95,0|2|8,0:0|0:0|0:0,0:0:0:0:
392,8,32120,1,0,0:0:0:0:
296,48,32348,1,4,0:0:0:0:
192,32,32575,1,8,0:0:0:0:
156,36,32689,1,0,0:0:0:0:
124,48,32802,2,0,P|84:68|48:116,1,95,0|0,3:0|0:0,0:0:0:0:
156,148,33257,6,0,P|212:192|336:188,1,190,4|8,0:0|0:0,0:0:0:0:
260,108,33939,1,0,0:0:0:0:
120,308,34166,1,0,0:0:0:0:
156,148,34393,1,2,0:0:0:0:
256,344,34620,1,8,0:0:0:0:
228,208,34847,1,0,0:0:0:0:
340,280,35075,6,0,P|384:242|395:198,1,95,0|2,0:0|0:0,0:0:0:0:
260,108,35530,1,8,0:0:0:0:
312,204,35757,1,0,0:0:0:0:
216,264,35984,1,2,0:0:0:0:
212,256,36098,1,0,0:0:0:0:
208,248,36211,1,2,0:0:0:0:
204,240,36325,1,0,0:0:0:0:
200,232,36439,1,0,3:0:0:0:
392,344,36666,1,4,0:0:0:0:
436,200,36893,6,0,L|468:108,1,95,2|0,0:0|0:0,0:0:0:0:
360,144,37348,2,0,L|360:44,1,95,8|2,0:0|0:0,0:0:0:0:
204,172,37802,6,0,L|116:214,1,95,2|0,0:0|0:0,0:0:0:0:
218,265,38257,2,0,L|147:335,1,95,8|2,0:0|0:0,0:0:0:0:
268,60,38711,6,0,L|180:60,1,71.2500027179719,0|0,0:0|0:0,0:0:0:0:
96,36,39166,1,8,0:0:0:0:
48,140,39393,1,2,0:0:0:0:
108,236,39620,1,2,0:0:0:0:
40,328,39848,1,8,0:0:0:0:
40,328,39961,1,0,0:0:0:0:
40,328,40075,1,0,3:0:0:0:
108,236,40302,1,4,0:0:0:0:
200,304,40530,6,0,P|256:336|400:304,1,190,2|8,0:0|0:0,0:0:0:0:
472,260,41211,1,0,0:0:0:0:
159,117,41439,2,0,P|142:79|148:28,1,95,0|2,0:0|0:0,0:0:0:0:
256,68,41893,1,8,0:0:0:0:
292,196,42120,1,0,0:0:0:0:
128,336,42348,6,0,L|32:352,2,95,2|0|8,0:0|0:0|0:0,0:0:0:0:
240,320,43030,2,0,P|328:312|368:320,1,95
368,320,43370,1,2,0:0:0:0:
400,328,43484,1,0,0:0:0:0:
432,328,43598,1,2,0:0:0:0:
464,316,43711,1,0,3:0:0:0:
256,80,44166,5,2,0:0:0:0:
188,272,44393,1,0,0:0:0:0:
348,156,44620,1,0,0:0:0:0:
164,156,44848,1,2,0:0:0:0:
324,272,45075,2,0,P|424:248|472:164,1,190,0|8,0:0|0:0,0:0:0:0:
36,192,45984,6,0,L|88:232,1,47.5,2|2,0:0|0:0,0:0:0:0:
112,148,46439,2,0,L|164:108,1,47.5,2|0,0:0|0:0,0:0:0:0:
156,216,46893,2,0,L|180:272,1,47.5,2|0,0:0|0:0,0:0:0:0:
220,168,47348,2,0,L|240:216,1,47.5,2|0,0:0|0:0,0:0:0:0:
476,192,47802,6,0,L|424:152,1,47.5,2|0,0:0|0:0,0:0:0:0:
400,236,48257,2,2,L|348:276,1,47.5,0|2,0:0|0:0,0:0:0:0:
356,168,48711,2,0,L|332:112,1,47.5,2|0,0:0|0:0,0:0:0:0:
292,216,49166,2,0,L|272:168,1,47.5,2|0,0:0|0:0,0:0:0:0:
220,72,49620,6,0,L|168:72,1,47.5,2|2,0:0|0:0,0:0:0:0:
56,132,50075,2,0,L|116:132,1,47.5,2|0,0:0|0:0,0:0:0:0:
224,188,50530,2,0,L|172:188,1,47.5,2|2,0:0|0:0,0:0:0:0:
56,244,50984,2,0,L|116:244,1,47.5,2|0,0:0|0:0,0:0:0:0:
256,332,51439,5,2,0:0:0:0:
288,256,51666,1,0,0:0:0:0:
364,288,51893,1,2,0:0:0:0:
332,364,52120,1,0,0:0:0:0:
256,332,52348,5,2,0:0:0:0:
224,256,52575,1,0,0:0:0:0:
148,288,52802,1,2,0:0:0:0:
180,364,53029,1,0,0:0:0:0:
160,204,53257,6,0,L|132:152,1,47.5,2|2,0:0|0:0,0:0:0:0:
288,172,53711,2,0,L|316:120,1,47.5,2|0,0:0|0:0,0:0:0:0:
148,288,54166,2,0,L|92:264,1,47.5,2|0,0:0|0:0,0:0:0:0:
312,248,54620,2,2,L|368:216,1,47.5
188,356,55075,6,0,L|136:384,1,47.5,2|0,0:0|0:0,0:0:0:0:
328,332,55530,2,0,L|380:352,1,47.5,2|2,0:0|0:0,0:0:0:0:
148,288,55984,2,0,L|96:320,1,47.5,2|0,0:0|0:0,0:0:0:0:
312,248,56439,2,0,L|364:268,1,47.5,2|0,0:0|0:0,0:0:0:0:
96,116,56893,6,0,L|72:72,1,47.5,2|2,0:0|0:0,0:0:0:0:
196,96,57348,2,0,L|196:144,1,47.5,2|0,0:0|0:0,0:0:0:0:
316,144,57802,2,0,L|316:88,1,47.5,2|2,0:0|0:0,0:0:0:0:
438,74,58257,2,0,L|416:116,1,47.5,2|0,0:0|0:0,0:0:0:0:
256,192,58711,12,2,60075,0:0:0:0:
256,148,60530,5,4,0:0:0:0:
156,96,60758,1,2,0:0:0:0:
256,252,60985,2,0,L|288:352,1,95,8|0,0:0|0:0,0:0:0:0:
256,148,61440,5,0,0:0:0:0:
156,96,61667,1,2,0:0:0:0:
156,204,61894,1,8,0:0:0:0:
256,252,62121,1,0,0:0:0:0:
360,120,62349,6,0,L|456:88,2,95,0|2|8,0:0|0:0|0:0,0:0:0:0:
256,148,63030,1,0,0:0:0:0:
156,96,63258,1,2,0:0:0:0:
68,152,63485,1,8,0:0:0:0:
52,176,63599,1,0,0:0:0:0:
48,204,63712,2,0,P|67:260|98:288,1,95,0|0,3:0|0:0,0:0:0:0:
256,148,64167,6,0,P|312:104|340:96,2,95,2|0|8,0:0|0:0|0:0,0:0:0:0:
348,196,64849,1,2,0:0:0:0:
256,256,65076,5,8,0:0:0:0:
256,68,65302,1,0,0:0:0:0:
340,280,65530,1,8,0:0:0:0:
164,344,65757,1,0,0:0:0:0:
44,224,65985,6,0,P|60:168|96:140,1,95,0|2,0:0|0:0,0:0:0:0:
184,108,66440,1,8,0:0:0:0:
256,256,66667,1,2,0:0:0:0:
148,224,66894,1,8,0:0:0:0:
140,228,67008,1,0,0:0:0:0:
132,232,67121,1,2,0:0:0:0:
124,236,67235,1,0,0:0:0:0:
116,240,67349,1,0,3:0:0:0:
180,324,67576,1,8,0:0:0:0:
336,188,67803,6,0,P|380:160|440:156,1,95,2|0,0:0|0:0,0:0:0:0:
352,296,68258,2,0,P|296:291|258:257,1,95,8|2,0:0|0:0,0:0:0:0:
236,180,68712,6,0,P|199:148|147:139,1,95,2|0,0:0|0:0,0:0:0:0:
28,248,69167,2,0,P|76:257|127:231,1,95,8|2,0:0|0:0,0:0:0:0:
176,116,69621,1,2,0:0:0:0:
336,188,69848,1,0,0:0:0:0:
184,288,70076,1,8,0:0:0:0:
236,180,70303,1,2,0:0:0:0:
356,108,70530,1,2,0:0:0:0:
28,212,70758,1,8,0:0:0:0:
28,212,70871,1,0,0:0:0:0:
28,212,70984,2,0,P|56:156|108:132,1,95,0|2,3:0|0:0,0:0:0:0:
184,112,71440,6,0,P|240:144|384:112,1,190,2|8,0:0|0:0,0:0:0:0:
444,68,72121,1,0,0:0:0:0:
344,36,72349,1,2,0:0:0:0:
276,236,72576,2,0,P|270:287|291:330,1,95,0|8,0:0|0:0,0:0:0:0:
360,272,73030,1,0,0:0:0:0:
128,336,73258,6,0,L|32:352,2,95,2|0|8,0:0|0:0|0:0,0:0:0:0:
240,320,73940,2,0,P|328:312|368:320,1,95
368,320,74280,1,2,0:0:0:0:
400,328,74394,1,0,0:0:0:0:
432,328,74508,1,2,0:0:0:0:
464,316,74621,1,0,3:0:0:0:
256,304,75075,5,2,0:0:0:0:
324,112,75302,1,0,0:0:0:0:
164,228,75529,1,0,0:0:0:0:
348,228,75757,1,2,0:0:0:0:
188,112,75984,2,0,P|88:136|40:220,1,190,0|8,0:0|0:0,0:0:0:0:
316,228,76893,5,4,0:0:0:0:
192,324,77347,2,0,P|145:351|28:288,1,190,8|2,0:0|0:0,0:0:0:0:
124,248,78029,1,0,0:0:0:0:
284,348,78257,1,8,0:0:0:0:
192,172,78484,2,0,P|145:145|28:208,1,190,2|2,0:0|0:0,0:0:0:0:
124,248,79166,1,8,0:0:0:0:
224,248,79393,1,2,0:0:0:0:
168,156,79620,6,0,L|56:144,1,95,8|0,0:0|0:0,0:0:0:0:
224,248,80075,2,0,L|336:260,1,95,8|0,0:0|0:0,0:0:0:0:
404,320,80529,5,4,0:0:0:0:
240,180,80984,1,8,0:0:0:0:
316,120,81211,2,0,P|272:92|224:84,1,95,2|0,0:0|0:0,0:0:0:0:
200,84,81552,1,0,0:0:0:0:
172,96,81666,1,2,0:0:0:0:
72,172,81893,1,8,0:0:0:0:
132,126,82120,6,0,B|85:35|-15:119|8:104|-11:147|-31:171|-31:243|37:251|81:275|125:331|125:331|185:283|317:295|273:239|417:159|280:132|273:79|217:95|183:136,1,855,2|0,0:0|3:0,0:0:0:0:
256,192,84280,12,4,85757,0:0:0:0:
256,192,85984,12,0,87120,0:0:0:0:
