osu file format v13

[General]
AudioFilename: StarCrew.mp3
AudioLeadIn: 0
PreviewTime: 79258
Countdown: 0
SampleSet: Soft
StackLeniency: 0.4
Mode: 0
LetterboxInBreaks: 0
WidescreenStoryboard: 0

[Editor]
Bookmarks: 40771,79297
DistanceSpacing: 1.2
BeatDivisor: 4
GridSize: 4
TimelineZoom: 1.4

[Metadata]
Title:StarCrew
TitleUnicode:StarCrew
Artist:Akagami feat.GUMI
ArtistUnicode:赤髮 feat.GUMI
Creator:[Teichan]
Version:Star
Source:Vocaloid
Tags:Vocaloid3,Vocaloid2,SterCrew
BeatmapID:415961
BeatmapSetID:172046

[Difficulty]
HPDrainRate:7
CircleSize:4
OverallDifficulty:7
ApproachRate:8.5
SliderMultiplier:1.4
SliderTickRate:1

[Events]
//Background and Video events
Video,0,"StarCrew.flv"
0,0,"BG.png",0,0
//Break Periods
2,14326,22925
2,109655,117662
//Storyboard Layer 0 (Background)
//Storyboard Layer 1 (Fail)
//Storyboard Layer 2 (Pass)
//Storyboard Layer 3 (Foreground)
//Storyboard Sound Samples
//Background Colour Transformations
3,100,163,162,255

[TimingPoints]
1495,394.736842105263,4,2,1,32,1,0
6626,-133.333333333333,4,2,1,20,0,0
12942,-133.333333333333,4,2,1,25,0,0
13337,-133.333333333333,4,2,1,30,0,0
13731,-133.333333333333,4,2,1,35,0,0
14126,-133.333333333333,4,2,1,40,0,0
26363,-100,4,2,1,23,0,0
39389,-100,4,2,1,32,0,0
53600,-100,4,2,1,32,0,1
53698,-100,4,2,1,45,0,0
74125,-100,4,2,1,50,0,0
75704,-100,4,2,1,55,0,0
77283,-100,4,2,1,65,0,0
78863,-100,4,2,1,60,0,1
78962,-100,4,2,1,60,0,0
79258,-83.3333333333333,4,2,1,60,0,0
80442,-83.3333333333333,4,2,1,60,0,1
105212,-83.3333333333333,4,2,1,49,0,1
105705,-100,4,2,1,49,0,0
106296,-133.333333333333,4,2,1,49,0,0
121100,-83.3333333333333,4,2,1,32,0,0
165705,-83.3333333333333,4,2,1,45,0,0
168764,-83.3333333333333,4,2,1,15,0,0
168863,-83.3333333333333,4,2,1,52,0,0
172021,-83.3333333333333,4,2,1,60,0,1
219389,-83.3333333333333,4,2,1,63,0,1
220968,-83.3333333333333,4,2,1,65,0,1
222547,-83.3333333333333,4,2,1,67,0,1
224916,-83.3333333333333,4,2,1,70,0,1
225047,-83.3333333333333,4,2,1,67,0,1
225179,-83.3333333333333,4,2,1,64,0,1
225310,-83.3333333333333,4,2,1,61,0,1
225442,-83.3333333333333,4,2,1,58,0,1
225573,-83.3333333333333,4,2,1,55,0,1
225705,-83.3333333333333,4,2,1,52,0,0
225804,-83.3333333333333,4,2,1,49,0,0
231231,-83.3333333333333,4,2,1,60,0,0
250968,-133.333333333333,4,2,1,22,0,0
265179,-100,4,2,1,30,0,0
279389,-83.3333333333333,4,2,1,40,0,0
280771,-83.3333333333333,4,2,1,47,0,0
282547,-83.3333333333333,4,2,1,54,0,0
284916,-83.3333333333333,4,2,1,60,0,0
285705,-83.3333333333333,4,2,1,60,0,1
310968,-133.333333333333,4,2,1,35,0,0
311560,-200,4,2,1,35,0,0
312942,-83.3333333333333,4,2,1,65,0,0
339587,-83.3333333333333,4,2,1,63,0,0
339784,-83.3333333333333,4,2,1,61,0,0
339981,-83.3333333333333,4,2,1,59,0,0
340179,-83.3333333333333,4,2,1,57,0,0
340376,-83.3333333333333,4,2,1,55,0,0
340573,-83.3333333333333,4,2,1,53,0,0
340771,-83.3333333333333,4,2,1,51,0,0
340968,-83.3333333333333,4,2,1,49,0,0
341166,-83.3333333333333,4,2,1,47,0,0
341363,-83.3333333333333,4,2,1,45,0,0
341560,-83.3333333333333,4,2,1,43,0,0
341758,-83.3333333333333,4,2,1,41,0,0
341955,-83.3333333333333,4,2,1,39,0,0
342152,-83.3333333333333,4,2,1,37,0,0
342350,-83.3333333333333,4,2,1,35,0,0
342547,-83.3333333333333,4,2,1,33,0,0
342744,-83.3333333333333,4,2,1,31,0,0
342942,-83.3333333333333,4,2,1,29,0,0
343139,-83.3333333333333,4,2,1,27,0,0
343337,-83.3333333333333,4,2,1,25,0,0
343534,-83.3333333333333,4,2,1,23,0,0
343731,-83.3333333333333,4,2,1,21,0,0
343929,-83.3333333333333,4,2,1,19,0,0
344126,-83.3333333333333,4,2,1,17,0,0

[Colours]
Combo1 : 192,192,192
Combo2 : 0,255,64
Combo3 : 18,124,255
Combo4 : 104,208,217
Combo5 : 255,255,0

[HitObjects]
96,128,7021,69,0,0:0:0:0:
160,104,7218,1,0,0:0:0:0:
224,80,7416,2,0,L|236:152,1,52.5000020027161
244,200,7811,1,0,2:0:0:0:
148,296,8205,1,0,0:0:0:0:
212,324,8403,2,0,P|284:320|328:292,1,105.000004005432,0|0,0:0|0:0,0:0:0:0:
244,200,9192,2,0,P|172:204|128:232,1,105.000004005432,0|0,0:0|0:0,0:0:0:0:
381,293,9981,2,0,L|417:233,1,52.5000020027161
356,120,10574,38,0,P|308:152|276:204,1,105.000004005432,0|0,0:0|0:0,0:0:0:0:
156,192,11363,2,0,P|148:217|147:243,1,52.5000020027161
156,368,11955,1,0,0:0:0:0:
352,368,12350,2,0,P|360:320|348:256,1,105.000004005432
284,264,12942,2,0,L|240:232,1,52.5000020027161,2|0,0:0|0:0,0:0:0:0:
284,180,13337,2,0,L|292:120,1,52.5000020027161,2|0,0:0|0:0,0:0:0:0:
228,104,13731,2,0,L|180:52,1,52.5000020027161,2|0,0:0|0:0,0:0:0:0:
148,20,14126,53,4,0:0:0:0:
256,192,23600,12,4,25179,0:0:0:0:
104,152,26363,5,0,0:0:0:0:
176,112,26561,1,0,0:0:0:0:
256,140,26758,6,0,P|296:176|396:192,1,140,2|0,0:0|0:0,0:0:0:0:
460,184,27350,2,0,B|424:328,1,140,0|0,0:0|0:0,0:0:0:0:
364,376,27942,2,0,P|344:331|360:284,1,70
368,228,28337,1,2,0:0:0:0:
364,376,28732,1,0,0:0:0:0:
212,316,29126,37,0,0:0:0:0:
204,232,29324,1,0,0:0:0:0:
140,94,29521,2,0,B|140:80|136:128|176:152,1,70,0|0,0:0|0:0,0:0:0:0:
224,80,29916,6,0,P|289:107|364:92,1,140,2|0,0:0|0:0,0:0:0:0:
436,72,30508,2,0,L|408:228,1,140
328,204,31100,2,0,P|305:230|276:249,1,70,0|0,0:0|0:0,0:0:0:0:
108,196,31495,2,0,P|60:236|48:260,1,70,2|0,0:0|0:0,0:0:0:0:
132,280,31889,2,0,L|204:308,1,70
280,320,32284,2,0,B|320:304|344:252|344:252|408:216,1,140,2|0,0:0|0:0,0:0:0:0:
284,92,33074,5,2,0:0:0:0:
232,156,33271,1,0,0:0:0:0:
292,216,33468,2,0,P|335:194|368:164,1,70
436,192,33863,1,0,0:0:0:0:
352,180,34060,1,0,0:0:0:0:
340,64,34258,1,0,0:0:0:0:
436,192,34455,1,0,0:0:0:0:
360,308,34653,22,0,P|276:292|204:256,1,140,2|0,0:0|0:0,0:0:0:0:
168,208,35245,1,0,0:0:0:0:
144,128,35442,2,0,P|184:104|240:100,1,70,0|0,0:0|0:0,0:0:0:0:
284,136,35837,2,0,P|290:176|268:232,1,70
108,336,36232,6,0,P|76:240|92:180,1,140,2|0,0:0|0:0,0:0:0:0:
116,128,36824,1,0,0:0:0:0:
220,260,37218,1,0,0:0:0:0:
340,212,37416,1,0,0:0:0:0:
296,284,37613,1,0,0:0:0:0:
280,156,37810,21,2,0:0:0:0:
212,104,38008,2,0,P|195:143|212:196,1,70
366,169,38402,2,0,P|367:134|352:104,1,70,0|2,0:0|0:0,0:0:0:0:
280,156,38797,1,0,0:0:0:0:
208,196,38994,1,0,0:0:0:0:
212,280,39192,1,0,0:0:0:0:
212,280,39389,38,0,L|304:288,1,70,2|0,0:0|0:0,0:0:0:0:
356,248,39784,1,0,0:0:0:0:
432,288,39982,2,0,P|428:200|380:172,1,140
356,248,40574,1,0,0:0:0:0:
348,100,40771,1,2,0:0:0:0:
180,120,41166,5,0,0:0:0:0:
160,144,41264,1,0,0:0:0:0:
152,176,41363,2,0,L|200:244,1,70,0|0,0:0|0:0,0:0:0:0:
256,320,41758,1,2,0:0:0:0:
340,264,41955,1,0,0:0:0:0:
292,176,42153,1,0,0:0:0:0:
256,320,42350,1,0,0:0:0:0:
112,244,42547,6,0,P|88:164|120:96,1,140,2|0,0:0|0:0,0:0:0:0:
192,176,43139,2,0,P|200:140|216:96,1,70
257,244,43534,2,0,P|293:272|325:276,1,70
300,55,43929,2,0,P|330:109|324:191,1,140,2|0,0:0|0:0,0:0:0:0:
316,276,44521,1,0,0:0:0:0:
456,256,44718,1,0,0:0:0:0:
392,304,44916,1,2,0:0:0:0:
454,174,45113,1,0,0:0:0:0:
454,174,45310,2,0,L|412:104,1,70,0|0,0:0|0:0,0:0:0:0:
356,172,45705,54,0,P|280:160|132:104,1,210,2|0,0:0|0:0,0:0:0:0:
160,28,46494,2,0,P|60:104|96:184,1,210,0|0,0:0|0:0,0:0:0:0:
24,376,47284,38,0,L|72:320,1,70,2|0,0:0|0:0,0:0:0:0:
144,280,47679,2,0,P|184:276|224:268,1,70
280,216,48073,1,2,0:0:0:0:
264,136,48271,1,0,0:0:0:0:
200,192,48468,1,0,0:0:0:0:
344,160,48666,1,0,0:0:0:0:
416,204,48863,6,0,L|372:344,1,140,6|0,0:0|0:0,0:0:0:0:
374,337,49455,1,0,0:0:0:0:
316,54,50047,22,0,L|316:138,1,70
316,308,50442,1,2,0:0:0:0:
208,159,50639,1,0,0:0:0:0:
382,216,50837,1,0,0:0:0:0:
208,273,51034,1,0,0:0:0:0:
316,124,51231,1,2,0:0:0:0:
208,273,51429,1,0,0:0:0:0:
382,216,51626,1,0,0:0:0:0:
208,159,51823,1,0,0:0:0:0:
340,32,52021,1,2,0:0:0:0:
256,192,53600,5,4,0:0:0:0:
64,56,55179,6,0,B|40:100|60:144,1,70,2|0,0:0|0:0,0:0:0:0:
136,108,55574,2,0,B|139:154|119:194,1,70
48,208,55968,1,0,0:0:0:0:
116,260,56166,1,0,0:0:0:0:
196,232,56363,1,0,0:0:0:0:
216,152,56560,1,0,0:0:0:0:
488,264,56955,2,0,P|510:232|504:184,2,70,0|0|0,0:0|0:0|0:0,0:0:0:0:
428,204,57547,1,2,0:0:0:0:
260,204,57942,2,0,P|224:220|203:245,1,70,0|0,0:0|0:0,0:0:0:0:
276,284,58337,21,2,0:0:0:0:
136,192,58731,2,0,P|147:154|142:122,1,70,0|0,0:0|0:0,0:0:0:0:
64,148,59126,2,0,P|29:141|1:121,2,70,0|0|0,0:0|0:0|0:0,0:0:0:0:
64,64,59718,1,0,0:0:0:0:
256,312,60113,1,0,0:0:0:0:
448,64,60508,1,0,0:0:0:0:
448,64,60903,2,0,P|468:108|472:156,1,70,0|0,0:0|0:0,0:0:0:0:
424,196,61297,1,0,0:0:0:0:
372,260,61494,6,0,L|312:344,1,70,2|0,0:0|0:0,0:0:0:0:
292,240,61889,2,0,L|212:288,1,70,0|0,0:0|0:0,0:0:0:0:
208,196,62284,2,0,L|208:96,1,70,2|0,0:0|0:0,0:0:0:0:
292,124,62679,1,0,0:0:0:0:
376,108,62876,2,0,P|312:40|264:48,1,140,2|0,0:0|0:0,0:0:0:0:
196,76,63468,2,0,P|147:95|108:86,1,70,0|0,0:0|0:0,0:0:0:0:
76,158,63863,2,0,P|95:207|86:246,1,70,2|0,0:0|0:0,0:0:0:0:
164,270,64258,2,0,P|213:251|252:260,1,70,2|0,0:0|0:0,0:0:0:0:
292,194,64652,38,0,P|273:145|282:106,1,70,2|0,0:0|0:0,0:0:0:0:
332,68,65047,1,0,0:0:0:0:
400,116,65245,1,0,0:0:0:0:
432,192,65442,2,0,P|420:232|372:264,2,70,2|0|0,0:0|0:0|0:0,0:0:0:0:
408,32,66232,1,2,0:0:0:0:
84,56,66626,54,0,P|72:93|77:125,1,70,0|0,0:0|0:0,0:0:0:0:
140,176,67021,1,2,0:0:0:0:
160,96,67218,1,0,0:0:0:0:
188,248,67416,2,0,P|223:256|279:244,1,70,0|0,0:0|0:0,3:0:0:0:
296,92,67810,22,0,P|213:80|139:111,1,140,2|0,0:0|0:0,0:0:0:0:
343,257,68402,1,0,0:0:0:0:
320,176,68600,1,2,0:0:0:0:
261,237,68797,1,0,0:0:0:0:
368,340,68994,2,0,P|400:324|424:292,1,70,2|0,0:0|0:0,0:0:0:0:
343,257,69389,54,0,P|275:275|207:261,1,140,2|0,0:0|0:0,0:0:0:0:
132,224,69981,1,0,0:0:0:0:
56,172,70179,2,0,L|38:105,1,70,2|0,0:0|0:0,0:0:0:0:
186,105,70574,2,0,L|204:172,1,70,2|0,0:0|0:0,0:0:0:0:
262,236,70968,22,0,L|327:265,1,70,2|0,0:0|0:0,0:0:0:0:
403,200,71363,2,0,L|338:171,1,70,2|0,0:0|0:0,0:0:0:0:
186,105,71758,1,2,0:0:0:0:
193,186,71955,1,0,0:3:0:0:
262,136,72152,1,0,0:3:0:0:
109,71,72350,1,0,0:0:0:0:
109,71,72449,1,0,0:0:0:0:
109,71,72547,22,0,P|87:113|82:164,1,70,2|0,0:0|0:0,0:0:0:0:
168,251,72942,2,0,P|189:208|194:157,1,70,2|0,0:0|0:0,0:0:0:0:
0,108,73337,2,0,P|5:169|74:221,1,140,2|0,0:0|0:0,0:0:0:0:
193,186,73929,1,0,0:0:0:0:
362,17,74126,6,0,P|354:91|306:157,1,140,2|0,0:0|0:0,0:0:0:0:
193,186,74718,1,0,0:0:0:0:
320,145,74916,2,0,P|376:193|392:277,1,140,2|0,0:0|0:0,0:0:0:0:
409,337,75508,1,0,0:0:0:0:
329,309,75705,6,0,L|244:314,1,70,2|0,0:0|0:0,0:0:0:0:
187,268,76100,1,0,0:0:0:0:
260,227,76297,1,0,0:0:0:0:
104,305,76494,6,0,L|99:220,1,70,2|0,0:0|0:0,0:0:0:0:
189,182,76889,1,0,0:0:0:0:
262,312,77086,1,0,0:0:0:0:
376,276,77284,22,0,L|362:205,1,70,2|0,0:0|0:0,0:0:0:0:
136,280,77679,2,0,L|150:209,1,70,2|0,0:0|0:0,0:0:0:0:
364,208,78073,6,0,L|308:132,1,70,2|0,0:0|0:0,0:0:0:0:
148,208,78468,2,0,L|204:132,1,70,2|0,0:0|0:0,0:0:0:0:
256,100,78863,5,4,0:0:0:0:
76,136,79652,6,0,P|120:116|168:76,1,83.9999974365235
212,16,80047,1,0,0:0:0:0:
192,184,80245,1,0,0:0:0:0:
256,108,80442,22,0,P|320:96|368:116,1,83.9999974365235,6|0,0:0|0:0,0:0:0:0:
337,99,80738,1,0,0:0:0:0:
337,99,80837,1,0,0:0:0:0:
408,168,81034,2,0,P|408:216|368:268,1,83.9999974365235,2|8,0:0|0:0,0:0:0:0:
232,248,81429,1,0,0:0:0:0:
316,192,81626,1,0,0:0:0:0:
240,348,81823,1,2,0:0:0:0:
240,348,82218,5,8,0:0:0:0:
148,308,82416,2,0,L|80:236,1,83.9999974365235,2|2,0:0|0:0,0:0:0:0:
136,156,82810,2,0,L|195:215,1,83.9999974365235,8|0,0:0|0:0,0:0:0:0:
248,128,83205,2,0,P|260:84|296:48,1,83.9999974365235,0|0,0:0|0:0,0:0:0:0:
356,132,83600,6,0,P|367:171|376:232,1,83.9999974365235,2|8,0:0|0:0,0:0:0:0:
456,272,83994,2,0,P|428:300|384:312,1,83.9999974365235,0|2,0:0|0:0,0:0:0:0:
284,300,84389,1,8,0:0:0:0:
276,199,84587,1,2,0:0:0:0:
375,214,84784,1,2,0:0:0:0:
284,300,84981,2,0,P|227:287|192:246,1,83.9999974365235,2|0,0:0|0:0,0:0:0:0:
328,112,85376,5,8,0:0:0:0:
376,214,85574,1,2,0:0:0:0:
284,300,85771,1,2,0:0:0:0:
128,288,85968,2,0,P|120:248|128:196,1,83.9999974365235,8|2,0:0|0:0,0:0:0:0:
272,84,86363,1,2,0:0:0:0:
376,214,86560,1,2,0:0:0:0:
209,245,86758,22,0,P|222:208|250:173,1,83.9999974365235,2|0,0:0|0:0,0:0:0:0:
250,174,87054,1,0,0:0:0:0:
250,174,87152,1,0,0:0:0:0:
364,324,87350,1,2,0:0:0:0:
364,138,87547,1,8,0:0:0:0:
255,288,87744,1,0,0:0:0:0:
431,231,87942,1,0,0:0:0:0:
256,288,88139,6,0,L|247:192,1,83.9999974365235,2|0,0:0|0:0,0:0:0:0:
138,144,88534,2,0,L|146:264,1,83.9999974365235,8|2,0:0|0:0,0:0:0:0:
247,205,88929,1,2,0:0:0:0:
48,192,89126,1,8,0:0:0:0:
140,328,89324,1,0,0:0:0:0:
140,328,89521,2,0,P|208:324|248:316,1,83.9999974365235,0|0,0:0|0:0,0:0:0:0:
272,312,89817,1,0,0:0:0:0:
272,312,89916,6,0,P|292:256|280:204,1,83.9999974365235,2|8,0:0|0:0,0:0:0:0:
256,40,90310,1,2,0:0:0:0:
184,192,90508,1,2,0:0:0:0:
320,65,90705,1,8,0:0:0:0:
136,148,90903,1,2,0:0:0:0:
192,15,91100,1,2,0:0:0:0:
249,196,91297,1,2,0:0:0:0:
249,196,91692,5,8,0:0:0:0:
320,64,91889,1,2,0:0:0:0:
384,144,92087,1,0,0:0:0:0:
448,40,92284,1,8,0:0:0:0:
452,56,92383,1,0,0:0:0:0:
456,72,92482,1,2,0:0:0:0:
460,88,92580,1,0,0:0:0:0:
464,104,92679,2,0,L|456:212,1,83.9999974365235,2|2,0:0|0:0,0:0:0:0:
444,340,93073,22,0,B|332:344,1,83.9999974365235,6|0,0:0|0:0,0:0:0:0:
328,248,93468,1,0,0:0:0:0:
280,160,93666,2,0,P|252:184|224:248,1,83.9999974365235,2|8,0:0|0:0,0:0:0:0:
156,296,94060,2,0,P|135:261|128:220,1,83.9999974365235,0|0,0:0|0:0,0:3:0:0:
127,219,94455,1,2,0:0:0:0:
128,220,94850,5,8,0:0:0:0:
277,65,95047,1,2,0:0:0:0:
146,88,95244,1,2,0:0:0:0:
340,182,95442,1,8,0:0:0:0:
247,278,95639,1,0,0:0:0:0:
428,144,95837,2,0,P|436:188|426:227,1,83.9999974365235,0|0,0:0|0:0,0:0:0:0:
380,316,96231,6,0,P|344:288|312:240,1,83.9999974365235,2|8,0:0|0:0,0:0:0:0:
320,257,96528,1,0,0:0:0:0:
320,257,96626,1,0,0:0:0:0:
352,92,96824,1,2,0:0:0:0:
256,156,97021,2,0,L|144:128,2,83.9999974365235,8|2|2,0:0|0:0|0:0,0:0:0:0:
456,116,97613,2,0,P|460:164|440:220,1,83.9999974365235,2|0,0:0|0:0,0:0:0:0:
380,316,98008,5,8,0:0:0:0:
256,156,98205,1,2,0:0:0:0:
276,272,98402,1,2,0:0:0:0:
276,272,98501,1,0,0:0:0:0:
276,272,98600,2,0,P|264:316|284:376,1,83.9999974365235,8|2,0:0|0:0,0:0:0:0:
376,192,98995,1,2,0:0:0:0:
380,176,99093,1,0,0:0:0:0:
384,160,99192,1,2,0:0:0:0:
388,144,99291,1,0,0:0:0:0:
392,128,99389,22,0,P|371:72|322:52,1,83.9999974365235,2|0,0:0|0:0,0:0:0:0:
252,80,99784,2,0,L|224:180,1,83.9999974365235,0|2,0:0|0:0,0:0:0:0:
132,140,100179,2,0,L|160:244,1,83.9999974365235,8|0,0:0|0:0,0:0:0:0:
248,260,100573,2,0,L|192:348,1,83.9999974365235,0|2,0:0|0:0,0:0:0:0:
104,304,100968,5,0,0:0:0:0:
240,160,101166,1,8,0:0:0:0:
248,260,101363,1,2,0:0:0:0:
324,68,101560,1,2,0:0:0:0:
132,140,101758,1,8,0:0:0:0:
328,204,101955,1,0,0:0:0:0:
200,332,102152,2,0,L|164:256,1,83.9999974365235,0|0,0:0|0:0,0:0:0:0:
280,136,102547,5,2,0:0:0:0:
184,160,102744,1,8,0:0:0:0:
332,248,102942,2,0,L|392:148,1,83.9999974365235,2|2,0:0|0:0,0:0:0:0:
468,140,103337,2,0,P|445:97|420:68,1,83.9999974365235,8|0,0:0|0:0,0:0:0:0:
272,60,103732,1,2,0:0:0:0:
232,152,103929,1,0,0:0:0:0:
232,152,104028,1,0,0:0:0:0:
232,152,104126,6,0,P|192:120|176:84,1,83.9999974365235,2|8,0:0|0:0,0:0:0:0:
56,224,104521,1,2,0:0:0:0:
100,40,104718,1,2,0:0:0:0:
232,152,104916,2,0,P|236:192|220:232,1,83.9999974365235,8|8,0:0|0:0,0:0:0:0:
64,240,105310,1,0,0:0:0:0:
72,256,105409,1,0,0:0:0:0:
80,272,105508,1,0,0:0:0:0:
88,288,105607,1,0,0:0:0:0:
96,300,105705,22,0,P|165:280|220:232,1,140,2|0,0:0|0:0,0:0:0:0:
284,88,106297,6,0,B|360:80|420:128|428:216|388:272,1,262.500010013581,0|4,0:0|0:0,0:0:0:0:
256,320,108074,5,0,0:0:0:0:
255,319,108863,2,0,P|185:289|160:248,1,105.000004005432,4|0,0:0|0:0,0:0:0:0:
252,220,109455,1,0,0:0:0:0:
256,192,118337,12,0,119916,0:0:0:0:
512,288,121100,6,0,P|480:256|452:196,1,83.9999974365235
412,136,121495,1,2,0:0:0:0:
244,244,121889,2,0,P|218:202|220:144,1,83.9999974365235
316,164,122284,2,0,L|336:80,2,83.9999974365235,0|0|0,0:0|0:0|0:0,0:0:0:0:
348,260,122876,1,2,0:0:0:0:
115,318,123468,1,2,0:0:0:0:
168,124,123863,2,0,L|253:140,1,83.9999974365235,8|0,0:0|0:0,0:0:0:0:
272,244,124258,2,0,L|186:227,1,83.9999974365235,0|0,0:0|0:0,0:0:0:0:
96,200,124653,22,0,P|60:126|93:52,1,167.999994873047,8|0,0:0|0:0,0:0:0:0:
192,28,125245,1,0,0:0:0:0:
308,104,125442,1,0,0:0:0:0:
440,36,125639,2,0,P|452:76|454:117,1,83.9999974365235
456,220,126034,1,2,0:0:0:0:
268,296,126429,1,0,0:0:0:0:
196,368,126626,1,2,0:0:0:0:
140,176,127021,2,0,P|187:151|239:140,1,83.9999974365235,8|0,0:0|0:0,0:0:0:0:
344,264,127416,2,0,P|296:288|244:299,1,83.9999974365235,0|0,0:0|0:0,0:0:0:0:
168,276,127810,5,2,0:0:0:0:
112,72,128008,1,0,0:0:0:0:
112,72,128107,1,0,0:0:0:0:
112,72,128205,2,0,L|216:48,1,83.9999974365235
360,120,128600,1,0,0:0:0:0:
438,211,128797,1,0,0:0:0:0:
322,230,128995,1,0,0:0:0:0:
360,120,129192,1,0,0:0:0:0:
420,40,129389,22,0,P|325:25|271:71,1,167.999994873047,2|2,0:0|0:0,0:0:0:0:
176,100,129982,1,0,0:0:0:0:
80,128,130179,2,0,L|68:240,1,83.9999974365235,8|0,0:0|0:0,0:0:0:0:
184,268,130573,2,0,L|196:156,1,83.9999974365235,0|0,0:0|0:0,0:0:0:0:
176,372,130968,6,0,P|224:379|288:359,1,85,2|0,0:0|0:0,2:0:0:0:
259,372,131264,1,0,0:0:0:0:
259,372,131363,1,0,0:0:0:0:
344,316,131560,1,0,0:0:0:0:
388,224,131758,2,0,L|396:128,1,83.9999974365235,0|0,0:0|0:0,0:0:0:0:
290,94,132153,2,0,L|282:177,1,83.9999974365235
344,316,132547,6,0,P|391:314|445:291,1,83.9999974365235
290,94,132942,2,0,P|242:95|188:118,1,83.9999974365235,2|0,0:0|0:0,0:0:0:0:
116,148,133337,1,8,0:0:0:0:
156,312,133534,1,8,0:0:0:0:
216,208,133731,1,2,0:0:0:0:
52,248,133928,1,2,0:0:0:0:
244,200,134126,6,0,L|324:148,1,83.9999974365235,2|0,0:0|0:0,0:0:0:0:
368,68,134521,1,0,0:0:0:0:
432,144,134718,2,0,L|444:232,1,83.9999974365235,0|0,0:0|0:0,0:0:0:0:
464,328,135113,2,0,P|420:328|376:300,1,83.9999974365235
244,200,135508,6,0,P|224:120|288:44,1,167.999994873047
269,53,136001,1,0,0:0:0:0:
269,53,136100,1,2,0:0:0:0:
360,96,136297,1,0,0:0:0:0:
336,192,136494,1,8,0:0:0:0:
270,52,136692,1,0,0:0:0:0:
451,139,136889,2,0,P|460:180|450:220,1,85,0|0,0:0|0:0,0:0:0:0:
372,364,137284,6,0,L|271:339,1,83.9999974365235
336,192,137679,2,0,L|254:171,1,83.9999974365235
60,120,138073,1,0,0:0:0:0:
156,144,138271,2,0,P|176:100|232:80,1,83.9999974365235
304,64,138666,1,0,0:0:0:0:
336,192,138863,22,0,P|410:234|492:204,1,167.999994873047,2|2,0:0|0:0,0:0:0:0:
416,136,139455,1,0,0:0:0:0:
388,376,139652,2,0,L|276:364,1,83.9999974365235
232,272,140047,2,0,L|344:284,1,83.9999974365235
164,340,140442,6,0,P|136:264|196:184,1,167.999994873047,2|0,0:0|0:0,0:0:0:0:
252,128,141034,1,0,0:0:0:0:
312,208,141231,2,0,P|348:136|320:56,1,167.999994873047,2|0,0:0|0:0,0:0:0:0:
252,128,141823,1,0,0:0:0:0:
436,128,142021,6,0,P|436:173|432:232,1,83.9999974365235,2|0,0:0|0:0,0:0:0:0:
310,292,142416,2,0,P|310:247|314:188,1,83.9999974365235,2|0,0:0|0:0,0:0:0:0:
316,108,142810,1,8,0:0:0:0:
224,152,143008,1,0,0:0:0:0:
404,164,143205,1,2,0:0:0:0:
216,256,143402,1,0,0:0:0:0:
228,48,143600,6,0,P|292:4|396:40,1,167.999994873047,2|0,0:0|0:0,0:0:0:0:
460,76,144192,1,2,0:0:0:0:
460,76,144784,21,8,0:0:0:0:
384,144,144982,1,0,0:0:0:0:
232,272,145376,2,0,B|156:336,2,83.9999974365235,2|2|0,0:0|0:0|0:0,0:0:0:0:
418,272,145968,1,8,0:0:0:0:
339,337,146166,1,8,0:0:0:0:
339,169,146363,1,2,0:0:0:0:
80,56,146758,6,0,P|72:96|72:140,1,83.9999974365235,2|0,0:0|0:0,0:0:0:0:
156,196,147152,2,0,P|164:156|164:112,1,83.9999974365235,0|0,0:0|0:0,0:0:0:0:
240,236,147547,2,0,P|277:255|324:252,1,83.9999974365235,0|0,0:0|0:0,0:0:0:0:
300,152,147942,1,0,0:0:0:0:
248,60,148139,6,0,P|336:52|404:132,1,167.999994873047,2|0,0:0|0:0,0:0:0:0:
424,200,148732,1,2,0:0:0:0:
412,300,148929,1,0,0:0:0:0:
332,240,149126,2,0,L|222:238,1,83.9999974365235,8|0,0:0|0:0,0:0:0:0:
300,152,149521,1,0,0:0:0:0:
250,238,149718,1,0,0:0:0:0:
282,346,149916,6,2,P|319:332|348:301,1,83.9999974365235,0|0,0:0|0:0,2:0:0:0:
251,238,150310,1,0,0:0:0:0:
219,128,150508,2,0,P|181:147|156:180,1,83.9999974365235,0|8,0:0|0:0,2:0:0:0:
116,272,150902,1,0,0:0:0:0:
216,276,151100,1,0,0:0:0:0:
299,215,151297,22,0,P|336:141|308:64,1,167.999994873047,2|0,0:0|0:0,0:0:0:0:
208,60,151889,1,2,0:0:0:0:
92,108,152087,1,0,0:0:0:0:
192,184,152284,1,8,0:0:0:0:
208,60,152482,1,0,0:0:0:0:
92,108,152679,2,0,P|64:152|72:216,1,83.9999974365235,0|0,0:0|0:0,0:0:0:0:
80,284,153073,6,0,L|192:312,1,83.9999974365235,2|0,0:0|0:0,0:0:0:0:
260,320,153468,1,0,0:0:0:0:
224,224,153666,1,0,0:0:0:0:
162,305,153863,1,8,0:0:0:0:
328,236,154060,1,0,0:0:0:0:
377,143,154258,2,0,L|368:60,1,83.9999974365235,0|0,0:0|0:0,0:0:0:0:
144,60,154653,6,0,L|134:145,1,83.9999974365235,0|0,0:0|0:0,0:0:0:0:
44,176,155047,1,2,0:0:0:0:
120,240,155245,1,0,0:0:0:0:
200,300,155442,2,0,L|285:290,1,83.9999974365235,8|0,0:0|0:0,0:0:0:0:
316,200,155836,1,0,0:0:0:0:
380,276,156034,1,0,0:0:0:0:
416,180,156231,6,0,P|434:127|440:91,1,83.9999974365235,2|0,0:0|0:0,0:0:0:0:
444,48,156527,1,0,0:0:0:0:
444,48,156626,2,0,L|345:32,1,83.9999974365235
268,112,157021,2,0,L|366:127,1,83.9999974365235,8|0,0:0|0:0,0:0:0:0:
512,148,157416,1,2,0:0:0:0:
344,364,157613,1,2,0:0:0:0:
68,236,158205,22,0,L|36:324,2,83.9999974365235,0|0|8,0:0|0:0|0:0,0:0:0:0:
100,140,158797,1,2,0:0:0:0:
200,128,158995,1,2,0:0:0:0:
164,224,159192,1,2,0:0:0:0:
140,44,159389,6,0,P|204:24|276:60,1,125.999996154785,2|0,0:0|0:0,0:0:0:0:
272,52,159784,2,0,L|328:120,1,83.9999974365235
325,116,160080,1,0,0:0:0:0:
325,116,160179,1,8,0:0:0:0:
359,212,160376,1,0,0:0:0:0:
259,196,160574,2,0,P|219:240|131:260,1,125.999996154785,0|0,0:0|0:0,0:0:0:0:
139,260,160968,6,0,L|63:204,1,83.9999974365235,2|0,0:0|0:0,0:0:0:0:
0,56,161363,1,2,0:0:0:0:
67,128,161560,1,0,0:0:0:0:
67,128,161659,1,0,0:0:0:0:
67,128,161758,1,8,0:0:0:0:
103,36,161955,1,0,0:0:0:0:
284,120,162153,2,0,L|215:71,1,83.9999974365235
184,168,162547,6,0,L|252:216,1,83.9999974365235,2|0,0:0|0:0,0:0:0:0:
280,224,162843,1,0,0:0:0:0:
304,224,162942,2,0,P|344:192|352:136,1,83.9999974365235
396,56,163337,1,8,0:0:0:0:
272,144,163534,1,0,0:0:0:0:
416,208,163732,1,0,0:0:0:0:
284,32,163929,22,0,P|188:20|84:48,1,167.999994873047,2|0,0:0|0:0,0:0:0:0:
60,188,164521,1,2,0:0:0:0:
240,204,164718,1,0,0:0:0:0:
148,248,164916,1,8,0:0:0:0:
156,148,165113,1,0,0:0:0:0:
236,308,165310,2,0,P|280:300|320:272,1,83.9999974365235,2|0,0:0|0:0,0:0:0:0:
352,103,165705,6,0,P|468:128|392:220,1,251.999992309571,2|0,0:0|0:0,0:0:0:0:
268,56,166495,2,0,L|188:100,1,83.9999974365235,8|0,0:0|0:0,0:0:0:0:
193,96,166889,1,0,0:0:0:0:
144,8,167087,6,0,P|103:66|128:164,1,167.999994873047,2|0,0:0|0:0,0:0:0:0:
188,228,167679,2,0,P|232:232|280:200,1,83.9999974365235,2|0,0:0|0:0,0:0:0:0:
368,196,168074,2,0,P|356:156|288:128,1,83.9999974365235,8|0,0:0|0:0,0:0:0:0:
224,116,168468,2,0,P|184:180|204:260,1,125.999996154785,2|0,0:0|0:0,0:0:0:0:
187,228,168863,5,2,0:0:0:0:
187,228,169258,1,2,0:0:0:0:
347,247,169455,1,0,0:0:0:0:
284,108,169652,1,8,0:0:0:0:
152,64,169850,1,2,0:0:0:0:
52,168,170047,1,2,0:0:0:0:
188,228,170244,2,0,P|264:260|352:244,1,167.999994873047,2|0,0:0|0:0,0:0:0:0:
284,108,170837,1,2,0:0:0:0:
284,108,171232,22,0,P|244:144|224:196,1,83.9999974365235,8|2,0:0|0:0,0:0:0:0:
196,264,171626,1,0,0:0:0:0:
196,264,171724,1,0,0:0:0:0:
196,264,171823,1,0,0:0:0:0:
196,264,171922,1,0,0:0:0:0:
196,264,172021,6,0,P|272:264|332:168,1,167.999994873047,6|0,0:0|0:0,0:0:0:0:
408,132,172613,1,2,0:0:0:0:
312,96,172810,2,0,P|289:56|287:-10,2,83.9999974365235,8|0|0,0:0|0:0|0:0,0:0:0:0:
388,28,173402,1,2,0:0:0:0:
208,272,173797,5,8,0:0:0:0:
388,236,173995,1,2,0:0:0:0:
248,120,174192,1,2,0:0:0:0:
272,292,174389,1,8,0:0:0:0:
396,168,174587,1,0,0:0:0:0:
380,48,174784,2,0,B|336:40|260:52,1,83.9999974365235,2|0,0:0|0:0,0:0:0:0:
188,56,175179,6,0,P|126:79|96:120,1,83.9999974365235,2|8,0:0|0:0,0:0:0:0:
114,90,175475,1,0,0:0:0:0:
114,90,175574,1,0,0:0:0:0:
124,188,175771,1,2,0:0:0:0:
224,200,175968,2,0,B|316:172,2,83.9999974365235,8|2|2,0:0|0:0|0:0,0:0:0:0:
124,188,176560,2,0,P|136:248|172:280,1,83.9999974365235,2|0,0:0|0:0,0:0:0:0:
248,312,176955,21,8,0:0:0:0:
324,236,177153,1,2,0:0:0:0:
220,176,177350,1,2,0:0:0:0:
220,176,177449,1,0,0:0:0:0:
220,176,177547,1,8,0:0:0:0:
420,156,177745,1,2,0:0:0:0:
328,68,177942,1,2,0:0:0:0:
324,236,178139,1,2,0:0:0:0:
220,176,178337,6,0,L|108:136,2,83.9999974365235,2|0|0,0:0|0:0|0:0,0:0:0:0:
420,156,178929,2,0,L|532:116,2,83.9999974365235,2|8|0,0:0|0:0|0:0,0:0:0:0:
400,272,179521,1,0,0:0:0:0:
312,324,179718,1,2,0:0:0:0:
144,204,180114,5,8,0:0:0:0:
268,80,180310,1,2,0:0:0:0:
340,220,180508,1,2,0:0:0:0:
140,172,180705,1,8,0:0:0:0:
292,60,180903,1,0,0:0:0:0:
292,60,181001,1,0,0:0:0:0:
292,60,181100,1,0,0:0:0:0:
320,244,181297,1,0,0:0:0:0:
136,136,181494,5,2,0:0:0:0:
320,36,181692,1,8,0:0:0:0:
320,36,181791,1,0,0:0:0:0:
320,36,181889,2,0,P|336:88|324:144,1,83.9999974365235,0|2,0:0|0:0,0:0:0:0:
328,168,182185,1,0,0:0:0:0:
328,168,182284,2,0,L|320:252,1,83.9999974365235,8|2,0:0|0:0,0:0:0:0:
320,251,182679,1,2,0:0:0:0:
86,313,182876,22,0,P|162:343|236:308,1,167.999994873047,2|8,0:0|0:0,0:0:0:0:
68,128,183468,1,2,0:0:0:0:
256,208,183666,1,2,0:0:0:0:
160,236,183863,2,0,P|156:188|164:152,1,83.9999974365235,8|2,0:0|0:0,0:0:0:0:
168,136,184159,1,0,0:0:0:0:
173,119,184257,1,2,0:0:0:0:
180,103,184356,1,0,0:0:0:0:
189,89,184455,1,2,0:0:0:0:
199,75,184553,1,0,0:0:0:0:
212,64,184653,6,0,P|256:52|316:64,1,83.9999974365235,6|0,0:0|0:0,0:0:0:0:
312,60,184949,1,0,0:0:0:0:
324,72,185047,2,0,L|332:172,1,83.9999974365235,0|2,0:0|0:0,0:0:0:0:
400,228,185442,1,8,0:0:0:0:
246,156,185639,1,0,0:0:0:0:
414,116,185837,1,0,0:0:0:0:
328,266,186034,2,0,P|356:296|432:308,1,83.9999974365235,2|0,0:0|0:0,0:0:0:0:
320,88,186429,5,8,0:0:0:0:
248,232,186626,1,2,0:0:0:0:
414,116,186824,1,2,0:0:0:0:
246,156,187021,2,0,P|202:148|162:132,1,83.9999974365235,8|0,0:0|0:0,0:0:0:0:
68,116,187416,2,0,L|60:220,1,83.9999974365235,0|0,0:0|0:0,0:0:0:0:
152,232,187810,6,0,L|149:326,1,83.9999974365235,2|8,0:0|0:0,0:0:0:0:
188,348,188107,1,0,0:0:0:0:
188,348,188205,2,0,P|264:320|284:296,1,83.9999974365235,0|2,0:0|0:0,0:0:0:0:
312,296,188501,1,0,0:0:0:0:
312,296,188600,2,0,P|358:287|420:296,1,83.9999974365235,8|2,0:0|0:0,0:0:0:0:
424,188,188995,1,2,0:0:0:0:
384,96,189192,1,2,0:0:0:0:
384,96,189587,21,8,0:0:0:0:
424,188,189784,2,0,B|380:208|312:176,1,83.9999974365235,2|2,0:0|0:0,0:0:0:0:
184,124,190179,1,8,0:0:0:0:
216,288,190376,1,2,0:0:0:0:
251,189,190573,1,2,0:0:0:0:
87,226,190771,1,2,0:0:0:0:
276,196,190968,6,0,P|316:207|380:216,1,83.9999974365235,2|0,0:0|0:0,0:0:0:0:
412,352,191363,2,0,P|414:312|412:236,1,83.9999974365235,0|2,0:0|0:0,0:0:0:0:
344,136,191758,1,8,0:0:0:0:
248,108,191955,1,0,0:0:0:0:
192,192,192153,1,0,0:0:0:0:
320,40,192350,6,0,P|276:24|212:12,1,83.9999974365235,2|0,0:0|0:0,0:0:0:0:
160,72,192745,2,0,P|136:108|112:160,1,83.9999974365235,8|2,0:0|0:0,0:0:0:0:
72,308,193139,1,2,0:0:0:0:
220,228,193337,1,8,0:0:0:0:
72,304,193534,1,0,0:0:0:0:
120,144,193731,1,0,0:0:0:0:
164,308,193929,1,0,0:0:0:0:
312,332,194126,6,0,P|348:304|384:256,1,83.9999974365235,2|8,0:0|0:0,0:0:0:0:
372,274,194422,1,0,0:0:0:0:
372,274,194521,1,0,0:0:0:0:
412,180,194718,1,2,0:0:0:0:
504,26,194916,2,0,P|471:52|444:83,1,83.9999974365235,8|0,0:0|0:0,0:0:0:0:
344,104,195310,2,0,L|300:176,1,83.9999974365235,2|8,0:0|0:0,0:0:0:0:
300,175,195606,1,8,0:0:0:0:
300,175,195705,21,8,0:0:0:0:
88,340,195902,1,8,0:0:0:0:
88,340,196001,1,0,0:0:0:0:
88,340,196100,2,0,P|72:288|88:224,1,83.9999974365235,2|0,0:0|0:0,0:0:0:0:
172,236,196494,6,0,L|136:296,2,55.9999982910157,8|8|8,0:0|0:0|0:0,0:0:0:0:
171,235,196889,2,0,L|110:199,2,55.9999982910157,2|2|2,0:0|0:0|0:0,0:0:0:0:
171,235,197284,6,0,P|215:242|276:256,1,83.9999974365235,6|0,0:0|0:0,2:0:0:0:
368,280,197679,1,2,0:0:0:0:
376,180,197876,2,0,B|332:172|264:180,1,83.9999974365235,2|8,0:0|0:0,0:0:0:0:
172,236,198271,1,0,0:0:0:0:
300,348,198468,1,0,0:0:0:0:
376,180,198666,1,2,0:0:0:0:
172,236,198863,5,0,0:0:0:0:
300,348,199060,1,8,0:0:0:0:
292,192,199258,2,0,P|261:161|202:130,1,83.9999974365235,2|2,0:0|0:0,0:0:0:0:
168,261,199652,2,0,P|157:303|158:364,1,83.9999974365235,8|0,0:0|0:0,0:0:0:0:
294,356,200047,2,0,P|328:344|379:307,1,83.9999974365235,0|0,0:0|0:0,0:0:0:0:
412,292,200343,1,0,0:0:0:0:
412,292,200442,22,0,B|424:200,1,83.9999974365235,6|0,0:0|0:0,0:0:0:0:
422,208,200738,1,0,0:0:0:0:
422,208,200837,1,0,0:0:0:0:
332,160,201034,1,2,0:0:0:0:
268,236,201232,1,8,0:0:0:0:
396,84,201429,2,0,P|356:64|298:66,1,83.9999974365235,0|0,0:0|0:0,0:0:0:0:
168,260,201824,1,2,0:0:0:0:
396,84,202218,5,8,0:0:0:0:
332,160,202416,1,2,0:0:0:0:
424,208,202613,1,2,0:0:0:0:
296,68,202810,2,0,P|248:72|192:88,1,83.9999974365235,8|2,0:0|0:0,0:0:0:0:
116,104,203205,2,0,P|112:148|116:208,1,83.9999974365235,2|0,0:0|0:0,0:0:0:0:
140,228,203501,1,0,0:0:0:0:
140,228,203600,6,0,L|248:248,1,83.9999974365235,6|0,0:0|0:0,0:0:0:0:
324,260,203995,1,0,0:0:0:0:
192,160,204192,2,0,L|296:160,1,83.9999974365235,2|8,0:0|0:0,0:0:0:0:
376,160,204587,1,0,0:0:0:0:
254,307,204784,2,0,L|338:251,1,83.9999974365235,0|2,0:0|0:0,0:0:0:0:
356,60,205376,5,8,0:0:0:0:
276,120,205574,1,2,0:0:0:0:
324,224,205771,1,2,0:0:0:0:
276,120,205968,1,8,0:0:0:0:
208,344,206166,1,2,0:0:0:0:
120,176,206363,1,2,0:0:0:0:
240,240,206560,1,2,0:0:0:0:
240,240,206659,1,0,0:0:0:0:
240,240,206758,22,0,P|288:236|340:212,1,83.9999974365235,6|0,0:0|0:0,0:0:0:0:
384,132,207152,1,0,0:0:0:0:
204,36,207350,2,0,P|184:80|148:120,2,83.9999974365235,0|8|0,0:0|0:0|0:0,0:0:0:0:
104,24,207942,1,0,0:0:0:0:
224,192,208139,1,0,0:0:0:0:
224,192,208534,5,8,0:0:0:0:
272,80,208731,1,8,0:0:0:0:
340,156,208928,1,0,0:0:0:0:
408,40,209126,2,0,L|436:152,1,83.9999974365235,8|2,0:0|0:0,0:0:0:0:
432,136,209422,1,0,0:0:0:0:
436,152,209521,2,0,L|428:216,1,41.9999987182618,0|0,0:0|0:0,0:0:0:0:
464,296,209718,2,0,L|438:262,1,41.9999987182618,2|0,0:0|0:0,0:0:0:0:
376,236,209916,6,0,P|336:228|264:240,1,83.9999974365235,0|0,0:0|0:0,0:0:0:0:
293,230,210212,1,0,0:0:0:0:
293,230,210310,1,0,0:0:0:0:
160,152,210508,1,2,0:0:0:0:
128,288,210705,1,8,0:0:0:0:
128,288,211100,1,0,0:0:0:0:
160,152,211297,1,2,0:0:0:0:
240,336,211495,6,0,P|288:344|352:324,1,83.9999974365235,0|8,0:0|0:0,0:0:0:0:
322,338,211791,1,0,0:0:0:0:
322,338,211889,1,2,0:0:0:0:
348,204,212087,1,2,0:0:0:0:
420,136,212284,2,0,P|444:212|436:244,1,83.9999974365235,8|0,0:0|0:0,0:0:0:0:
280,268,212679,2,0,P|256:192|272:156,1,83.9999974365235
268,92,213074,22,0,P|220:96|164:112,1,83.9999974365235,2|0,0:0|0:0,0:0:0:0:
136,120,213370,1,0,0:0:0:0:
136,120,213468,2,0,P|136:184|152:216,1,83.9999974365235,0|2,0:0|0:0,0:0:0:0:
104,336,213863,2,0,P|104:272|88:240,1,83.9999974365235,8|0,0:0|0:0,0:0:0:0:
36,172,214258,1,2,0:0:0:0:
216,56,214455,6,0,P|236:128|176:216,1,167.999994873047,2|8,0:0|0:0,0:0:0:0:
136,120,215047,2,0,L|104:36,1,83.9999974365235,2|2,0:0|0:0,0:0:0:0:
106,41,215343,1,0,0:0:0:0:
106,41,215442,1,8,0:0:0:0:
272,64,215639,1,8,0:0:0:0:
136,120,215837,1,2,0:0:0:0:
276,212,216034,1,2,0:0:0:0:
408,304,216232,6,0,P|336:324|244:308,1,167.999994873047,2|0,0:0|0:0,0:0:0:0:
276,212,216824,1,2,0:0:0:0:
299,116,217021,6,0,P|217:100|136:120,1,167.999994873047,8|0,0:0|0:0,0:0:0:0:
276,212,217613,2,0,L|344:232,1,41.9999987182618,2|0,0:0|0:0,0:0:0:0:
364,236,217810,21,0,0:0:0:0:
316,306,218008,1,8,0:0:0:0:
412,172,218205,1,2,0:0:0:0:
428,356,218403,1,2,0:0:0:0:
300,116,218600,1,8,0:0:0:0:
24,256,218995,1,2,0:0:0:0:
108,316,219192,1,0,0:0:0:0:
212,332,219389,6,0,B|264:312|292:252,1,83.9999974365235,2|8,0:0|0:0,0:0:0:0:
300,180,219784,1,2,0:0:0:0:
388,268,219982,2,0,P|397:186|384:156,1,83.9999974365235,2|8,0:0|0:0,0:0:0:0:
360,92,220376,1,2,0:0:0:0:
300,12,220574,2,0,P|260:36|212:76,1,83.9999974365235,2|2,0:0|0:0,0:0:0:0:
188,88,220869,1,2,0:0:0:0:
188,88,220968,5,2,0:0:0:0:
208,252,221166,1,8,0:0:0:0:
300,180,221363,1,2,0:0:0:0:
188,88,221560,1,2,0:0:0:0:
112,296,221758,2,0,P|148:332|196:352,1,83.9999974365235,8|2,0:0|0:0,0:0:0:0:
208,252,222152,2,0,P|172:216|124:196,1,83.9999974365235,2|0,0:0|0:0,0:0:0:0:
44,220,222547,1,2,0:0:0:0:
280,328,222942,6,0,P|304:275|307:217,1,83.9999974365235,0|2,0:0|0:0,2:0:0:0:
408,228,223337,2,0,P|399:187|380:149,1,83.9999974365235,8|2,0:0|0:0,0:0:0:0:
316,72,223731,1,0,0:0:0:0:
208,252,223929,1,2,0:0:0:0:
92,84,224324,1,8,0:0:0:0:
92,84,224422,1,8,0:0:0:0:
92,84,224521,2,0,L|204:120,1,83.9999974365235,2|0,0:0|0:0,0:0:0:0:
316,72,224916,21,8,0:0:0:0:
326,115,225047,5,2,0:0:0:0:
320,159,225179,5,2,0:0:0:0:
298,199,225310,5,2,0:0:0:0:
267,229,225442,21,2,0:0:0:0:
226,244,225573,5,2,0:0:0:0:
226,244,225705,5,12,0:0:0:0:
256,192,225804,12,0,230244,0:0:0:0:
244,188,231231,5,8,0:0:0:0:
200,80,231429,1,2,0:0:0:0:
316,96,231626,1,2,0:0:0:0:
244,188,231823,1,2,0:0:0:0:
172,280,232021,22,0,L|144:200,1,83.9999974365235,2|0,0:0|0:0,0:0:0:0:
244,188,232416,1,0,0:0:0:0:
316,96,232613,2,0,L|344:176,1,83.9999974365235,2|8,0:0|0:0,0:0:0:0:
380,268,233008,1,0,0:0:0:0:
244,188,233205,1,0,0:0:0:0:
212,368,233402,2,0,P|256:356|296:328,1,83.9999974365235,2|0,0:0|0:0,0:0:0:0:
380,268,233797,5,8,0:0:0:0:
432,108,233994,1,2,0:0:0:0:
264,96,234192,1,2,0:0:0:0:
368,256,234389,1,8,0:0:0:0:
420,120,234587,1,0,0:0:0:0:
264,120,234784,1,0,0:0:0:0:
356,244,234981,1,0,0:0:0:0:
344,60,235179,6,0,L|432:20,2,83.9999974365235,2|8|0,0:0|0:0|0:0,0:0:0:0:
168,124,235771,2,0,L|80:84,2,83.9999974365235,2|8|2,0:0|0:0|0:0,0:0:0:0:
256,308,236363,1,8,0:0:0:0:
336,188,236560,1,2,0:0:0:0:
336,188,236955,6,0,P|357:148|368:108,2,83.9999974365235,8|2|0,0:0|0:0|0:0,0:0:0:0:
216,152,237547,1,8,0:0:0:0:
296,248,237744,1,2,0:0:0:0:
160,112,237942,1,2,0:0:0:0:
256,308,238139,1,2,0:0:0:0:
356,292,238337,22,0,L|404:216,1,83.9999974365235,2|0,0:0|0:0,0:0:0:0:
216,152,238731,1,0,0:0:0:0:
272,68,238929,2,0,L|320:48,1,41.9999987182618,2|0,0:0|0:0,0:0:0:0:
360,36,239126,2,0,B|414:43|414:43|460:84,2,111.999996582031,8|0|0,0:0|0:0|0:0,0:0:0:0:
356,172,239916,5,0,0:0:0:0:
256,240,240113,1,8,0:0:0:0:
329,251,240310,2,0,P|349:207|357:159,1,83.9999974365235,2|2,0:0|0:0,0:0:0:0:
297,91,240705,2,0,P|277:135|269:183,1,83.9999974365235,8|8,0:0|0:0,0:0:0:0:
269,169,241001,1,8,0:0:0:0:
269,169,241100,1,8,0:0:0:0:
182,251,241297,1,8,0:0:0:0:
76,184,241494,6,0,P|93:137|124:96,1,83.9999974365235,2|0,0:0|0:0,0:0:0:0:
144,68,241791,1,2,0:0:0:0:
144,68,241889,2,0,L|132:20,2,41.9999987182618,8|2|8,0:0|0:0|0:0,0:0:0:0:
324,232,242284,1,2,0:0:0:0:
180,252,242481,1,8,0:0:0:0:
297,91,242679,1,2,0:0:0:0:
420,260,242876,6,0,P|364:324|267:322,1,167.999994873047,2|8,0:0|0:0,0:0:0:0:
285,329,243369,1,8,0:0:0:0:
285,329,243468,1,8,0:0:0:0:
104,192,243666,1,2,0:0:0:0:
252,112,243863,1,8,0:0:0:0:
228,276,244060,1,8,0:0:0:0:
144,132,244258,1,2,0:0:0:0:
308,160,244455,1,0,0:0:0:0:
156,284,244652,22,0,P|120:192|164:112,1,167.999994873047,2|0,0:0|0:0,0:0:0:0:
244,116,245244,1,2,0:0:0:0:
344,100,245442,2,0,L|388:8,2,83.9999974365235,8|0|0,0:0|0:0|0:0,0:0:0:0:
364,200,246034,2,0,P|400:292|356:372,1,167.999994873047,2|8,0:0|0:0,0:0:0:0:
304,284,246626,2,0,L|212:300,1,83.9999974365235,2|2,0:0|0:0,0:0:0:0:
164,216,247021,2,0,L|256:200,1,83.9999974365235,8|0,0:0|0:0,0:0:0:0:
184,120,247416,2,0,L|92:136,1,83.9999974365235
27,63,247810,6,0,P|3:142|40:216,1,167.999994873047,2|0,0:0|0:0,0:0:0:0:
136,248,248402,1,2,0:0:0:0:
232,280,248600,2,0,L|232:368,2,83.9999974365235,8|2|2,0:0|0:0|0:0,0:0:0:0:
328,248,249192,1,2,0:0:0:0:
340,80,249389,5,2,0:0:0:0:
340,80,249488,1,2,0:0:0:0:
340,80,249587,1,2,0:0:0:0:
212,160,249784,1,2,0:0:0:0:
212,160,249883,1,2,0:0:0:0:
212,160,249981,2,0,L|212:96,2,41.9999987182618,2|2|8,0:0|0:0|0:0,0:0:0:0:
84,80,250376,1,8,0:0:0:0:
212,272,250573,1,2,0:0:0:0:
340,80,250771,1,2,0:0:0:0:
256,192,250968,12,0,252547,0:0:0:0:
160,72,253337,21,0,0:0:0:0:
112,128,253534,1,0,0:0:0:0:
160,72,253732,2,0,P|188:64|232:76,1,52.5000020027161
268,112,254126,2,0,P|256:177|272:236,1,105.000004005432,4|0,0:0|0:0,0:0:0:0:
328,184,254718,2,0,P|349:246|391:290,1,105.000004005432,0|0,0:0|0:0,0:0:0:0:
464,160,255508,1,0,0:0:0:0:
176,256,256494,38,0,P|152:228|120:204,1,52.5000020027161,0|0,0:0|0:0,0:0:0:0:
108,284,256889,1,0,0:0:0:0:
176,324,257087,1,0,0:0:0:0:
244,280,257284,2,0,P|300:308|356:304,1,105.000004005432,4|0,0:0|0:0,0:0:0:0:
400,264,257876,2,0,P|412:210|392:156,1,105.000004005432
360,100,258468,1,0,0:0:0:0:
428,72,258666,2,0,P|429:122|390:166,1,105.000004005432
328,164,259258,1,0,0:0:0:0:
180,92,259652,22,0,P|180:118|173:143,1,52.5000020027161,0|0,0:0|0:0,0:0:0:0:
168,216,260047,1,0,0:0:0:0:
108,176,260245,1,0,0:0:0:0:
96,248,260442,2,0,P|140:288|196:308,1,105.000004005432,4|0,0:0|0:0,0:0:0:0:
228,248,261034,2,0,P|285:264|344:258,1,105.000004005432,0|0,0:0|0:0,0:0:0:0:
440,164,261824,38,0,B|476:128|492:56,2,105.000004005432
368,164,262810,1,0,0:0:0:0:
240,180,263008,1,0,0:0:0:0:
308,208,263205,1,0,0:0:0:0:
300,136,263402,1,0,0:0:0:0:
280,64,263600,22,0,P|240:52|208:48,1,52.5000020027161,4|0,0:0|0:0,0:0:0:0:
164,84,263995,1,0,0:0:0:0:
108,132,264192,2,0,B|64:172|60:240,2,105.000004005432
238,238,265376,5,0,0:0:0:0:
214,318,265574,1,0,0:0:0:0:
154,258,265771,1,0,0:0:0:0:
306,299,265968,2,0,P|328:266|324:217,1,70,0|0,0:0|0:0,0:0:0:0:
262,176,266363,2,0,P|240:209|244:258,1,70,0|0,0:0|0:0,0:0:0:0:
377,351,266758,6,0,P|426:298|457:207,1,140,2|0,0:0|0:0,0:0:0:0:
337,61,267350,2,0,P|288:114|257:205,1,140,0|0,0:0|0:0,0:0:0:0:
306,298,268139,1,0,0:0:0:0:
390,136,268534,6,0,L|440:199,2,70
338,60,269126,2,0,P|282:16|206:12,1,140,2|0,0:0|0:0,0:0:0:0:
143,177,269916,2,0,P|199:221|275:225,1,140,2|0,0:0|0:0,0:0:0:0:
240,119,270508,1,0,0:0:0:0:
317,283,270903,2,0,L|392:282,1,70
448,356,271297,2,0,P|484:288|456:212,1,140,2|0,0:0|0:0,0:0:0:0:
432,154,271889,2,0,L|426:75,1,70
440,300,272679,1,0,0:0:0:0:
432,154,272876,1,0,0:0:0:0:
440,300,273074,22,0,P|368:304|272:296,1,140,2|0,0:0|0:0,0:0:0:0:
260,212,273666,2,0,L|192:160,1,70,0|2,0:0|0:0,0:0:0:0:
120,120,274060,1,0,0:0:0:0:
260,212,274258,1,0,0:0:0:0:
120,120,274455,2,0,P|79:172|36:256,2,140,2|0|0,0:0|0:0|0:0,0:0:0:0:
260,212,275442,1,2,0:0:0:0:
206,138,275639,1,0,0:0:0:0:
210,288,275837,2,0,P|254:304|294:296,1,70,2|0,0:0|0:0,0:0:0:0:
366,286,276232,6,0,L|414:142,1,140,2|0,0:0|0:0,0:0:0:0:
304,79,276823,2,0,L|256:223,1,140,0|0,0:0|0:0,0:0:0:0:
136,144,277416,1,2,0:0:0:0:
60,262,277613,6,0,P|108:316|194:321,1,140,2|8,0:0|0:0,0:0:0:0:
171,327,278107,1,0,0:0:0:0:
171,327,278205,1,8,0:0:0:0:
377,322,278403,1,0,0:0:0:0:
377,322,278501,1,0,0:0:0:0:
377,322,278600,2,0,L|399:242,1,70,2|2,0:0|0:0,0:0:0:0:
366,136,278995,1,8,0:0:0:0:
491,195,279192,1,2,0:0:0:0:
396,255,279389,5,6,0:0:0:0:
268,176,279784,1,0,0:0:0:0:
176,136,279982,1,2,0:0:0:0:
100,204,280179,1,8,0:0:0:0:
192,236,280376,2,0,L|208:336,1,83.9999974365235,2|2,0:0|0:0,0:0:0:0:
468,148,280771,22,0,B|448:316,1,167.999994873047,12|8,0:0|0:0,0:0:0:0:
297,362,281363,1,2,0:0:0:0:
192,235,281560,1,2,0:0:0:0:
378,179,281758,1,12,0:0:0:0:
297,274,281955,1,2,0:0:0:0:
192,150,282153,2,0,P|144:159|94:189,1,83.9999974365235,2|0,0:0|0:0,0:0:0:0:
192,320,282547,6,0,P|240:311|290:281,1,83.9999974365235,2|0,0:0|0:0,0:0:0:0:
379,179,282942,1,8,0:0:0:0:
192,150,283139,1,0,0:0:0:0:
192,320,283337,1,8,0:0:0:0:
403,371,283534,1,2,0:0:0:0:
294,104,283732,1,0,0:0:0:0:
82,251,283929,1,8,0:0:0:0:
82,251,284916,5,0,0:0:0:0:
195,199,285113,1,0,0:0:0:0:
286,20,285310,2,0,L|295:103,1,83.9999974365235
448,153,285705,6,0,P|448:200|440:265,1,83.9999974365235,6|0,0:0|0:0,0:0:0:0:
440,253,286001,1,0,0:0:0:0:
433,268,286100,2,0,P|390:290|329:300,1,83.9999974365235,0|2,0:0|0:0,0:0:0:0:
213,282,286494,2,0,L|193:190,2,83.9999974365235,8|0|0,0:0|0:0|0:0,0:0:0:0:
159,378,287087,1,2,0:0:0:0:
213,282,287482,21,8,0:0:0:0:
73,273,287679,2,0,B|41:233|61:169,1,83.9999974365235,2|2,0:0|0:0,0:0:0:0:
156,32,288073,1,8,0:0:0:0:
247,161,288271,1,0,0:0:0:0:
147,123,288468,1,0,0:0:0:0:
311,87,288666,1,0,0:0:0:0:
420,168,288863,6,0,L|440:284,1,83.9999974365235,2|8,0:0|0:0,0:0:0:0:
340,324,289258,1,0,0:0:0:0:
260,240,289455,1,2,0:0:0:0:
212,140,289652,1,8,0:0:0:0:
364,208,289850,1,2,0:0:0:0:
232,308,290047,1,2,0:0:0:0:
288,172,290245,6,0,B|316:128|368:124,1,83.9999974365235,2|0,0:0|0:0,0:0:0:0:
288,172,290639,2,0,L|364:12,1,167.999994873047,8|2,0:0|0:0,0:0:0:0:
248,60,291231,1,8,0:0:0:0:
400,128,291429,1,2,0:0:0:0:
212,140,291626,1,2,0:0:0:0:
364,208,291824,1,2,0:0:0:0:
288,172,292021,6,0,P|280:220|320:280,1,83.9999974365235,2|0,0:0|0:0,0:0:0:0:
442,323,292416,2,0,P|450:275|410:215,1,83.9999974365235,0|2,0:0|0:0,0:0:0:0:
212,140,292810,2,0,L|130:102,1,83.9999974365235,8|0,0:0|0:0,0:0:0:0:
57,180,293205,1,0,0:0:0:0:
192,368,293403,1,2,0:0:0:0:
424,328,293797,22,0,L|420:236,1,83.9999974365235,8|2,0:0|0:0,0:0:0:0:
304,244,294192,2,0,L|328:156,1,83.9999974365235,2|8,0:0|0:0,0:0:0:0:
436,116,294587,2,0,L|392:24,1,83.9999974365235,0|0,0:0|0:0,0:0:0:0:
223,23,294981,1,0,0:0:0:0:
207,31,295080,1,0,0:0:0:0:
195,43,295179,6,0,L|163:143,1,83.9999974365235,2|8,0:0|0:0,0:0:0:0:
197,228,295574,1,0,0:0:0:0:
304,244,295771,2,0,L|337:137,2,83.9999974365235,2|8|2,0:0|0:0|0:0,0:0:0:0:
235,329,296363,1,2,0:0:0:0:
411,260,296560,1,2,0:0:0:0:
128,60,296955,6,0,L|76:16,2,41.9999987182618,8|0|2,0:0|0:0|0:0,0:0:0:0:
248,40,297350,1,2,0:0:0:0:
344,136,297547,2,0,L|332:96,1,41.9999987182618,8|0,0:0|0:0,0:0:0:0:
412,177,297745,2,0,L|416:136,1,41.9999987182618,2|0,0:0|0:0,0:0:0:0:
356,248,297942,2,0,L|344:208,1,41.9999987182618,2|0,0:0|0:0,0:0:0:0:
424,289,298140,2,0,L|428:248,1,41.9999987182618,2|0,0:0|0:0,0:0:0:0:
360,328,298337,6,0,P|312:332|252:320,1,83.9999974365235,6|0,0:0|0:0,0:0:0:0:
116,180,298731,1,0,0:0:0:0:
164,288,298929,1,2,0:0:0:0:
284,68,299126,2,0,P|324:100|332:156,2,83.9999974365235,8|0|0,0:0|0:0|0:0,0:0:0:0:
252,144,299718,22,0,P|200:224|164:288,1,167.999994873047,2|8,0:0|0:0,0:0:0:0:
116,180,300310,1,2,0:0:0:0:
256,316,300508,1,2,0:0:0:0:
356,148,300705,2,0,L|380:60,1,83.9999974365235,8|0,0:0|0:0,0:0:0:0:
468,136,301100,2,0,L|444:224,1,83.9999974365235,0|0,0:0|0:0,0:0:0:0:
344,260,301495,5,2,0:0:0:0:
256,316,301692,1,8,0:0:0:0:
232,200,301889,1,0,0:0:0:0:
232,200,301988,1,0,0:0:0:0:
232,200,302087,1,2,0:0:0:0:
356,148,302284,1,8,0:0:0:0:
256,316,302481,1,2,0:0:0:0:
232,200,302679,1,2,0:0:0:0:
440,352,302876,6,0,B|438:274|432:183,1,167.999994873047,2|0,0:0|0:0,0:0:0:0:
370,66,303468,2,0,B|374:110|354:154,1,83.9999974365235,2|2,0:0|0:0,0:0:0:0:
356,148,303764,1,0,0:0:0:0:
356,148,303863,1,8,0:0:0:0:
256,316,304060,1,2,0:0:0:0:
232,200,304258,1,2,0:0:0:0:
152,284,304455,1,2,0:0:0:0:
336,252,304653,5,2,0:0:0:0:
420,336,304850,2,0,L|439:297,1,41.9999987182618
456,240,305047,2,0,P|420:196|368:180,1,83.9999974365235,0|2,0:0|0:0,0:0:0:0:
360,72,305442,2,0,P|303:81|264:118,1,83.9999974365235,8|0,0:0|0:0,0:0:0:0:
180,36,305837,2,0,P|159:89|172:142,1,83.9999974365235,0|2,0:0|0:0,0:0:0:0:
240,204,306231,21,0,0:0:0:0:
292,308,306429,2,0,P|238:324|180:300,2,83.9999974365235,8|2|2,0:0|0:0|0:0,0:0:0:0:
240,204,307021,2,0,P|198:199|160:215,1,83.9999974365235,8|0,0:0|0:0,0:0:0:0:
212,320,307416,1,0,0:0:0:0:
344,148,307613,1,0,0:0:0:0:
344,148,307712,1,0,0:0:0:0:
344,148,307810,6,0,L|436:216,1,83.9999974365235,2|8,0:0|0:0,0:0:0:0:
392,320,308205,2,0,B|296:248,1,83.9999974365235,0|2,0:0|0:0,0:0:0:0:
324,269,308501,1,0,0:0:0:0:
324,269,308600,1,8,0:0:0:0:
108,256,308797,1,2,0:0:0:0:
176,148,308995,1,2,0:0:0:0:
212,320,309192,1,2,0:0:0:0:
212,320,309291,1,0,0:0:0:0:
212,320,309389,1,0,0:0:0:0:
392,320,309587,1,2,0:0:0:0:
388,204,309784,5,8,0:0:0:0:
364,164,309916,5,8,0:0:0:0:
336,132,310047,21,8,0:0:0:0:
300,104,310179,5,10,0:0:0:0:
424,80,310376,1,8,0:0:0:0:
256,224,310573,1,2,0:0:0:0:
96,164,310968,6,0,P|100:203|132:264,1,105.000004005432,12|0,0:0|0:0,0:0:0:0:
160,292,311560,6,0,P|260:316|332:304,1,175,0|0,0:0|0:0,0:0:0:0:
238,68,312942,21,8,0:0:0:0:
330,304,313337,2,0,P|286:308|230:268,1,83.9999974365235,0|0,0:0|0:0,0:0:0:0:
186,184,313732,1,0,0:0:0:0:
306,216,313929,1,0,0:0:0:0:
496,356,314126,6,0,P|513:254|486:178,1,167.999994873047,2|0,0:0|0:0,0:0:0:0:
384,68,314718,1,2,0:0:0:0:
306,216,314916,1,8,0:0:0:0:
444,124,315113,1,0,0:0:0:0:
276,140,315310,1,0,0:0:0:0:
400,252,315508,6,0,P|333:331|274:364,1,167.999994873047,2|8,0:0|0:0,0:0:0:0:
108,364,316100,2,0,L|68:252,1,83.9999974365235,2|2,0:0|0:0,0:0:0:0:
140,176,316495,1,8,0:0:0:0:
308,68,316692,1,0,0:0:0:0:
251,183,316889,2,0,P|225:132|216:79,1,83.9999974365235,0|0,0:0|0:0,0:0:0:0:
440,56,317284,6,0,P|438:158|406:226,1,167.999994873047,2|0,0:0|0:0,0:0:0:0:
311,295,317876,1,2,0:0:0:0:
252,184,318074,2,0,P|216:220|168:240,1,83.9999974365235,8|0,0:0|0:0,0:0:0:0:
68,272,318468,1,0,0:0:0:0:
312,296,318666,22,0,P|336:216|348:132,1,167.999994873047,2|8,0:0|0:0,0:0:0:0:
416,24,319258,2,0,P|411:70|420:124,1,83.9999974365235,2|0,0:0|0:0,0:0:0:0:
415,107,319554,1,2,0:0:0:0:
415,107,319653,1,8,0:0:0:0:
248,128,319850,1,2,0:0:0:0:
328,64,320047,1,2,0:0:0:0:
176,224,320244,1,2,0:0:0:0:
384,280,320442,6,0,P|388:236|352:172,1,83.9999974365235,2|0,0:0|0:0,0:0:0:0:
248,128,320837,1,0,0:0:0:0:
132,276,321034,1,2,0:0:0:0:
132,276,321133,1,2,0:0:0:0:
132,276,321231,2,0,P|160:312|220:336,1,83.9999974365235,8|0,0:0|0:0,0:0:0:0:
384,280,321626,1,0,0:0:0:0:
448,56,321823,6,0,P|384:116|316:200,1,167.999994873047,2|8,0:0|0:0,0:0:0:0:
132,276,322416,1,2,0:0:0:0:
329,180,322613,1,2,0:0:0:0:
139,164,322810,1,8,0:0:0:0:
319,290,323008,1,0,0:0:0:0:
239,117,323205,1,0,0:0:0:0:
220,337,323402,1,0,0:0:0:0:
220,337,323501,1,0,0:0:0:0:
220,337,323600,6,0,B|232:220,1,83.9999974365235,2|8,0:0|0:0,0:0:0:0:
335,96,323994,2,0,B|328:180,1,83.9999974365235,0|2,0:0|0:0,0:0:0:0:
444,36,324389,21,8,0:0:0:0:
240,116,324587,5,2,0:0:0:0:
424,248,324784,5,2,0:0:0:0:
220,337,324981,6,0,P|128:308|60:236,1,167.999994873047,2|8,0:0|0:0,0:0:0:0:
240,116,325574,2,0,B|288:132|336:168,1,83.9999974365235,2|2,0:0|0:0,0:0:0:0:
332,224,325968,22,8,L|252:224,2,55.9999982910157,8|8|2,0:0|0:0|0:0,0:0:0:0:
384,176,326363,2,2,L|384:88,2,55.9999982910157,2|2|2,0:0|0:0|0:0,0:0:0:0:
400,244,326758,5,6,0:0:0:0:
172,136,327152,2,0,L|88:152,2,55.9999982910157,2|2|2,0:0|0:0|0:0,0:0:0:0:
196,180,327547,2,0,L|180:284,2,83.9999974365235,2|0|2,0:0|0:0|0:0,0:0:0:0:
148,40,328139,6,0,P|236:32|312:92,1,167.999994873047,0|8,0:0|0:0,0:0:0:0:
392,272,328732,1,2,0:0:0:0:
248,188,328929,1,0,0:0:0:0:
408,144,329126,1,8,0:0:0:0:
320,288,329324,1,0,0:0:0:0:
176,200,329521,5,10,0:0:0:0:
176,200,329619,1,8,0:0:0:0:
176,200,329718,1,8,0:0:0:0:
176,200,329817,1,8,0:0:0:0:
176,200,329916,1,2,0:0:0:0:
80,336,330113,21,8,0:0:0:0:
80,336,330212,1,0,0:0:0:0:
80,336,330310,2,0,B|60:288|64:268,2,41.9999987182618,8|8|2,0:0|0:0|0:0,0:0:0:0:
196,288,330705,1,8,0:0:0:0:
256,192,330903,1,0,0:0:0:0:
212,76,331100,1,2,0:0:0:0:
432,48,331297,6,0,B|448:132|436:228,1,167.999994873047,8|0,0:0|0:0,0:0:0:0:
256,192,331889,1,2,0:0:0:0:
80,336,332087,2,0,B|64:252|76:156,1,167.999994873047,2|0,0:0|0:0,0:0:0:0:
212,76,332679,1,2,0:0:0:0:
256,192,332876,1,0,0:0:0:0:
156,268,333074,6,0,P|152:228|156:176,1,83.9999974365235,6|8,0:0|0:0,0:0:0:0:
28,180,333468,2,0,P|60:156|107:134,1,83.9999974365235,0|2,0:0|0:0,0:0:0:0:
40,24,333863,2,0,P|76:40|119:70,1,83.9999974365235,8|2,0:0|0:0,0:0:0:0:
256,192,334258,1,2,0:0:0:0:
376,236,334455,6,0,B|392:132,1,83.9999974365235,8|0,0:0|0:0,0:0:0:0:
492,228,334850,2,0,L|476:328,1,83.9999974365235,8|2,0:0|0:0,0:0:0:0:
360,360,335245,1,0,0:0:0:0:
360,360,335343,1,0,0:0:0:0:
360,360,335442,2,0,P|316:372|248:372,1,83.9999974365235,8|0,0:0|0:0,0:0:0:0:
180,292,335837,1,2,0:0:0:0:
256,192,336034,1,0,0:0:0:0:
180,292,336231,22,0,P|140:248|140:188,1,83.9999974365235,6|8,0:0|0:0,0:0:0:0:
162,106,336626,1,2,0:0:0:0:
256,192,336824,1,2,0:0:0:0:
162,106,337021,6,0,P|210:71|270:77,1,83.9999974365235,12|8,0:0|0:0,0:0:0:0:
352,109,337416,1,2,0:0:0:0:
256,192,337614,1,0,0:0:0:0:
353,109,337810,6,0,P|382:160|368:219,1,83.9999974365235,6|0,0:0|0:0,0:0:0:0:
330,296,338205,1,2,0:0:0:0:
256,192,338403,1,8,0:0:0:0:
184,295,338600,5,12,0:0:0:0:
256,70,338797,5,8,0:0:0:0:
329,295,338995,5,2,0:0:0:0:
139,155,339192,5,0,0:0:0:0:
375,156,339389,5,4,0:0:0:0:
256,192,339488,12,0,344126,0:0:0:0:
