osu file format v14

[General]
AudioFilename: Kanousekairon.mp3
AudioLeadIn: 0
PreviewTime: 2054
Countdown: 0
SampleSet: Soft
StackLeniency: 0.7
Mode: 0
LetterboxInBreaks: 0
WidescreenStoryboard: 0

[Editor]
Bookmarks: 94781,198418,302054,329327
DistanceSpacing: 1.3
BeatDivisor: 8
GridSize: 8
TimelineZoom: 2.4

[Metadata]
Title:Kanousekairon (Feat. Nayugorou)
TitleUnicode:可能世界論 (Feat. なゆごろう)
Artist:Akagami
ArtistUnicode:赤髪
Creator:[Teichan]
Version:Kesenai
Source:
Tags:Melt Away GUMI Vocaloid
BeatmapID:668503
BeatmapSetID:297856

[Difficulty]
HPDrainRate:6
CircleSize:4.2
OverallDifficulty:7.5
ApproachRate:8.8
SliderMultiplier:3.4
SliderTickRate:1

[Events]
//Background and Video events
0,0,"42544776.jpg",0,0
Video,0,"Kanousekairon.flv"
//Break Periods
2,9755,12334
2,21345,22562
2,30890,33471
2,40094,44380
2,138618,148016
2,280236,296993
2,323903,328698
2,337027,339607
2,347936,350516
//Storyboard Layer 0 (Background)
//Storyboard Layer 1 (Fail)
//Storyboard Layer 2 (Pass)
//Storyboard Layer 3 (Foreground)
//Storyboard Sound Samples

[TimingPoints]
691,681.818181818182,4,2,1,60,1,0
2054,-200,4,2,1,60,0,0
23191,-300,4,2,1,60,0,0
23702,-300,4,2,1,10,0,0
23872,-200,4,2,1,60,0,0
45009,-300,4,2,1,60,0,0
45520,-300,4,2,1,10,0,0
45691,-200,4,2,1,60,0,0
55918,-300,4,2,1,60,0,0
56429,-300,4,2,1,10,0,0
56600,-200,4,2,1,60,0,0
67509,-200,4,2,1,80,0,0
92054,-300,4,2,1,80,0,0
92736,-300,4,2,1,85,0,0
93418,-300,4,2,1,90,0,0
94100,-300,4,2,1,95,0,0
94781,-100,4,2,1,100,0,1
138418,-100,4,2,1,100,0,0
148645,-300,4,2,1,60,0,0
149327,-200,4,2,1,60,0,0
151031,-200,4,2,1,20,0,0
151117,-200,4,2,1,60,0,0
152054,-200,4,2,1,20,0,0
152395,-200,4,2,1,60,0,0
153759,-200,4,2,1,20,0,0
154185,-200,4,2,1,60,0,0
156486,-200,4,2,1,20,0,0
156827,-200,4,2,1,60,0,0
157509,-200,4,2,1,20,0,0
159639,-200,4,2,1,60,0,0
161941,-200,4,2,1,20,0,0
162622,-200,4,2,1,60,0,0
162963,-200,4,2,1,20,0,0
163048,-200,4,2,1,60,0,0
164668,-200,4,2,1,20,0,0
165094,-200,4,2,1,60,0,0
165691,-200,4,2,1,20,0,0
165776,-200,4,2,1,60,0,0
170463,-200,4,2,1,20,0,0
170719,-200,4,2,1,80,0,0
173191,-200,4,2,1,20,0,0
173276,-200,4,2,1,80,0,0
175918,-200,4,2,1,20,0,0
176003,-200,4,2,1,80,0,0
178645,-200,4,2,1,20,0,0
178730,-200,4,2,1,80,0,0
181372,-200,4,2,1,20,0,0
181458,-200,4,2,1,80,0,0
183077,-200,4,2,1,40,0,0
184781,-200,4,2,1,80,0,0
185804,-200,4,2,1,40,0,0
187509,-200,4,2,1,80,0,0
188191,-200,4,2,1,40,0,0
194327,-200,4,2,1,70,0,0
195691,-300,4,2,1,100,0,0
195776,-300,4,2,1,40,0,0
196372,-300,4,2,1,60,0,0
197054,-300,4,2,1,80,0,0
197736,-300,4,2,1,100,0,0
198418,-100,4,2,1,100,0,1
246941,-100,4,2,1,90,0,1
247054,-100,4,2,1,80,0,1
247168,-100,4,2,1,70,0,1
247281,-100,4,2,1,60,0,1
247395,-100,4,2,1,50,0,1
247509,-100,4,2,1,100,0,1
263304,-100,4,2,1,90,0,1
263418,-100,4,2,1,80,0,1
263531,-100,4,2,1,70,0,1
263645,-100,4,2,1,60,0,1
263759,-100,4,2,1,50,0,1
263872,-100,4,2,1,100,0,1
271713,-100,4,2,1,100,0,0
272395,-100,4,2,1,90,0,0
273077,-100,4,2,1,80,0,0
273759,-100,4,2,1,70,0,0
274441,-100,4,2,1,60,0,0
275122,-100,4,2,1,50,0,0
275804,-100,4,2,1,40,0,0
276486,-100,4,2,1,30,0,0
277168,-100,4,2,1,20,0,0
277850,-100,4,2,1,10,0,0
297622,-100,4,2,1,30,0,0
297963,-100,4,2,1,100,0,0
299497,-100,4,2,1,30,0,0
299668,-100,4,2,1,40,0,0
299838,-100,4,2,1,50,0,0
300009,-100,4,2,1,60,0,0
300179,-100,4,2,1,70,0,0
300350,-100,4,2,1,80,0,0
300520,-200,4,2,1,90,0,0
301031,-100,4,2,1,95,0,0
301372,-100,4,2,1,100,0,0
302054,-100,4,2,1,100,0,1
322679,-100,4,2,1,40,0,1
322850,-100,4,2,1,50,0,1
323020,-100,4,2,1,60,0,1
323191,-100,4,2,1,70,0,1
323361,-100,4,2,1,80,0,1
323531,-100,4,2,1,90,0,1
323702,-100,4,2,1,100,0,1
323872,-100,4,2,1,70,0,0
329327,-200,4,2,1,70,0,0
351145,-333,4,2,1,40,0,0
362054,-200,4,2,1,10,0,0

[Colours]
Combo1 : 53,255,255
Combo2 : 98,0,98
Combo3 : 0,125,125
Combo4 : 0,0,232

[HitObjects]
110,289,2054,5,0,0:0:0:0:
192,140,2395,1,0,0:0:0:0:
243,227,2736,1,0,0:0:0:0:
384,132,3077,1,0,0:0:0:0:
333,200,3418,6,0,L|323:241,1,42.5
467,155,3759,2,0,L|477:114,1,42.5
428,269,4100,1,0,0:0:0:0:
71,38,5804,6,0,P|56:129|111:185,1,170
176,137,6827,2,0,L|259:121,1,85
344,128,7509,5,0,0:0:0:0:
502,194,7850,1,0,0:0:0:0:
451,107,8191,1,0,0:0:0:0:
424,275,8532,1,0,0:0:0:0:
271,349,8873,6,0,L|313:350,1,42.5
233,252,9214,2,0,L|190:250,1,42.5
288,160,9555,1,0,0:0:0:0:
68,234,12963,6,0,L|87:151,1,85
245,89,13645,2,0,L|254:173,1,85
359,258,14327,6,0,L|366:216,1,42.5
458,179,14668,2,0,L|466:220,1,42.5
446,337,15009,2,0,P|386:358|322:356,1,127.5
241,329,15691,1,4,0:0:0:0:
441,315,16713,6,0,L|417:146,1,170
301,60,17736,1,0,0:0:0:0:
184,155,18077,1,0,0:0:0:0:
290,263,18418,6,0,P|309:225|310:183,1,85
204,76,19100,2,0,P|184:113|183:155,1,85
290,263,19781,6,0,L|324:238,1,42.5
289,345,20122,2,0,L|254:369,1,42.5
361,307,20463,2,0,P|424:305|469:261,1,127.5
497,181,21145,1,4,0:0:0:0:
133,67,23191,6,0,L|217:74,1,85
289,119,23872,6,0,L|329:200,1,85
113,87,24895,5,0,0:0:0:0:
309,139,25236,2,0,L|349:220,1,85
93,107,26259,5,0,0:0:0:0:
329,159,26600,1,0,0:0:0:0:
237,302,26941,2,0,P|220:241|248:185,1,127.5
329,159,27622,6,0,B|374:186|454:169|495:193,1,170
450,267,28645,1,0,0:0:0:0:
397,127,28986,1,0,0:0:0:0:
264,190,29327,6,0,L|179:177,1,85
123,95,30009,1,0,0:0:0:0:
32,199,30350,2,0,B|13:239|33:282,1,85
281,314,34100,6,0,P|327:271|333:209,1,127.5
293,134,34781,1,0,0:0:0:0:
133,192,35122,2,0,L|116:275,1,85
282,314,35804,2,0,P|365:311|431:260,1,170
454,95,36827,1,0,0:0:0:0:
503,217,37168,1,0,0:0:0:0:
348,148,37509,5,0,0:0:0:0:
200,192,37850,2,0,P|185:231|192:273,1,85
322,355,38531,2,0,L|490:334,2,170
374,177,45009,6,0,L|339:254,1,85
268,302,45691,1,0,0:0:0:0:
108,243,46031,2,0,P|90:204|92:162,1,85
394,157,46713,5,0,0:0:0:0:
288,322,47054,1,0,0:0:0:0:
88,263,47395,2,0,P|70:224|72:182,1,85
414,137,48077,5,0,0:0:0:0:
308,342,48418,1,0,0:0:0:0:
68,283,48759,2,0,P|50:244|52:202,1,85
142,100,49441,2,0,L|312:79,1,170
438,190,50463,1,0,0:0:0:0:
402,106,50804,1,0,0:0:0:0:
343,255,51145,6,0,P|300:253|262:236,2,85
438,190,52168,1,0,0:0:0:0:
367,343,52509,2,0,P|283:343|207:308,1,170
155,227,53531,1,0,0:0:0:0:
126,191,55918,6,0,P|129:232|156:265,1,85
230,307,56600,1,0,0:0:0:0:
230,307,56941,2,0,L|312:284,1,85
407,143,57622,2,0,P|334:101|253:116,1,170
106,204,58645,1,0,0:0:0:0:
162,96,58986,1,0,0:0:0:0:
189,273,59327,6,0,L|273:261,1,85
355,148,60009,1,0,0:0:0:0:
449,330,60350,2,0,L|280:353,1,170
279,353,61372,2,0,P|255:319|252:277,1,85
280,195,61884,1,0,0:0:0:0:
280,195,62054,6,0,L|359:164,1,85
438,80,62736,1,0,0:0:0:0:
511,227,63077,2,0,P|439:268|357:251,1,170
124,249,66827,6,0,L|90:222,2,42.5
124,249,67509,6,0,L|206:227,1,85
271,110,68191,1,0,0:0:0:0:
405,212,68531,2,0,P|417:293|359:351,1,170
273,308,69554,2,0,L|189:321,1,85
105,272,70236,6,0,P|96:230|113:192,1,85
196,108,70918,1,0,0:0:0:0:
355,166,71259,2,0,L|338:335,1,170
433,314,72281,2,0,L|441:229,1,85
450,131,72963,6,0,P|395:69|312:70,1,170
161,148,73986,2,0,L|172:317,1,170
265,367,75009,2,0,P|278:327|268:286,1,85
96,183,75691,5,4,0:0:0:0:
370,51,78077,5,0,0:0:0:0:
398,144,78418,2,0,L|479:167,2,85
289,143,79441,1,0,0:0:0:0:
317,236,79782,2,0,L|398:259,2,85
208,235,80804,1,0,0:0:0:0:
52,304,81145,5,0,0:0:0:0:
116,192,81486,1,0,0:0:0:0:
178,326,81827,1,0,0:0:0:0:
241,131,82168,2,0,P|318:99|399:118,1,170
495,192,83191,1,0,0:0:0:0:
442,38,83531,1,0,0:0:0:0:
297,127,83872,6,0,L|212:114,1,85
121,39,84554,1,0,0:0:0:0:
28,180,84895,2,0,P|51:259|128:285,1,170
234,244,85918,2,0,L|317:257,1,85
418,305,86600,5,4,0:0:0:0:
504,158,87281,1,0,0:0:0:0:
380,40,87622,2,0,B|330:65|257:57|214:75,1,170
114,137,88645,2,0,P|93:174|92:216,1,85
141,309,89327,5,0,0:0:0:0:
161,329,90691,5,0,0:0:0:0:
181,349,92054,6,0,B|232:332|292:346|292:346|347:328|404:337,1,226.666666666667
404,337,94100,5,2,0:0:0:0:
43,77,94781,6,0,L|215:43,1,170,2|0,0:0|0:0,0:0:0:0:
320,110,95293,1,2,0:0:0:0:
320,109,95463,2,0,P|355:184|322:260,1,170,8|0,0:0|0:0,0:0:0:0:
252,187,95975,1,2,0:0:0:0:
507,112,96316,5,0,0:0:0:0:
488,224,96486,2,0,L|323:261,1,170,2|8,0:0|0:0,0:0:0:0:
5,204,97168,1,0,0:0:0:0:
84,111,97338,1,0,0:0:0:0:
201,225,97509,6,0,P|139:280|57:271,1,170,2|0,0:0|0:0,0:0:0:0:
109,183,98020,1,2,0:0:0:0:
296,261,98191,2,0,L|378:241,1,85,8|0,0:0|0:0,0:0:0:0:
440,126,98531,1,0,0:0:0:0:
295,57,98702,6,0,L|129:96,1,170,2|0,0:0|0:0,0:0:0:0:
65,197,99213,2,0,P|54:237|67:277,1,85,2|0,0:0|0:0,0:0:0:0:
206,188,99554,2,0,P|218:147|208:107,1,85,8|0,0:0|0:0,0:0:0:0:
357,265,99895,2,0,P|346:305|359:345,1,85,2|0,0:0|0:0,0:0:0:0:
442,218,100236,6,0,P|363:241|290:201,1,170,2|0,0:0|0:0,0:0:0:0:
373,138,100747,1,2,0:0:0:0:
204,270,100918,2,0,L|36:239,1,170,8|0,0:0|0:0,0:0:0:0:
36,239,101429,1,2,0:0:0:0:
145,27,101770,5,0,0:0:0:0:
248,86,101941,2,0,L|415:55,1,170,2|8,0:0|0:0,0:0:0:0:
503,202,102452,1,0,0:0:0:0:
345,140,102622,1,0,0:0:0:0:
488,59,102793,1,0,0:0:0:0:
386,249,102963,6,0,P|304:266|231:226,1,170,2|0,0:0|0:0,0:0:0:0:
143,143,103475,1,2,0:0:0:0:
38,199,103645,2,0,L|23:282,2,85,8|0|0,0:0|0:0|0:0,0:0:0:0:
83,75,104156,6,0,P|158:111|241:99,1,170,2|0,0:0|0:0,0:0:0:0:
350,50,104668,1,2,0:0:0:0:
428,274,105009,1,8,0:0:0:0:
200,202,105350,1,0,0:0:0:0:
295,131,105520,1,0,0:0:0:0:
294,336,105691,6,0,P|215:359|138:327,1,170,2|0,0:0|0:0,0:0:0:0:
62,224,106202,1,2,0:0:0:0:
112,116,106372,2,0,L|278:82,1,170,8|0,0:0|0:0,0:0:0:0:
479,121,106884,1,2,0:0:0:0:
372,223,107054,2,0,P|359:182|371:142,1,85
464,272,107395,6,0,L|296:244,1,170,2|8,0:0|0:0,0:0:0:0:
41,321,108077,1,2,0:0:0:0:
7,215,108247,1,0,0:0:0:0:
21,341,108418,6,0,L|189:318,1,170,2|0,0:0|0:0,0:0:0:0:
266,247,108929,1,2,0:0:0:0:
418,340,109100,2,0,P|446:260|429:178,1,170,8|0,0:0|0:0,0:0:0:0:
358,74,109611,1,2,0:0:0:0:
206,177,109781,6,0,L|121:166,1,85
266,247,110122,2,0,P|295:170|254:99,1,170,2|8,0:0|0:0,0:0:0:0:
64,213,110804,1,2,0:0:0:0:
126,121,110975,1,0,0:0:0:0:
266,247,111145,6,0,L|433:217,1,170,2|0,0:0|0:0,0:0:0:0:
496,126,111656,1,2,0:0:0:0:
415,49,111827,2,0,P|390:83|383:125,2,85,8|0|0,0:0|0:0|0:0,0:0:0:0:
282,96,112338,6,0,P|208:136|126:121,1,170,2|0,0:0|0:0,0:0:0:0:
43,196,112850,2,0,L|30:280,1,85,2|0,0:0|0:0,0:0:0:0:
201,246,113191,2,0,L|202:161,1,85,8|4,0:0|0:3,0:0:0:0:
352,209,113531,2,0,L|364:293,1,85,4|4,0:3|0:1,0:0:0:0:
462,154,113872,6,0,P|432:125|392:112,1,85,2|8,0:0|0:0,0:0:0:0:
374,123,114128,1,0,0:0:0:0:
356,134,114213,2,0,L|269:154,1,85,0|2,0:0|0:0,0:0:0:0:
106,132,114554,1,8,0:0:0:0:
262,61,114725,1,4,0:1:0:0:
201,246,114895,1,4,0:1:0:0:
34,181,115066,6,0,P|22:100|84:47,1,170,8|0,0:0|0:0,0:0:0:0:
262,61,115577,2,0,L|345:47,1,85,8|0,0:0|0:0,0:0:0:0:
499,91,115918,1,8,0:0:0:0:
330,139,116088,1,4,0:3:0:0:
397,216,116259,1,4,0:3:0:0:
430,33,116429,1,4,0:3:0:0:
487,261,116600,6,0,P|417:307|334:296,1,170,2|0,0:0|0:0,0:0:0:0:
251,223,117111,1,2,0:0:0:0:
146,291,117281,2,0,L|131:374,2,85,8|0|0,0:0|0:0|0:0,0:0:0:0:
96,139,117793,6,0,P|178:151|249:107,1,170
311,16,118304,1,2,0:0:0:0:
463,188,118645,2,0,P|380:200|309:156,1,170,8|0,0:0|0:0,0:0:0:0:
402,94,119156,1,0,0:0:0:0:
321,287,119327,6,0,L|152:310,1,170,2|0,0:0|0:0,0:0:0:0:
62,244,119838,1,2,0:0:0:0:
121,149,120009,2,0,P|152:178|166:218,2,85,8|0|0,2:0|2:0|2:0,2:0:0:0:
234,117,120520,6,0,L|403:94,1,170
484,168,121031,2,0,L|508:249,1,85,2|0,0:0|0:0,0:0:0:0:
333,223,121372,2,0,L|337:307,1,85,8|0,0:0|0:0,0:0:0:0:
186,175,121713,2,0,L|161:256,1,85,2|0,0:0|0:0,0:0:0:0:
107,119,122054,6,0,P|178:78|256:107,1,170,2|0,0:0|0:0,0:0:0:0:
333,223,122566,1,2,0:0:0:0:
438,191,122736,2,0,L|466:23,1,170,8|0,0:0|0:0,0:0:0:0:
363,66,123247,6,0,P|294:110|216:83,1,170,8|8,2:0|0:0,0:0:0:0:
282,16,123759,1,2,0:0:0:0:
438,191,124100,1,8,0:0:0:0:
418,211,124441,1,2,0:0:0:0:
496,129,124611,1,0,0:0:0:0:
398,231,124781,6,0,L|314:249,1,85,2|0,0:0|0:0,0:0:0:0:
362,340,125122,2,0,L|278:358,1,85
177,314,125463,2,0,P|125:250|141:169,1,170,8|0,0:0|0:0,0:0:0:0:
234,107,125975,6,0,L|401:135,1,170,2|0,0:0|0:0,0:0:0:0:
418,147,126401,1,0,0:0:0:0:
431,162,126486,2,0,P|450:242|403:310,1,170,2|8,0:0|0:0,0:0:0:0:
162,191,127168,1,4,0:3:0:0:
234,107,127338,1,0,0:0:0:0:
349,266,127509,6,0,L|182:299,1,170,2|0,0:0|0:0,0:0:0:0:
111,213,128020,1,2,0:0:0:0:
234,107,128191,2,0,P|270:181|244:259,1,170,8|0,0:0|0:0,0:0:0:0:
162,191,128702,1,2,0:0:0:0:
348,68,128872,6,0,L|431:81,1,85
403,191,129213,2,0,L|318:200,1,85,2|0,0:0|0:0,0:0:0:0:
369,323,129554,2,0,L|452:296,1,85,8|0,0:0|0:0,0:0:0:0:
252,317,129895,2,0,P|182:271|162:190,1,170,0|2,0:0|0:0,0:0:0:0:
325,41,130577,5,0,0:0:0:0:
402,119,130747,1,2,0:0:0:0:
333,206,130918,2,0,L|248:198,1,85,8|0,0:0|0:0,0:0:0:0:
173,117,131259,1,0,0:0:0:0:
101,277,131429,6,0,P|169:325|252:317,1,170,2|0,0:0|0:0,0:0:0:0:
349,262,131941,2,0,L|433:251,1,85,2|0,0:0|0:0,0:0:0:0:
299,152,132281,2,0,L|383:156,1,85,8|0,0:0|0:0,0:0:0:0:
252,40,132622,2,0,L|334:59,1,85
445,48,132963,6,0,P|451:130|401:197,1,170,2|0,0:0|0:0,0:0:0:0:
299,152,133475,1,2,0:0:0:0:
197,195,133645,2,0,L|188:279,2,85,8|0|0,0:0|0:0|0:0,0:0:0:0:
107,335,134156,6,0,P|178:376|256:351,1,170
329,267,134668,1,2,0:0:0:0:
182,101,135009,1,8,0:0:0:0:
162,121,135350,1,2,0:0:0:0:
238,41,135520,1,8,0:0:0:0:
142,141,135691,6,0,P|131:181|142:222,1,85,2|0,0:0|0:0,0:0:0:0:
330,348,136031,2,0,P|340:307|329:266,1,85,2|0,0:0|0:0,0:0:0:0:
247,191,136372,1,8,0:0:0:0:
213,296,136543,1,4,0:3:0:0:
142,141,136713,1,4,0:3:0:0:
83,341,136884,6,0,P|166:348|242:312,1,170,8|2,0:0|0:0,0:0:0:0:
315,227,137395,1,2,0:0:0:0:
80,68,137736,2,0,L|156:31,1,85,8|4,0:0|0:1,0:0:0:0:
142,141,138077,2,0,L|226:132,1,85,4|4,0:1|0:1,0:0:0:0:
336,119,138418,5,2,0:0:0:0:
390,141,148645,6,0,P|349:152|309:140,1,85
237,94,149327,1,0,0:0:0:0:
115,212,149668,2,0,L|125:296,1,85
410,161,150350,5,0,0:0:0:0:
237,74,150691,1,0,0:0:0:0:
95,232,151031,2,0,L|105:316,1,85,2|0,0:0|0:0,0:0:0:0:
430,181,151713,5,0,0:0:0:0:
237,54,152054,1,2,0:0:0:0:
75,252,152395,2,0,L|85:336,1,85
254,364,153077,2,0,L|275:195,1,170,0|2,0:0|0:0,0:0:0:0:
365,100,154100,2,0,L|406:90,2,42.5,8|0|0,0:0|0:0|0:0,0:0:0:0:
229,60,154781,6,0,P|153:93|113:167,1,170,2|0,0:0|0:0,0:0:0:0:
169,281,155804,1,0,0:0:0:0:
263,194,156145,2,0,L|345:174,1,85,0|2,0:0|0:0,0:0:0:0:
431,79,156827,1,0,0:0:0:0:
494,189,157168,2,0,B|513:229|493:272,1,85,0|2,0:0|0:0,0:0:0:0:
357,309,159554,6,0,L|395:290,2,42.5,8|0|0,0:0|0:0|0:0,0:0:0:0:
357,309,160236,6,0,L|272:298,1,85,2|0,0:0|0:0,0:0:0:0:
190,200,160918,1,0,0:0:0:0:
97,286,161259,2,0,P|81:326|88:367,2,85,0|0|2,0:0|0:0|0:0,0:0:0:0:
303,136,162622,5,0,0:0:0:0:
419,187,162963,2,0,P|434:147|427:106,2,85,2|0|0,0:0|0:0|0:0,0:0:0:0:
315,262,163986,2,0,L|145:244,1,170,0|2,0:0|0:0,0:0:0:0:
48,161,165009,2,0,L|43:118,2,42.5,8|0|0,0:0|0:0|0:0,0:0:0:0:
72,346,165691,6,0,L|241:363,1,170,2|0,0:0|0:0,0:0:0:0:
359,315,166713,1,0,0:0:0:0:
360,102,170463,6,0,L|379:63,2,42.5,0|2|0,0:0|0:1|0:0,0:0:0:0:
360,102,171145,6,0,L|277:121,1,85
165,59,171827,1,0,0:0:0:0:
72,214,172168,2,0,P|147:250|229:234,1,170
344,178,173191,2,0,L|351:262,1,85,8|0,0:0|0:0,0:0:0:0:
472,344,173872,5,2,0:0:0:0:
372,283,174213,1,0,0:0:0:0:
475,227,174554,1,0,0:0:0:0:
400,97,174895,2,0,P|322:67|239:76,1,170
141,159,175918,2,0,L|129:243,1,85,8|0,0:0|0:0,0:0:0:0:
241,305,176600,6,0,L|252:220,1,85,2|0,0:0|0:0,0:0:0:0:
358,149,177281,1,0,0:0:0:0:
398,315,177622,2,0,P|317:337|241:305,1,170,0|2,0:0|0:0,0:0:0:0:
154,210,178645,2,0,L|165:125,1,85
285,83,179327,6,0,L|274:168,2,85
98,33,180350,2,0,P|48:104|64:189,1,170
171,244,181372,2,0,L|255:234,1,85
379,265,182054,6,0,P|395:225|395:183,1,85
505,195,182736,2,0,P|506:153|493:113,1,85,0|8,0:0|0:0,0:0:0:0:
362,70,183418,2,0,L|356:27,2,42.5,2|8|2,0:0|0:0|0:1,0:0:0:0:
245,123,184100,2,0,L|202:118,1,42.5,4|4,0:3|0:3,0:0:0:0:
216,190,184441,2,0,L|174:200,1,42.5,4|4,0:3|0:3,0:0:0:0:
106,224,184781,6,0,L|189:239,1,85,2|0,0:0|0:0,0:0:0:0:
280,329,185463,1,0,0:0:0:0:
414,227,185804,2,0,P|445:173|430:113,1,127.5,8|0,0:0|0:0,0:0:0:0:
346,63,186486,6,0,L|303:59,1,42.5,8|8,0:0|0:0,0:0:0:0:
312,133,186742,1,8,0:0:0:0:
312,133,186827,2,0,L|271:144,1,42.5,8|4,0:0|0:3,0:0:0:0:
303,213,187168,2,0,L|268:237,1,42.5,4|4,0:3|0:3,0:0:0:0:
211,282,187509,6,0,L|127:267,1,85
46,168,188191,1,8,0:0:0:0:
206,42,188531,2,0,P|255:107|238:188,1,170
153,132,189554,2,0,L|110:135,1,42.5,8|0,0:0|0:0,0:0:0:0:
49,244,189895,2,0,L|91:240,1,42.5
183,319,190236,6,0,L|267:311,1,85,2|0,0:0|0:0,0:0:0:0:
354,217,190918,1,8,0:0:0:0:
453,346,191259,2,0,P|499:277|481:196,1,170,2|2,0:0|0:0,0:0:0:0:
362,119,192281,2,0,L|319:125,1,42.5,8|0,0:0|0:0,0:0:0:0:
218,46,192622,2,0,L|260:39,1,42.5
335,209,192963,5,2,0:0:0:0:
335,249,194327,5,0,0:0:0:0:
335,319,195691,6,0,B|284:336|224:322|224:322|169:340|111:330,1,226.666666666667
111,330,197736,5,2,0:0:0:0:
49,98,198418,6,0,L|214:138,1,170,2|0,0:0|0:0,0:0:0:0:
310,83,198929,1,2,0:0:0:0:
379,265,199100,2,0,P|300:291|228:250,1,170,8|0,0:0|0:0,0:0:0:0:
310,186,199611,1,0,0:0:0:0:
50,320,199952,5,0,0:0:0:0:
147,370,200122,2,0,L|133:200,1,170,2|8,0:0|0:0,0:0:0:0:
133,200,200804,1,2,0:0:0:0:
60,116,200975,1,0,0:0:0:0:
152,219,201145,6,0,P|231:244|302:202,1,170,2|0,0:0|0:0,0:0:0:0:
322,93,201656,1,2,0:0:0:0:
322,93,201827,1,8,2:0:0:0:
122,278,202168,1,0,0:0:0:0:
132,284,202281,6,0,L|325:242,1,198.333333333333
425,174,202850,2,0,P|439:134|430:93,1,85,2|0,0:0|0:0,0:0:0:0:
260,155,203191,2,0,P|245:194|254:235,1,85,8|0,0:0|0:0,0:0:0:0:
104,97,203531,2,0,P|118:57|109:16,1,85,2|0,0:0|0:0,0:0:0:0:
26,138,203872,6,0,L|194:115,1,170,2|0,0:0|0:0,0:0:0:0:
281,45,204384,1,2,0:0:0:0:
368,111,204554,2,0,L|388:193,2,85,8|0|0,0:0|0:0|0:0,0:0:0:0:
479,217,205066,6,0,P|428:281|347:277,1,170
346,276,205577,1,2,0:0:0:0:
186,123,205918,2,0,L|168:39,1,85,8|0,0:0|0:0,0:0:0:0:
45,93,206259,2,0,L|43:177,1,85
94,276,206600,6,0,P|135:272|173:255,2,85,2|0|0,0:0|0:0|0:0,0:0:0:0:
410,291,207281,2,0,L|430:209,1,85,8|0,0:0|0:0,0:0:0:0:
418,98,207622,1,0,0:0:0:0:
298,50,207793,6,0,P|229:96|222:177,1,170,2|0,0:0|0:0,0:0:0:0:
319,148,208304,1,2,0:0:0:0:
104,8,208645,1,8,0:0:0:0:
74,259,208986,1,2,0:0:0:0:
10,168,209156,1,0,0:0:0:0:
93,278,209327,6,0,P|171:308|250:281,1,170,2|0,0:0|0:0,0:0:0:0:
172,202,209838,1,2,0:0:0:0:
319,148,210009,2,0,L|344:316,1,170,8|0,0:0|0:0,0:0:0:0:
432,76,210520,6,0,L|457:244,1,170,2|0,0:0|0:0,0:0:0:0:
431,351,211031,1,2,0:0:0:0:
319,147,211372,2,0,P|241:170|169:117,1,170,8|0,0:0|0:0,0:0:0:0:
256,71,211884,1,0,0:0:0:0:
423,128,212054,6,0,L|437:211,2,85,2|0|0,0:0|0:0|0:0,0:0:0:0:
171,279,212736,2,0,P|128:210|156:132,1,170,8|0,0:0|0:0,0:0:0:0:
256,71,213247,1,0,0:0:0:0:
352,125,213418,6,0,L|436:137,1,85
466,244,213759,2,0,L|297:218,1,170,2|8,0:0|0:0,0:0:0:0:
88,292,214441,1,2,0:0:0:0:
157,206,214611,1,0,0:0:0:0:
252,338,214781,6,0,P|335:344|411:307,1,170,2|0,0:0|0:0,0:0:0:0:
469,211,215293,1,2,0:0:0:0:
385,139,215463,2,0,P|360:173|353:215,2,85,8|0|0,0:0|0:0|0:0,0:0:0:0:
275,38,215975,6,0,L|250:206,1,170
168,280,216486,2,0,L|86:254,1,85,2|0,0:0|0:0,0:0:0:0:
341,238,216827,2,0,L|422:212,1,85,8|4,0:3|0:3,0:0:0:0:
224,136,217168,2,0,L|142:110,1,85,4|4,0:3|0:1,0:0:0:0:
314,94,217509,6,0,P|328:133|316:173,1,85,2|8,0:0|0:0,0:0:0:0:
304,190,217764,1,0,0:0:0:0:
288,205,217850,2,0,L|184:239,1,85,0|2,0:0|0:0,0:0:0:0:
1,205,218191,1,8,0:0:0:0:
135,316,218361,1,4,0:1:0:0:
224,136,218531,1,4,0:1:0:0:
368,287,218702,6,0,P|425:227|418:145,1,170,2|0,0:0|0:0,0:0:0:0:
314,94,219213,2,0,L|231:112,1,85,8|0,0:0|0:0,0:0:0:0:
103,277,219554,1,8,0:0:0:0:
126,96,219725,1,4,0:3:0:0:
207,289,219895,1,4,0:3:0:0:
63,180,220066,1,4,0:3:0:0:
271,205,220236,6,0,P|353:195|402:129,1,170,2|0,0:0|0:0,0:0:0:0:
303,108,220747,1,2,0:0:0:0:
207,289,220918,2,0,L|124:269,1,85,8|0,0:0|0:0,0:0:0:0:
63,180,221259,1,0,0:0:0:0:
161,68,221429,6,0,P|213:131|203:213,1,170,2|0,0:0|0:0,0:0:0:0:
113,160,221941,1,2,0:0:0:0:
364,40,222281,1,8,0:0:0:0:
400,256,222622,2,0,P|394:214|411:175,1,85
496,273,222963,6,0,L|330:310,1,170,2|0,0:0|0:0,0:0:0:0:
237,248,223475,1,2,0:0:0:0:
256,139,223645,2,0,P|295:152|325:182,2,85,8|0|0,0:0|0:0|0:0,0:0:0:0:
72,288,224156,6,0,L|237:247,1,170,2|0,0:0|0:0,0:0:0:0:
385,193,224668,2,0,L|404:110,1,85,2|0,0:0|0:0,0:0:0:0:
257,54,225009,2,0,L|256:140,1,85,8|0,0:0|0:0,0:0:0:0:
127,193,225350,2,0,L|107:110,1,85
54,250,225691,6,0,P|134:223|216:243,1,170,2|0,0:0|0:0,0:0:0:0:
313,294,226202,1,2,0:0:0:0:
403,231,226372,2,0,L|417:147,2,85,8|0|0,0:0|0:0|0:0,0:0:0:0:
498,107,226884,6,0,P|434:57|355:78,1,170,2|0,0:0|0:0,0:0:0:0:
417,147,227395,1,2,0:0:0:0:
158,176,227736,1,8,0:0:0:0:
178,196,228077,1,2,0:0:0:0:
98,119,228247,1,0,0:0:0:0:
198,216,228418,6,0,L|281:200,1,85,2|0,0:0|0:0,0:0:0:0:
288,301,228759,2,0,L|371:285,1,85,0|2,0:0|0:0,0:0:0:0:
448,354,229100,2,0,P|484:281|444:210,1,170,8|0,0:0|0:0,0:0:0:0:
337,178,229611,6,0,L|173:223,1,170,2|0,0:0|0:0,0:0:0:0:
121,321,230122,1,2,0:0:0:0:
83,102,230463,2,0,P|45:123|4:131,2,85,8|4|4,0:0|0:1|0:1,0:0:0:0:
168,31,230975,1,4,0:1:0:0:
244,174,231145,6,0,L|418:140,1,170,2|0,0:0|0:0,0:0:0:0:
509,269,231656,1,2,0:0:0:0:
464,352,231827,2,0,P|416:291|438:206,1,170,8|0,0:0|0:0,0:0:0:0:
509,269,232338,1,2,0:0:0:0:
344,368,232509,6,0,L|259:356,1,85
210,228,232850,2,0,L|294:239,1,85,2|0,0:0|0:0,0:0:0:0:
244,110,233191,2,0,L|160:99,1,85,8|0,0:0|0:0,0:0:0:0:
13,150,233531,1,0,0:0:0:0:
100,34,233702,1,0,0:0:0:0:
193,192,233872,6,0,L|361:215,1,170,2|0,0:0|0:0,0:0:0:0:
470,136,234384,1,2,0:0:0:0:
380,26,234554,2,0,P|357:61|355:103,1,85,8|0,0:0|0:0,0:0:0:0:
445,213,234895,2,0,P|467:177|469:135,1,85,0|2,0:0|0:0,0:0:0:0:
380,26,235236,6,0,L|296:42,1,85
276,176,235577,2,0,L|192:192,1,85,2|0,0:0|0:0,0:0:0:0:
360,162,235918,2,0,L|344:246,1,85,8|0,0:0|0:0,0:0:0:0:
210,266,236259,2,0,L|194:350,1,85
172,357,236514,1,0,0:0:0:0:
151,363,236600,6,0,P|109:368|69:354,1,85,2|0,0:0|0:0,0:0:0:0:
31,222,236941,2,0,P|72:217|112:231,1,85,0|2,0:0|0:0,0:0:0:0:
211,266,237281,2,0,L|221:350,2,85,8|0|0,0:0|0:0|0:0,0:0:0:0:
299,198,237793,6,0,P|381:215|452:173,1,170,2|0,0:0|0:0,0:0:0:0:
452,173,238304,2,0,L|471:255,1,85,2|0,0:0|0:0,0:0:0:0:
301,284,238645,2,0,L|300:199,1,85,8|0,0:0|0:0,0:0:0:0:
148,171,238986,2,0,L|129:253,1,85
4,305,239327,5,2,0:0:0:0:
39,200,239497,1,4,0:1:0:0:
129,254,239668,1,2,0:0:0:0:
129,254,239753,1,2,0:0:0:0:
129,254,239838,1,2,0:0:0:0:
74,95,240009,1,8,0:0:0:0:
221,287,240179,2,0,P|262:297|302:284,1,85,4|4,0:3|0:3,0:0:0:0:
462,174,240520,6,0,P|384:148|314:191,1,170,8|0,0:0|0:0,0:0:0:0:
396,246,241031,1,2,0:0:0:0:
324,88,241202,1,2,0:0:0:0:
265,241,241372,1,8,0:0:0:0:
239,124,241543,1,4,0:1:0:0:
140,282,241713,1,4,0:3:0:0:
152,113,241884,1,4,0:3:0:0:
59,235,242054,6,0,P|50:316|110:372,1,170,2|0,0:0|0:0,0:0:0:0:
221,325,242566,1,2,0:0:0:0:
272,217,242736,2,0,L|437:179,1,170,8|0,0:0|0:0,0:0:0:0:
317,75,243247,6,0,L|151:112,1,170,2|0,0:0|0:0,0:0:0:0:
151,112,243759,1,2,0:0:0:0:
338,258,244100,2,0,P|405:306|485:287,1,170,8|2,0:0|0:0,0:0:0:0:
425,205,244611,1,2,0:0:0:0:
251,310,244781,6,0,L|165:289,2,85,2|0|0,0:0|0:0|0:0,0:0:0:0:
338,258,245293,1,2,0:0:0:0:
131,207,245463,2,0,P|75:266|95:345,1,170,8|2,0:0|0:0,0:0:0:0:
95,345,245975,1,8,0:0:0:0:
36,132,246316,5,0,0:0:0:0:
114,54,246486,2,0,L|198:63,1,85,2|0,0:1|0:0,0:0:0:0:
306,90,246827,2,0,L|325:36,2,56.6666666666667,8|8|8,0:0|0:0|0:0,0:0:0:0:
352,147,247168,2,0,L|388:103,2,56.6666666666667,4|0|4,0:3|0:0|0:3,0:0:0:0:
398,204,247509,6,0,L|301:219,1,85,2|8,0:0|0:0,0:0:0:0:
174,298,247850,2,0,L|258:285,1,85,0|2,0:0|0:0,0:0:0:0:
314,216,248191,1,8,0:0:0:0:
293,370,248361,1,0,0:0:0:0:
174,298,248531,1,2,0:0:0:0:
371,329,248702,6,0,P|414:264|395:179,1,170,8|0,0:0|0:0,0:0:0:0:
222,141,249213,2,0,P|207:180|216:221,1,85,2|0,0:0|0:0,0:0:0:0:
350,125,249554,2,0,P|363:85|355:44,1,85,8|0,0:0|0:0,0:0:0:0:
90,109,249895,2,0,P|76:148|84:189,1,85,2|0,0:0|0:0,0:0:0:0:
147,273,250236,6,0,L|230:259,1,85,2|0,0:0|0:0,0:0:0:0:
304,177,250577,1,8,0:0:0:0:
410,286,250747,1,8,0:0:0:0:
251,281,250918,1,8,0:0:0:0:
381,198,251088,1,4,0:3:0:0:
353,356,251259,1,4,0:3:0:0:
215,187,251429,6,0,P|242:110|321:90,1,170,8|0,0:0|0:0,0:0:0:0:
444,136,251941,2,0,L|468:222,1,85,2|0,0:0|0:0,0:0:0:0:
310,262,252281,2,0,L|304:178,1,85,8|4,0:0|0:1,0:0:0:0:
160,132,252622,2,0,L|136:218,1,85,4|0,0:3|0:0,0:0:0:0:
169,318,252963,6,0,P|248:344|321:305,1,170,2|0,0:0|0:0,0:0:0:0:
384,206,253475,1,2,0:0:0:0:
328,106,253645,2,0,L|159:131,1,170,8|0,0:0|0:0,0:0:0:0:
160,131,254156,1,8,0:0:0:0:
68,332,254497,5,8,0:0:0:0:
67,331,254668,2,0,P|151:339|224:299,1,170,2|8,0:0|0:0,0:0:0:0:
298,213,255179,2,0,L|392:203,1,85,0|2,0:0|0:0,0:0:0:0:
450,116,255520,1,0,0:0:0:0:
505,295,255691,6,0,L|335:312,1,170,2|0,0:0|0:0,0:0:0:0:
238,251,256202,1,2,0:0:0:0:
164,337,256372,2,0,P|125:263|151:185,1,170,8|0,0:0|0:0,0:0:0:0:
256,147,256884,1,8,0:0:0:0:
256,147,257225,5,8,0:0:0:0:
331,65,257395,2,0,L|413:44,1,85,2|0,0:0|0:0,0:0:0:0:
181,65,257736,2,0,L|98:44,1,85,8|0,0:0|0:0,0:0:0:0:
331,235,258077,2,0,L|413:255,1,85
181,235,258418,5,2,0:0:0:0:
181,235,258759,2,0,L|99:255,1,85,0|2,0:0|0:0,0:0:0:0:
240,309,259100,2,0,P|275:236|241:161,1,170,8|0,0:0|0:0,0:0:0:0:
148,100,259611,1,8,0:0:0:0:
148,100,259952,5,8,0:0:0:0:
88,192,260122,2,0,L|106:274,1,85,2|0,0:0|0:0,0:0:0:0:
255,96,260463,2,0,L|236:13,1,85,8|0,0:0|0:0,0:0:0:0:
416,227,260804,2,0,L|434:309,1,85,2|0,0:0|0:0,0:0:0:0:
482,166,261145,5,2,0:0:0:0:
384,112,261316,1,8,0:0:0:0:
384,112,261401,1,8,0:0:0:0:
384,112,261486,1,8,0:0:0:0:
330,224,261656,1,8,0:0:0:0:
255,96,261827,1,8,0:0:0:0:
416,227,261997,1,4,0:1:0:0:
457,45,262168,1,4,0:3:0:0:
195,25,262338,6,0,P|162:99|202:170,1,170,8|0,0:0|0:0,0:0:0:0:
306,232,262850,2,0,L|389:217,1,85,8|0,0:0|0:0,0:0:0:0:
481,279,263191,2,0,L|501:331,2,56.6666666666667,8|8|8,0:0|0:0|0:0,0:0:0:0:
408,310,263531,2,0,L|408:366,2,56.6666666666667,4|4|4,0:3|0:3|0:3,0:0:0:0:
335,341,263872,6,0,P|256:368|173:354,1,170,2|0,0:0|0:0,0:0:0:0:
102,277,264384,1,2,0:0:0:0:
155,190,264554,2,0,L|238:176,1,85,8|0,0:0|0:0,0:0:0:0:
421,225,264895,6,0,P|454:149|420:73,1,170,8|0,0:0|0:0,0:0:0:0:
318,30,265406,2,0,L|192:52,2,127.5,8|8|8,0:0|0:0|0:0,0:0:0:0:
451,127,266173,2,0,P|401:165|339:157,1,127.5,8|8,0:0|0:0,0:0:0:0:
127,221,266770,6,0,L|149:346,2,127.5,8|8|8,0:0|0:0|0:0,0:0:0:0:
224,88,267537,2,0,P|261:137|253:199,1,127.5,4|4,0:1|0:3,0:0:0:0:
455,290,268134,6,0,L|440:197,1,85,8|2,0:0|0:0,0:0:0:0:
432,151,268389,2,0,P|370:137|315:165,2,127.5,2|8|4,0:0|0:0|0:1,0:0:0:0:
304,257,269156,1,4,0:3:0:0:
199,293,269327,6,0,L|32:258,1,170,2|0,0:0|0:0,0:0:0:0:
239,85,270009,2,0,P|278:156|247:232,1,170,8|0,0:0|0:0,0:0:0:0:
181,162,270520,1,0,0:0:0:0:
371,116,270691,6,0,P|377:157|367:198,1,85
476,213,271031,2,0,P|460:252|431:283,1,85,2|0,0:0|0:0,0:0:0:0:
189,236,271372,1,8,0:0:0:0:
279,152,271543,1,2,0:0:0:0:
279,373,271713,5,2,0:0:0:0:
256,192,271798,12,0,278872,0:0:0:0:
142,117,297622,6,0,L|181:101,3,42.5,4|4|4|4,0:1|0:1|0:1|0:1,0:0:0:0:
136,131,297963,5,8,0:0:0:0:
175,297,298134,1,2,0:0:0:0:
224,89,298475,5,8,0:0:0:0:
155,297,298646,1,2,0:0:0:0:
312,47,298986,5,8,0:0:0:0:
135,297,299156,1,2,0:0:0:0:
406,320,299497,5,2,0:0:0:0:
285,186,299668,1,2,0:0:0:0:
460,223,299838,1,2,0:0:0:0:
296,296,300009,1,8,0:0:0:0:
387,141,300179,1,8,0:0:0:0:
406,320,300350,1,2,0:0:0:0:
285,186,300520,6,0,B|231:199|231:199|176:162|122:193,1,170,8|0,0:0|0:0,0:0:0:0:
123,192,301372,5,2,0:0:0:0:
80,67,302054,6,0,L|248:92,1,170,2|0,0:0|0:0,0:0:0:0:
368,46,302566,1,2,0:0:0:0:
461,266,302736,2,0,P|377:272|309:223,1,170,8|0,0:0|0:0,0:0:0:0:
412,147,303247,1,0,0:0:0:0:
195,246,303588,6,0,L|155:322,1,85,0|2,0:0|0:0,0:0:0:0:
42,46,304100,1,8,0:0:0:0:
258,180,304441,1,0,0:0:0:0:
343,86,304611,1,0,0:0:0:0:
481,270,304781,6,0,L|313:298,1,170,2|0,0:0|0:0,0:0:0:0:
195,246,305293,1,2,0:0:0:0:
101,332,305463,2,0,P|68:257|94:169,1,170,8|0,0:0|0:0,0:0:0:0:
205,118,305975,6,0,L|372:86,1,170,2|0,0:0|0:0,0:0:0:0:
471,166,306486,2,0,P|486:204|475:245,1,85,2|0,0:0|0:0,0:0:0:0:
287,213,306827,2,0,P|271:174|282:133,1,85,8|0,0:0|0:0,0:0:0:0:
91,276,307168,2,0,P|106:314|95:355,1,85,2|0,0:0|0:0,0:0:0:0:
1,254,307509,6,0,P|51:190|133:192,1,170,2|0,0:0|0:0,0:0:0:0:
254,276,308020,1,2,0:0:0:0:
393,217,308191,2,0,L|414:48,1,170,8|2,0:0|0:0,0:0:0:0:
414,48,308702,1,8,0:0:0:0:
165,101,309043,5,8,0:0:0:0:
263,180,309213,2,0,P|191:224|109:214,1,170,2|8,0:0|0:0,0:0:0:0:
362,253,309895,1,2,0:0:0:0:
429,144,310066,1,0,0:0:0:0:
358,38,310236,6,0,L|274:54,1,85,2|0,0:0|0:0,0:0:0:0:
263,180,310577,2,0,L|179:196,1,85,0|2,0:0|0:0,0:0:0:0:
109,304,310918,2,0,P|55:242|58:159,1,170,8|2,0:0|0:0,0:0:0:0:
58,158,311429,1,2,0:0:0:0:
364,12,311770,5,0,0:0:0:0:
364,12,311941,2,0,L|347:181,1,170,2|8,0:0|0:0,0:0:0:0:
388,283,312452,2,0,P|430:278|470:264,2,85,4|4|4,0:1|0:1|0:1,0:0:0:0:
278,260,312963,6,0,P|198:239|125:277,1,170,2|0,0:0|0:0,0:0:0:0:
211,344,313475,1,2,0:0:0:0:
349,177,313645,2,0,L|431:158,1,85,8|0,0:0|0:0,0:0:0:0:
491,65,313986,1,0,0:0:0:0:
504,271,314156,6,0,L|338:307,1,170,2|0,0:0|0:0,0:0:0:0:
226,243,314668,1,2,0:0:0:0:
400,56,315009,1,8,0:0:0:0:
226,243,315350,1,0,0:0:0:0:
125,164,315520,1,0,0:0:0:0:
8,362,315691,6,0,P|90:377|172:355,1,170,2|0,0:0|0:0,0:0:0:0:
226,243,316202,1,2,0:0:0:0:
125,164,316372,2,0,P|98:196|93:237,2,85,8|0|2,0:0|0:0|0:0,0:0:0:0:
239,108,316884,6,0,L|406:78,1,170,2|0,0:0|0:0,0:0:0:0:
481,181,317395,2,0,L|508:261,1,85,2|0,0:0|0:0,0:0:0:0:
315,211,317736,2,0,L|310:126,1,85,8|4,0:0|0:1,0:0:0:0:
144,187,318077,2,0,L|125:269,1,85,4|4,0:3|0:3,0:0:0:0:
223,351,318418,6,0,L|305:331,1,85,2|8,0:0|0:0,0:0:0:0:
315,211,318759,2,0,L|397:191,1,85,2|0,0:0|0:0,0:0:0:0:
457,77,319100,2,0,P|398:54|340:76,2,127.5,4|4|4,0:3|0:3|0:3,0:0:0:0:
495,198,319781,6,0,L|476:280,1,85,2|8,0:0|0:0,0:0:0:0:
350,334,320122,2,0,L|359:292,1,42.5,2|8,0:0|0:0,0:0:0:0:
210,310,320463,2,0,P|151:331|91:311,2,127.5,4|4|4,0:3|0:3|0:3,0:0:0:0:
350,334,321145,6,0,L|433:314,1,85,2|8,0:0|0:0,0:0:0:0:
472,200,321486,2,0,P|451:162|419:137,1,85,2|0,0:0|0:0,0:0:0:0:
399,127,321742,1,2,0:1:0:0:
378,121,321827,2,0,L|296:142,2,85,8|4|0,0:0|0:3|0:0,0:0:0:0:
459,21,322339,1,8,0:0:0:0:
324,218,322679,5,8,0:0:0:0:
203,84,322850,1,8,0:0:0:0:
378,121,323020,1,8,0:0:0:0:
214,194,323191,1,8,0:0:0:0:
305,39,323361,1,8,0:0:0:0:
324,218,323532,1,8,0:0:0:0:
203,84,323703,1,8,0:0:0:0:
128,264,329327,5,0,0:0:0:0:
228,126,329668,1,0,0:0:0:0:
373,214,330009,1,0,0:0:0:0:
248,98,330350,1,0,0:0:0:0:
100,182,330691,6,0,L|57:188,1,42.5
128,264,331031,2,0,L|170:257,1,42.5
97,355,331372,1,0,0:0:0:0:
397,111,333077,6,0,P|317:86|240:118,1,170
161,267,334100,1,0,0:0:0:0:
128,159,334441,1,0,0:0:0:0:
260,208,334781,6,0,L|344:200,1,85
402,163,335293,1,0,0:0:0:0:
402,163,335463,2,0,L|395:78,1,85
277,118,336145,5,0,0:0:0:0:
194,69,336316,1,0,0:0:0:0:
119,170,336486,1,0,0:0:0:0:
174,49,336656,1,0,0:0:0:0:
298,98,336827,1,0,0:0:0:0:
149,276,340236,5,0,0:0:0:0:
204,114,340577,1,0,0:0:0:0:
143,185,340918,1,0,0:0:0:0:
296,109,341259,1,0,0:0:0:0:
352,198,341600,6,0,L|395:202,1,42.5
333,279,341941,2,0,L|291:274,1,42.5
380,355,342281,1,0,0:0:0:0:
441,38,343986,6,0,P|456:129|401:185,1,170
324,230,345009,2,0,L|241:214,1,85
203,117,345691,6,0,L|286:133,1,85
353,118,346202,1,0,0:0:0:0:
353,118,346372,2,0,L|436:134,1,85
424,238,347054,5,0,0:0:0:0:
428,323,347225,1,0,0:0:0:0:
496,207,347395,1,0,0:0:0:0:
448,343,347566,1,0,0:0:0:0:
355,283,347736,1,0,0:0:0:0:
328,298,351145,6,0,B|316:288|316:288|269:270|269:270|220:315|168:386|168:386|187:309|190:236|190:236|131:201|46:176|46:176|120:159|204:152|204:152|222:96|225:18|225:18|254:90|290:137|290:137|372:114|447:105|447:105|376:158|332:211|332:211|352:280|404:344,1,1429.42942942943
256,192,362054,12,0,372963,0:0:0:0:
