osu file format v9

[General]
AudioFilename: Rina aiuchi - Magic.mp3
AudioLeadIn: 2000
PreviewTime: 186077
Countdown: 0
SampleSet: Soft
StackLeniency: 0.7
Mode: 0
LetterboxInBreaks: 1

[Editor]
Bookmarks: 35452,55091,84788,124376,163963
DistanceSpacing: 1.2
BeatDivisor: 6
GridSize: 4

[Metadata]
Title:Magic
Artist:Aiuchi Rina
Creator:CXu
Version:Magic
Source:Detective Conan
Tags:Lucifer Louis Cyphre meitantei konan opening

[Difficulty]
HPDrainRate:7
CircleSize:4
OverallDifficulty:7
ApproachRate:8
SliderMultiplier:2.59999990463257
SliderTickRate:1

[Events]
//Background and Video events
0,0,"Conan-Shinichi-wallpaper (5) crop.jpg"
//Break Periods
2,75091,84038
//Storyboard Layer 0 (Background)
//Storyboard Layer 1 (Fail)
//Storyboard Layer 2 (Pass)
//Storyboard Layer 3 (Foreground)
//Storyboard Sound Samples
//Background Colour Transformations
3,100,163,162,255

[TimingPoints]
665,618.556701030928,4,2,1,70,1,0
55020,-100,4,2,1,90,0,0
75046,-100,4,2,1,70,0,0
95226,-100,4,2,2,50,0,0
95381,-100,4,2,1,50,0,0
124608,-100,4,2,1,80,0,0
129866,-100,4,2,2,81,0,0
130020,-100,4,2,1,81,0,0
137288,-100,4,2,2,81,0,0
137443,-100,4,2,1,81,0,0
144247,-100,4,2,1,50,0,0
183603,-100,4,1,0,20,0,0
183912,-100,4,1,0,25,0,0
184221,-100,4,1,0,30,0,0
184530,-100,4,1,0,35,0,0
184840,-100,4,1,0,40,0,0
185149,-100,4,1,0,45,0,0
185458,-100,4,1,0,50,0,0
185768,-100,4,1,0,55,0,0
186077,-100,4,1,0,30,0,0
186309,-100,4,1,0,35,0,0
186463,-100,4,1,0,40,0,0
186618,-100,4,1,0,45,0,0
186773,-100,4,1,0,50,0,0
186927,-100,4,1,0,55,0,0
187082,-100,4,1,0,60,0,0
187237,-100,4,1,0,65,0,0
187391,-100,4,2,1,70,0,0
188319,-100,4,1,0,70,0,0
188551,-100,4,2,1,80,0,0
188706,-100,4,2,1,80,0,1
203551,-100,4,2,1,70,0,0

[Colours]
Combo1 : 254,215,56
Combo2 : 122,244,11
Combo3 : 64,159,255
Combo4 : 171,88,88

[HitObjects]
64,212,665,6,0,B|8:116,1,86.6666634877523,4|0
104,148,974,2,0,B|160:244,1,86.6666634877523,2|0
184,156,1283,2,0,B|128:60,1,86.6666634877523,8|0
224,92,1592,2,0,B|280:188,1,86.6666634877523,8|0
284,220,1902,5,12
385,310,2211,1,2
502,250,2520,1,8
479,118,2829,1,2
347,92,3139,1,4
80,56,3603,2,0,B|56:124|72:252,1,173.333326975505,2|0
176,324,4376,5,8
216,308,4479,1,8
256,292,4582,1,8
296,276,4685,1,8
336,260,4788,1,8
376,244,4891,1,8
416,228,4994,5,8
376,212,5097,1,8
336,200,5201,1,8
296,188,5304,1,8
256,176,5407,1,8
216,160,5510,1,8
176,148,5613,6,0,B|132:172|92:148,1,86.6666634877523,4|0
92,104,5922,2,0,B|92:-12,1,86.6666634877523,2|0
92,17,6232,1,8
420,17,6541,1,2
344,192,6747,5,0
344,192,6850,2,0,B|272:208|280:268,1,86.6666634877523,8|0
264,284,7159,2,0,B|204:196,1,86.6666634877523,2|0
192,176,7469,1,8
420,354,7778,1,2
264,284,7984,5,0
264,284,8087,2,0,B|212:284|196:328,1,86.6666634877523,8|0
152,327,8396,2,0,B|136:283|84:283,1,86.6666634877523,2|0
28,284,8706,2,0,B|-4:216|28:136,1,129.999995231629,8|8
48,116,9118,1,8
76,84,9221,1,8
112,64,9324,6,0,B|200:16,1,86.6666634877523,8|0
220,52,9634,2,0,B|306:52,1,86.6666634877523,8|0
316,96,9943,2,0,B|392:152,1,86.6666634877523,8|0
364,184,10252,2,0,B|392:284,1,86.6666634877523,8|0
344,320,10561,6,0,B|364:260|460:224,1,129.999995231629,4|2
460,196,10974,1,0
448,156,11077,1,0
416,128,11180,2,0,B|360:132|320:72,1,86.6666634877523,8|0
304,68,11489,2,0,B|240:80|232:140,1,86.6666634877523,2|0
220,156,11799,6,0,B|160:72,1,86.6666634877523,8|0
140,52,12108,1,2
60,288,12417,1,8
272,328,12726,1,2
272,328,13036,5,8
304,300,13139,1,8
324,260,13242,1,8
332,216,13345,2,8,B|324:144|264:96,1,129.999995231629,8|8
272,103,13860,1,0
272,103,13963,1,8
192,36,14273,6,0,B|52:128|160:284,1,259.999990463257,4|2
256,332,15201,1,2
384,312,15510,6,0,B|436:300|448:224,1,86.6666634877523,4|0
448,212,15819,1,2
356,56,16128,2,0,B|288:72|252:152,1,129.999995231629,8|2
224,260,16644,1,0
224,260,16747,2,0,B|172:248|160:172,1,86.6666634877523
164,156,17056,1,2
104,40,17365,2,0,B|40:56|12:128,1,129.999995231629,8|2
48,224,17881,1,0
48,224,17984,1,0
240,344,18293,6,0,B|340:228,1,129.999995231629,2|8
408,344,18912,1,2
456,240,19221,2,0,B|460:128,1,86.6666634877523,0|0
484,104,19530,2,0,B|396:124,1,86.6666634877523,2|0
348,152,19840,2,0,B|324:76|220:76,1,129.999995231629,8|2
84,88,20458,5,0
0,264,20768,1,2
172,352,21077,1,8
260,176,21386,1,2
368,40,21695,6,0,B|472:40,1,86.6666634877523
484,72,22005,2,0,B|384:72,1,86.6666634877523,2|0
368,104,22314,1,8
464,192,22623,5,2
484,256,22778,1,0
460,316,22933,1,0
260,316,23242,1,2
236,256,23397,1,0
256,192,23552,1,8
364,256,23860,1,2
364,256,24170,2,0,B|404:188|360:132,1,129.999995231629,0|2
232,36,24788,6,0,B|160:36|132:72,1,86.6666634877523,8|0
200,132,25097,2,0,B|128:160|128:228,1,86.6666634877523,2|0
216,232,25407,2,0,B|192:288|216:336,1,86.6666634877523,4|0
224,356,25716,1,2
484,192,26025,1,8
256,40,26335,5,2
172,20,26541,1,0
172,20,26644,1,0
96,60,26850,1,0
96,60,26953,1,2
256,192,27262,1,8
256,192,27572,1,2
52,204,27881,6,0,B|20:284|92:332,1,129.999995231629,0|2
208,204,28345,2,0,B|240:284|168:332,1,129.999995231629,0|0
128,252,28809,2,0,B|128:112,1,129.999995231629,2|0
148,84,29221,1,0
180,56,29324,1,0
224,64,29427,1,2
308,80,29634,1,0
352,88,29737,1,8
480,192,30046,5,2
480,192,30355,1,4
256,324,30665,1,2
32,192,30974,1,8
256,60,31283,1,2
308,216,31592,6,0,B|312:264|380:300,1,86.6666634877523
204,168,31902,2,0,B|200:120|132:84,1,86.6666634877523,2|0
116,168,32211,2,0,B|124:220|152:252|212:248,1,129.999995231629,8|2
268,248,32675,1,0
332,248,32829,1,0
424,148,33139,1,2
360,148,33293,1,0
296,148,33448,1,8
204,56,33757,1,2
76,64,34067,6,0,B|52:120|60:176,1,86.6666634877523,0|0
92,172,34376,2,0,B|116:264,1,86.6666634877523,2|0
200,344,34685,6,8,B|200:248,1,86.6666634877523
312,257,34994,2,8,B|312:344,1,86.6666634877523
312,344,35304,1,4
432,292,35613,6,0,B|476:256|464:192,1,86.6666634877523,2|0
475,148,35922,2,0,B|456:196|408:196,1,86.6666634877523,8|0
352,176,36232,2,0,B|292:172|252:228,1,86.6666634877523,2|0
196,288,36541,6,0,B|212:236|168:168,1,86.6666634877523
144,164,36850,2,0,B|56:212,1,86.6666634877523,2|0
56,264,37159,2,0,B|52:204|8:168,1,86.6666634877523,8|0
25,184,37469,1,2
256,48,37778,5,4
256,204,38087,2,0,B|256:116,1,86.6666634877523,8|0
256,117,38396,1,8
172,248,38706,2,0,B|172:320|256:368|340:320|340:248,1,259.999990463257,4|2
344,112,39634,6,0,B|452:160,1,86.6666634877523,8|0
404,88,39943,2,0,B|360:180,1,86.6666634877523,2|0
392,212,40252,1,4
316,340,40561,5,2
216,312,40768,1,0
216,312,40871,1,8
132,252,41077,1,0
132,252,41180,1,2
100,152,41386,1,0
100,152,41489,5,0
92,48,41695,1,0
92,48,41799,1,2
188,12,42005,1,0
188,12,42108,2,0,B|244:32|268:88,1,86.6666634877523,8|0
256,116,42417,2,0,B|256:232,1,86.6666634877523,2|0
256,256,42726,5,4
404,308,43036,1,2
308,348,43242,1,0
308,348,43345,1,8
360,200,43654,2,0,B|412:160|404:64,2,129.999995231629,4|0|2
260,80,44582,6,0,B|204:80|160:120,1,86.6666634877523,8|0
144,144,44891,2,0,B|68:240,1,86.6666634877523,2|0
104,264,45201,1,4
256,340,45407,6,0,B|400:284,1,129.999995231629
420,260,45819,1,2
440,212,45922,1,2
432,160,46025,1,2
396,120,46128,1,2
256,48,46438,5,0
256,48,46644,1,0
256,48,46747,1,2
156,168,47056,2,0,B|52:200,1,86.6666634877523,8|0
73,193,47366,1,2
228,244,47572,1,0
228,244,47675,2,0,B|392:256,1,129.999995231629,4|2
484,348,48293,2,0,B|376:332,1,86.6666634877523,8|0
348,328,48603,2,0,B|236:304|112:328,1,216.666658719381,4|0
132,324,49221,1,2
40,28,49530,5,8
40,356,49840,1,2
40,28,50149,1,4
180,68,50355,5,0
180,68,50458,2,0,B|236:96|268:144,1,86.6666634877523,2|0
272,168,50768,1,8
392,68,51077,1,2
480,196,51386,1,0
396,256,51592,1,0
396,256,51695,2,0,B|320:264|296:324,1,86.6666634877523,2|0
288,332,52005,1,8
144,272,52314,5,2
80,192,52520,1,0
80,192,52623,2,0,B|72:112|144:56,1,129.999995231629,4|8
276,44,53242,1,8
320,52,53345,1,8
364,68,53448,1,8
396,96,53551,1,8
204,336,53860,6,2,B|144:292,2,43.3333317438762
224,288,54170,2,2,B|188:236,2,43.3333317438762
288,288,54479,2,2,B|312:252,2,43.3333317438762
308,336,54788,2,2,B|342:310,2,43.3333317438762
256,364,55097,1,4
68,312,55304,5,0
68,312,55407,2,0,B|68:216,1,86.6666634877523,2|0
68,172,55716,1,8
136,32,55922,2,0,B|188:76,1,43.3333317438762,0|2
256,196,56232,1,0
256,196,56335,1,0
368,92,56541,1,0
368,92,56644,2,0,B|476:92,1,86.6666634877523,2|0
496,92,56953,1,8
428,224,57159,6,0,B|368:240,1,43.3333317438762,0|2
224,284,57469,1,0
224,284,57572,2,0,B|152:268|112:324,1,86.6666634877523
144,348,57881,2,0,B|80:272,1,86.6666634877523,2|0
64,236,58190,2,0,B|60:160|100:128,1,86.6666634877523,8|0
108,108,58500,1,2
208,40,58706,5,0
256,60,58809,2,0,B|384:120,1,129.999995231629,0|2
448,232,59324,1,0
448,232,59427,2,0,B|484:272|440:332,1,86.6666634877523,8|0
392,356,59737,2,0,B|356:316|400:256,1,86.6666634877523,2|0
388,275,60046,1,4
364,56,60252,5,0
320,88,60355,1,2
148,124,60561,1,0
192,156,60664,1,8
368,192,60871,1,0
324,224,60974,1,2
144,256,61180,1,0
188,288,61283,1,0
256,368,61489,5,0
256,368,61592,2,0,B|368:364,1,86.6666634877523,2|0
388,340,61902,1,8
424,304,62005,1,0
440,256,62108,1,0
440,204,62211,2,0,B|440:48,2,129.999995231629,2|4|2
440,204,63036,1,0
440,204,63139,2,0,B|392:144|304:128,1,129.999995231629,8|2
108,76,63757,6,8,B|48:152,1,86.6666634877523,8|0
32,192,64067,2,8,B|48:260|104:288,1,86.6666634877523
124,284,64376,2,8,B|208:312,1,86.6666634877523
260,308,64685,2,8,B|376:300,1,86.6666634877523
396,284,64994,1,4
448,76,65201,5,0
448,76,65304,2,0,B|384:52|340:64,1,86.6666634877523,2|0
312,64,65613,1,8
212,176,65819,2,0,B|160:120|188:44,1,129.999995231629,2|0
184,55,66232,2,0,B|136:92|76:104,1,86.6666634877523,0|0
48,68,66541,2,0,B|76:116|80:176,1,86.6666634877523,2|0
52,196,66850,1,8
148,316,67056,2,0,B|88:280,1,43.3333317438762,0|2
268,316,67366,2,0,B|328:280,1,43.3333317438762,0|4
404,168,67675,5,0
404,168,67778,1,2
280,80,67984,1,0
280,80,68087,2,0,B|176:80,1,86.6666634877523,8|0
141,80,68396,2,0,B|96:140|140:200,2,129.999995231629,2|4|2
368,180,69221,1,0
368,180,69325,2,0,B|404:140|368:100,1,86.6666634877523,8|0
370,102,69634,1,2
92,192,69943,6,0,B|88:328|236:344,1,216.666658719381,4|0
268,344,70561,2,0,B|384:344,1,86.6666634877523
408,344,70871,1,2
408,344,71077,1,0
408,344,71180,2,0,B|456:224|408:116,1,216.666658719381,4|0
380,96,71799,6,0,B|336:72|336:8,1,86.6666634877523,2|0
284,24,72109,2,0,B|240:128,1,86.6666634877523,2|0
232,152,72417,1,4
256,192,72520,12,2,74891
256,48,84788,5,0
100,68,85097,1,0
116,224,85407,1,0
272,204,85716,1,0
328,116,85922,1,0
328,116,86025,2,0,B|396:140|404:220,1,129.999995231629
