osu file format v5

[General]
AudioFilename: [Skyl - 04] Jroli okis.mp3
AudioLeadIn: 463
PreviewTime: 166
Countdown: 3
SampleSet: Normal
StackLeniency: 0.7
Mode: 0
LetterboxInBreaks: 1

[Metadata]
Title:Jurzoliu sokis
Artist:Aiste Smilgeviciute ir Skyle
Creator:ArtyKing
Version:Normal
Source:
Tags:

[Difficulty]
HPDrainRate:9
CircleSize:6
OverallDifficulty:7
SliderMultiplier:2.6
SliderTickRate:4

[Events]
//Background and Video events
0,0,"AbstractWallpaperPurple.png"
//Break Periods
//Storyboard Layer 0 (Background)
//Storyboard Layer 1 (Failing)
//Storyboard Layer 2 (Passing)
//Storyboard Layer 3 (Foreground)
//Storyboard Sound Samples
//Background Colour Transformations
3,100,0,0,0

[TimingPoints]
-2,1000,4,1,1,100,1,0
0,996.499999999999,4,1,1,100,1,0
0,-100,4,1,1,100,0,0
0,-50,4,1,1,100,0,0
0,-100,4,1,1,100,0,0
0,-100,4,1,1,100,0,0

[Colours]
Combo1 : 0,0,255
Combo2 : 0,128,0
Combo3 : 0,255,0
Combo4 : 0,128,128
Combo5 : 128,128,255

[HitObjects]
239,199,10214,1,2
284,169,10546,1,2
328,139,10795,1,2
356,188,11127,1,0
303,219,11459,1,0
253,251,11791,1,0
267,304,12124,1,0
318,277,12456,1,0
353,247,12788,1,0
386,237,13120,1,0
423,232,13286,1,0
327,69,14573,6,0,B|78:351|260:32|438:330,1,460
392,323,16940,2,0,B|187:322,1,191.666666666667
212,312,18310,2,0,B|214:186,1,115
212,157,19556,2,0,B|483:155,1,230
462,198,21051,5,0
435,241,21549,1,0
389,299,22047,1,0
300,306,23044,6,0,B|302:185,1,115
230,182,23915,2,0,B|229:316,1,115
146,294,24787,2,0,B|146:156,1,115
156,154,25908,5,0
205,159,26407,1,0
251,159,26780,1,0
304,159,27237,1,0
356,157,27735,1,0
459,170,28234,1,0
113,75,29396,6,0,B|286:235,1,230
281,231,30517,1,0
266,134,31763,1,0
409,118,32510,6,0,B|412:319,1,191.666666666667
341,312,33756,2,0,B|251:312,2,76.6666666666667
262,195,34877,5,0
116,142,36247,1,0
211,107,36870,1,0
307,75,37493,1,0
400,43,38240,1,0
406,146,38988,5,0
303,176,39735,1,0
221,206,40482,1,0
139,254,41354,1,0
52,316,41977,1,0
144,322,42724,2,0,B|382:334,1,230
380,267,43970,2,0,B|389:147,1,115
399,158,45008,1,0
250,187,45838,5,0
256,192,47209,12,0,55876
236,143,56925,5,0
273,167,57464,1,0
273,167,57921,1,0
308,227,58461,1,0
347,232,58959,1,0
391,253,59457,1,0
35,71,60412,6,0,B|476:79,1,421.666666666667
463,158,62654,2,0,B|20:151,1,421.666666666667
211,259,64772,1,0
314,263,65270,1,0
386,272,65768,1,0
57,151,66765,6,0,B|223:157,2,153.333333333333
47,174,69256,6,0,B|474:184,1,421.666666666667
463,243,71747,2,0,B|25:241,1,421.666666666667
229,159,73865,5,0
272,160,74363,1,0
316,159,75111,1,0
143,41,76107,6,0,B|340:45,1,191.666666666667
365,107,77353,6,0,B|127:104,1,230
90,257,78723,5,0
169,194,79346,1,0
253,34,80218,6,0,B|256:352,1,306.666666666667
256,192,81837,12,0,90004
255,180,91055,5,0
291,205,91594,1,0
322,226,92176,1,0
264,281,92757,1,0
204,241,93297,1,0
205,195,94003,1,0
203,148,94667,1,0
251,137,96037,1,0
291,164,96286,1,0
311,191,96660,1,0
328,221,97034,1,0
326,251,97283,1,0
313,279,97656,1,0
277,297,98030,1,0
277,297,98155,1,0
206,294,98528,1,0
206,294,98778,1,0
178,249,99151,1,0
182,205,99525,1,0
206,167,99774,1,0
261,35,100646,6,0,B|254:353,1,306.666666666667
329,346,102141,2,0,B|331:31,1,306.666666666667
398,40,103635,2,0,B|393:369,1,306.666666666667
241,199,105255,5,0
290,200,106002,1,0
113,115,107123,6,0,B|428:124,3,306.666666666667
211,127,111607,5,0
288,128,111981,1,0
358,127,112230,1,0
361,199,113227,1,0
282,201,113600,1,0
213,202,113974,1,0
155,205,114223,1,0
95,208,114722,1,0
259,33,115593,6,0,B|257:350,1,306.666666666667
296,340,117088,1,0
359,303,117960,5,0
347,229,118583,2,0,B|345:143,3,76.6666666666667
314,95,120078,1,0
232,95,120576,6,0,B|170:94,4,38.3333333333333
295,95,121572,5,0
351,99,122195,1,0
405,198,123192,2,0,B|2:196,1,383.333333333333
27,122,124936,2,0,B|413:129,1,345
418,131,126555,5,0
394,198,127427,1,0
360,264,127925,1,0
290,322,129046,1,0
94,51,129669,6,0,B|454:327,1,421.666666666667
418,337,131537,5,0
381,316,132036,1,0
344,282,132534,1,0
301,254,132908,1,0
267,222,133157,5,0
253,167,133904,2,0,B|256:39,3,115
313,64,135897,1,0
379,70,136146,1,0
284,80,137392,6,0,B|64:322|23:22|323:165,2,421.666666666667
333,74,141378,6,0,B|328:329,1,230
252,310,142499,2,0,B|257:66,1,230
191,68,143620,2,0,B|182:328,1,230
112,299,144866,2,0,B|122:60,2,230
166,308,146983,5,0
226,312,147481,1,0
276,314,147980,1,0
331,318,148478,1,0
378,329,149101,1,0
419,266,150596,6,0,B|-24:15,2,498.333333333333
398,295,155080,5,0
359,329,155827,1,0
321,344,156450,1,0
253,304,157322,6,0,B|259:218,3,76.6666666666667
257,215,158817,6,0,B|254:313,2,76.6666666666667
256,192,159813,12,0,171313
247,194,172269,5,0
245,278,173017,5,0
296,278,173390,1,0
343,279,173889,1,0
362,181,174512,1,0
323,182,174885,1,0
279,177,175383,1,0
237,182,175757,1,0
192,184,176255,1,0
44,295,176878,2,0,B|440:293|366:39|375:59,2,460
44,295,181238,1,0
97,168,181736,5,0
161,169,182359,1,0
231,171,182982,1,0
305,167,183854,1,0
386,170,184477,1,0
464,179,185224,1,0
458,284,185722,1,0
369,286,186345,1,0
246,333,186968,6,0,B|242:50|242:51,2,268.333333333333
315,336,189334,6,0,B|311:55|308:55,2,268.333333333333
58,196,191826,6,0,B|468:196,2,383.333333333333
257,54,195438,6,0,B|254:345,2,268.333333333333
447,197,198178,6,0,B|72:201,2,345
439,200,201791,5,0
382,256,202289,1,0
327,306,202787,1,0
250,289,203285,1,0
184,234,203784,1,0
124,167,204282,1,0
254,55,205154,6,0,B|256:347,2,268.333333333333
110,181,207770,2,0,B|392:178|17:321|446:58|393:291,1,345
365,299,209638,5,0
74,312,210136,2,0,B|443:20|469:358,2,536.666666666667
58,226,215119,1,0
133,179,215742,1,0
210,136,216365,1,0
391,324,217112,6,0,B|101:333|58:135|441:91,1,575
436,114,219728,2,0,B|395:343|36:139|249:44,1,460
275,70,221845,1,0
136,201,222717,5,0
244,199,223340,1,0
353,198,224212,1,0
460,197,225084,1,0
449,276,225707,6,12,B|31:274,1,383.333333333333
72,194,227700,2,12,B|463:203,1,383.333333333333
456,137,229693,2,12,B|67:136,1,383.333333333333
256,192,231686,12,0,237519
259,196,238288,5,0
318,198,239159,1,0
376,199,239782,1,0
443,199,240654,1,0
257,199,241526,5,4
