osu file format v13

[General]
AudioFilename: Aisaka Yuka - Blue Emotion.mp3
AudioLeadIn: 0
PreviewTime: 54605
Countdown: 1
SampleSet: Normal
StackLeniency: 0.7
Mode: 0
LetterboxInBreaks: 1
SkinPreference:Ouendan2 v4
WidescreenStoryboard: 0

[Editor]
Bookmarks: 18921,31053,43209,54605,82715,97909,121461
DistanceSpacing: 1.2
BeatDivisor: 4
GridSize: 8
TimelineZoom: 1.6

[Metadata]
Title:Blue Emotion
TitleUnicode:Blue Emotion
Artist:Aisaka Yuka
ArtistUnicode:Aisaka Yuka
Creator:RE1359EBA
Version:Kakan ni Ouen!!
Source:Ore Twintail Ni Narimasu OST
Tags:Ore_Twintail_Ni_Narimasu,
BeatmapID:563564
BeatmapSetID:244477

[Difficulty]
HPDrainRate:6
CircleSize:3
OverallDifficulty:3
ApproachRate:5
SliderMultiplier:1.9
SliderTickRate:2

[Events]
//Background and Video events
0,0,"Tsube Aika (Kak).png",0,0
//Break Periods
2,43335,53332
2,82842,96636
2,152737,171850
//Storyboard Layer 0 (Background)
//Storyboard Layer 1 (Fail)
//Storyboard Layer 2 (Pass)
//Storyboard Layer 3 (Foreground)
//Storyboard Sound Samples

[TimingPoints]
590,379.867046533713,4,1,0,100,1,0
145013,-156.25,4,2,0,100,0,0
152610,-100,4,1,0,100,0,0

[HitObjects]
216,264,18824,5,4,0:0:0:0:
296,264,19014,1,0,0:0:0:0:
256,336,19204,1,0,0:0:0:0:
184,192,19584,2,0,P|96:216|48:248,2,142.5,8|8|0,0:0|0:0|0:0,0:0:0:0:
160,112,20344,2,0,P|72:136|24:168,2,142.5,8|8|0,0:0|0:0|0:0,0:0:0:0:
176,32,21103,1,2,0:0:0:0:
256,24,21293,1,0,0:0:0:0:
336,32,21483,1,2,0:0:0:0:
328,192,21863,6,2,P|416:216|464:248,2,142.5,0|0|0,0:0|0:0|0:0,0:0:0:0:
296,264,22623,1,2,0:0:0:0:
216,264,22813,1,0,0:0:0:0:
256,336,23003,1,2,0:0:0:0:
256,160,23383,5,8,0:0:0:0:
192,48,23667,1,12,0:0:0:0:
320,48,23952,1,8,0:0:0:0:
296,264,24902,5,4,0:0:0:0:
216,264,25092,1,0,0:0:0:0:
256,336,25282,1,0,0:0:0:0:
328,192,25662,2,0,P|416:216|464:248,2,142.5,8|8|0,0:0|0:0|0:0,0:0:0:0:
352,112,26422,2,0,P|440:136|488:168,2,142.5,8|8|0,0:0|0:0|0:0,0:0:0:0:
350,31,27181,2,0,P|256:16|160:32,1,190,2|2,0:0|0:0,0:0:0:0:
88,176,27941,2,2,P|172:133|264:109,1,190
248,192,28511,2,2,P|339:214|424:258,1,190
376,320,29081,1,8,0:0:0:0:
224,360,29460,1,4,0:0:0:0:
40,224,30219,1,4,0:0:0:0:
216,120,30980,5,4,0:0:0:0:
296,120,31170,1,0,0:0:0:0:
256,48,31360,1,0,0:0:0:0:
184,192,31740,2,0,P|96:168|48:136,2,142.5,8|8|0,0:0|0:0|0:0,0:0:0:0:
160,272,32500,2,0,P|72:248|24:216,2,142.5,8|8|0,0:0|0:0|0:0,0:0:0:0:
176,352,33259,1,2,0:0:0:0:
256,360,33449,1,0,0:0:0:0:
336,352,33639,1,2,0:0:0:0:
328,192,34019,6,2,P|416:168|464:136,2,142.5,0|0|0,0:0|0:0|0:0,0:0:0:0:
256,144,34779,1,2,0:0:0:0:
256,304,35158,1,0,0:0:0:0:
256,304,35348,1,2,0:0:0:0:
256,224,35539,5,8,0:0:0:0:
328,344,35823,1,8,0:0:0:0:
184,344,36108,1,4,0:0:0:0:
256,32,36678,5,2,0:0:0:0:
240,192,37058,2,2,P|104:128|8:24,2,285,2|2|6,0:0|0:0|0:0,0:0:0:0:
200,264,38387,1,0,0:0:0:0:
280,264,38577,2,2,P|416:200|512:96,2,285,2|2|6,0:0|0:0|0:0,0:0:0:0:
320,336,39907,1,0,0:0:0:0:
240,336,40097,2,12,P|40:240|-16:88,4,380,8|12|8|12|12,0:0|0:0|0:0|0:0|0:0,0:0:0:0:
416,320,54532,21,2,0:0:0:0:
256,320,54911,1,2,0:0:0:0:
208,168,55291,2,2,P|132:222|99:310,1,190
16,328,55861,2,6,P|72:168|176:96,1,285,6|2,0:0|0:0,0:0:0:0:
312,32,56811,1,2,0:0:0:0:
456,112,57191,1,2,0:0:0:0:
456,272,57571,1,2,0:0:0:0:
312,352,57950,1,2,0:0:0:0:
346,193,58330,6,2,P|232:168|154:203,1,190,6|2,0:0|0:0,0:0:0:0:
120,128,58900,2,2,P|256:88|408:144,1,285
256,248,59850,1,12,0:0:0:0:
24,40,60609,5,2,0:0:0:0:
184,24,60989,1,2,0:0:0:0:
344,24,61369,2,2,P|448:72|512:152,1,190
448,192,61939,2,2,P|381:124|294:89,1,190
264,168,62509,1,6,0:0:0:0:
168,24,62889,6,2,P|64:72|0:152,1,190
64,192,63459,2,2,P|130:124|217:89,1,190
248,168,64029,1,4,0:0:0:0:
296,320,64408,2,2,P|424:280|504:152,1,285
480,80,65168,1,0,0:0:0:0:
424,136,65358,1,8,0:0:0:0:
400,56,65548,1,2,0:0:0:0:
256,104,65928,1,10,0:0:0:0:
96,320,66687,5,2,0:0:0:0:
256,320,67066,1,2,0:0:0:0:
304,168,67446,2,2,P|380:222|413:310,1,190
496,328,68016,2,2,P|440:168|336:96,1,285,6|2,0:0|0:0,0:0:0:0:
200,32,68966,1,6,0:0:0:0:
56,112,69346,1,2,0:0:0:0:
56,272,69726,1,2,0:0:0:0:
200,352,70105,1,2,0:0:0:0:
166,193,70485,6,2,P|280:168|358:203,1,190,6|2,0:0|0:0,0:0:0:0:
392,128,71055,2,2,P|256:88|104:144,1,285
256,248,72005,1,12,0:0:0:0:
464,96,72765,5,2,0:0:0:0:
408,40,72955,1,0,0:0:0:0:
328,24,73145,1,2,0:0:0:0:
168,24,73525,2,2,P|64:72|16:168,1,190
24,216,74095,2,2,P|64:312|144:360,1,190
200,312,74665,1,4,0:0:0:0:
360,344,75044,2,2,P|456:288|480:184,1,190
456,144,75614,2,2,P|376:96|264:152,1,190
256,200,76184,1,4,0:0:0:0:
256,192,76944,12,4,82642,0:0:0:0:
32,232,97836,5,4,0:0:0:0:
96,184,98026,2,8,P|192:144|288:128,1,190
328,192,98596,2,0,P|416:216|464:248,2,142.5,8|8|0,0:0|0:0|0:0,0:0:0:0:
352,112,99356,2,0,P|440:136|488:168,2,142.5,8|8|0,0:0|0:0|0:0,0:0:0:0:
350,29,100116,2,0,P|256:16|128:40,1,190,0|2,0:0|0:0,0:0:0:0:
184,192,100875,6,2,P|96:216|48:248,2,142.5,8|8|0,0:0|0:0|0:0,0:0:0:0:
163,275,101635,2,2,P|257:262|385:286,1,190,0|2,0:0|0:0,0:0:0:0:
384,96,102395,5,8,0:0:0:0:
256,48,102680,1,8,0:0:0:0:
128,96,102965,1,4,0:0:0:0:
256,272,103534,5,0,0:0:0:0:
112,328,103914,2,0,P|32:216|72:48,2,285,0|0|0,0:0|0:0|0:0,0:0:0:0:
192,352,105244,1,0,0:0:0:0:
168,272,105434,2,0,P|104:152|216:56,2,285,0|0|0,0:0|0:0|0:0,0:0:0:0:
208,208,106763,1,0,0:0:0:0:
256,144,106953,2,0,P|408:200|472:336,2,285,0|0|0,0:0|0:0|0:0,0:0:0:0:
200,80,108282,1,0,0:0:0:0:
280,64,108472,2,0,P|424:112|520:216,2,285,0|0|0,0:0|0:0|0:0,0:0:0:0:
96,264,109991,6,0,P|160:328|272:360,1,190
256,280,110561,1,0,0:0:0:0:
328,240,110751,1,0,0:0:0:0:
256,200,110941,1,0,0:0:0:0:
256,24,111321,2,0,P|384:56|512:144,1,285
496,232,112080,5,0,0:0:0:0:
432,176,112270,1,0,0:0:0:0:
328,304,112650,1,0,0:0:0:0:
192,200,113030,2,0,P|112:152|56:72,1,190
16,160,113600,1,0,0:0:0:0:
16,160,113790,2,0,P|88:240|184:288,1,190
304,360,114550,2,0,P|448:296|528:192,1,285
504,120,115309,5,0,0:0:0:0:
448,56,115499,1,0,0:0:0:0:
368,32,115689,1,0,0:0:0:0:
176,48,116069,2,0,P|56:112|-24:240,2,285,0|0|0,0:0|0:0|0:0,0:0:0:0:
256,88,117399,1,0,0:0:0:0:
336,112,117589,2,0,P|448:152|512:208,1,190
488,368,118348,2,0,P|368:280|216:240,1,285
232,160,119108,6,0,P|112:200|-16:320,2,285,0|0|0,0:0|0:0|0:0,0:0:0:0:
296,104,120438,1,0,0:0:0:0:
216,80,120627,2,0,P|88:120|-40:224,1,285
48,248,121388,5,2,0:0:0:0:
208,304,121767,1,2,0:0:0:0:
304,168,122147,2,2,P|380:222|413:310,1,190
496,328,122717,2,6,P|440:168|336:96,1,285,6|2,0:0|0:0,0:0:0:0:
200,32,123667,1,2,0:0:0:0:
56,112,124047,1,2,0:0:0:0:
56,272,124427,1,2,0:0:0:0:
200,352,124806,1,2,0:0:0:0:
166,193,125186,6,2,P|280:168|358:203,1,190,6|2,0:0|0:0,0:0:0:0:
392,128,125756,2,2,P|256:88|104:144,1,285
256,248,126706,1,12,0:0:0:0:
488,40,127465,5,2,0:0:0:0:
328,24,127845,1,2,0:0:0:0:
168,24,128225,2,2,P|64:72|0:152,1,190
64,192,128795,2,2,P|131:124|218:89,1,190
248,168,129365,1,6,0:0:0:0:
344,24,129745,6,2,P|448:72|512:152,1,190
448,192,130315,2,2,P|382:124|295:89,1,190
264,168,130885,1,4,0:0:0:0:
216,320,131264,2,2,P|88:280|8:152,1,285
32,80,132024,1,0,0:0:0:0:
88,136,132214,1,8,0:0:0:0:
112,56,132404,1,2,0:0:0:0:
256,104,132784,1,10,0:0:0:0:
416,320,133543,5,2,0:0:0:0:
256,320,133922,1,2,0:0:0:0:
208,168,134302,2,2,P|132:222|99:310,1,190
16,328,134872,2,2,P|72:168|176:96,1,285,6|2,0:0|0:0,0:0:0:0:
312,32,135822,1,6,0:0:0:0:
456,112,136202,1,2,0:0:0:0:
456,272,136582,1,2,0:0:0:0:
312,352,136961,1,2,0:0:0:0:
346,193,137341,6,2,P|232:168|154:203,1,190,6|2,0:0|0:0,0:0:0:0:
120,128,137911,2,2,P|256:88|408:144,1,285
256,248,138861,1,12,0:0:0:0:
48,96,139621,5,2,0:0:0:0:
104,40,139811,1,0,0:0:0:0:
184,24,140001,1,2,0:0:0:0:
344,24,140381,2,2,P|448:72|496:168,1,190
488,216,140951,2,2,P|448:312|368:360,1,190
312,312,141521,1,4,0:0:0:0:
152,344,141900,2,2,P|56:288|32:184,1,190
56,144,142470,2,2,P|136:96|248:152,1,190
256,200,143040,1,4,0:0:0:0:
256,192,143800,12,0,146459,0:0:0:0:
256,192,147219,12,0,148739,0:0:0:0:
2,219,149308,22,0,P|75:123|184:72,1,243.2,0|0,0:0|0:0,0:0:0:0:
194,150,150258,2,0,P|256:304|307:139,1,425.6
328,72,151778,2,2,P|437:124|510:221,1,243.2,2|14,0:0|0:0,0:0:0:0:
256,336,173050,5,2,0:0:0:0:
400,272,173430,1,2,0:0:0:0:
448,128,173809,1,2,0:0:0:0:
256,48,174379,1,6,0:0:0:0:
64,128,174948,1,2,0:0:0:0:
0,184,175139,1,2,0:0:0:0:
0,182,175329,2,2,P|-6:92|72:48,3,190,0|0|4|0,0:0|0:0|0:0|0:0,0:0:0:0:
256,32,176849,1,4,0:0:0:0:
448,192,177419,1,4,0:0:0:0:
256,352,177988,1,4,0:0:0:0:
256,192,178368,1,12,0:0:0:0:
56,24,179128,5,2,0:0:0:0:
120,176,179508,1,2,0:0:0:0:
192,336,179888,2,2,P|336:336|456:232,1,285
376,208,180647,1,4,0:0:0:0:
296,224,180837,1,0,0:0:0:0:
224,264,181027,1,2,0:0:0:0:
288,96,181407,2,2,P|144:96|24:200,1,285
104,224,182166,1,4,0:0:0:0:
256,168,182546,1,2,0:0:0:0:
256,344,182927,6,2,P|400:312|496:208,2,285,2|2|2,0:0|0:0|0:0,0:0:0:0:
264,264,184256,1,0,0:0:0:0:
264,264,184446,1,4,0:0:0:0:
304,104,184826,1,0,0:0:0:0:
160,24,185205,5,2,0:0:0:0:
16,112,185585,1,2,0:0:0:0:
64,256,185964,1,4,0:0:0:0:
256,336,186534,1,6,0:0:0:0:
448,256,187103,1,2,0:0:0:0:
512,200,187294,1,2,0:0:0:0:
512,201,187484,2,2,P|518:291|440:336,3,190,0|0|4|0,0:0|0:0|0:0|0:0,0:0:0:0:
256,352,189004,1,4,0:0:0:0:
88,304,189383,1,0,0:0:0:0:
88,304,189573,1,0,0:0:0:0:
56,152,189953,1,0,0:0:0:0:
56,152,190144,1,4,0:0:0:0:
216,32,190524,5,12,0:0:0:0:
216,184,190904,1,2,0:0:0:0:
368,288,191283,1,0,0:0:0:0:
368,288,191663,1,0,0:0:0:0:
256,192,192232,12,4,195080,0:0:0:0:
