osu file format v6

[General]
AudioFilename: airwave- when things go wrong.mp3
AudioLeadIn: 0
PreviewTime: -1
Countdown: 1
SampleSet: Soft
StackLeniency: 0.7
Mode: 0
LetterboxInBreaks: 1

[Editor]
Bookmarks: 30496,104342,119111,159726,163419,177726
DistanceSpacing: 0.800000011920929
BeatDivisor: 1
GridSize: 16

[Metadata]
Title:When Things Go Wrong
Artist:Airwave
Creator:ThunderGod
Version:Novice
Source:
Tags:Trance

[Difficulty]
HPDrainRate:2
CircleSize:3
OverallDifficulty:0
SliderMultiplier:1.4
SliderTickRate:1

[Events]
//Background and Video events
0,0,"Serenity3.jpg"
//Break Periods
2,104080,117311
2,159465,161619
2,177465,191517
//Storyboard Layer 0 (Background)
//Storyboard Layer 1 (Fail)
//Storyboard Layer 2 (Pass)
//Storyboard Layer 3 (Foreground)
//Storyboard Sound Samples
//Background Colour Transformations
3,100,163,162,255

[TimingPoints]
4649.94463544539,461.538461538462,4,2,0,100,1,0

[HitObjects]
48,64,30496,6,0,B|480:64,1,420,0|2
464,176,32342,1,2
48,320,34188,6,0,B|468:320,1,420,0|2
464,208,36034,1,2
128,192,37880,6,0,B|256:64|384:192|384:192|256:320|256:192,1,420,0|2
160,256,39726,1,2
384,192,41573,6,0,B|256:320|128:192|128:192|256:64|256:192,1,420,0|2
352,128,43419,1,2
400,352,44342,1,4
176,352,45265,6,0,B|32:352|32:144,1,280,0|8
32,32,46649,6,0,B|174:32|256:192,1,280,0|8
256,288,48034,1,6
480,336,48957,6,0,B|480:256|480:48,1,280,0|8
368,32,50342,6,0,B|256:128|96:32,1,280,0|8
32,112,51726,1,6
256,112,52649,6,0,B|256:192|384:192,1,140
256,192,53573,1,2
256,272,54496,6,0,B|256:192|128:192,1,140,0|8
256,192,55419,1,4
336,192,56342,6,0,B|256:192|256:320,1,140
256,192,57266,1,2
176,192,58188,6,0,B|256:192|256:64,1,140,0|8
256,192,59112,1,4
448,80,60034,5,0
448,304,60957,1,0
224,304,61880,1,0
32,192,62803,1,8
224,80,63726,5,0
448,80,64649,1,0
448,288,65573,1,0
224,288,66496,1,8
32,192,67419,5,0
224,80,68342,1,0
448,80,69265,1,0
448,304,70188,1,8
224,304,71111,5,0
32,192,72034,1,0
256,192,72957,1,0
256,192,73880,1,4
32,192,74803,6,0,B|312:192,2,280,0|2|2
32,192,77573,1,0
256,48,78496,6,0,B|256:336,2,280,0|2|2
256,48,81265,1,0
480,192,82188,6,0,B|200:192,2,280,0|2|2
480,192,84957,1,0
256,48,85880,6,0,B|256:336,2,280,0|2|2
256,48,88188,6,0,B|112:48,1,140,0|2
32,80,89111,1,4
32,80,89573,5,0
32,304,90496,1,0
256,304,91419,1,0
480,304,92342,1,8
480,80,93265,5,0
256,80,94188,1,0
32,80,95111,1,0
32,304,96034,1,8
256,304,96957,5,0
480,304,97880,1,0
480,80,98803,1,0
256,80,99726,1,8
32,80,100649,5,0
32,304,101573,1,0
256,304,102496,1,0
256,80,103419,1,8
256,192,103880,1,4
32,32,119111,5,0
256,32,120034,1,0
480,32,120957,2,0,B|480:336|272:336,1,280,0|4
176,288,122803,5,0
32,112,123726,1,0
240,48,124649,2,0,B|512:48|512:272,1,280,0|4
384,352,126496,5,0
160,352,127419,1,0
32,176,128342,2,0,B|32:32|320:32,1,280,0|4
464,32,130188,5,0
464,256,131111,1,0
256,352,132034,2,0,B|64:352|64:192,1,280,0|4
64,80,133419,1,4
64,80,133880,5,0
288,80,134803,1,0
480,192,135726,1,0
288,288,136649,1,8
64,288,137572,5,0
64,80,138495,1,0
288,80,139419,1,0
480,192,140342,1,8
288,288,141265,5,0
64,288,142188,1,0
64,80,143111,1,0
288,80,144034,1,8
480,192,144957,5,0
256,192,145880,1,0
256,192,146803,1,0
256,192,147726,1,4
480,192,148649,6,0,B|200:192,2,280,0|2|2
480,192,151419,1,0
256,48,152342,6,0,B|256:328,2,280,0|2|2
256,48,155111,1,0
32,192,156034,6,0,B|312:192,2,280,0|2|2
32,192,158803,1,0
144,192,159265,1,4
480,304,163419,5,0
480,80,164342,1,0
256,80,165265,1,0
32,80,166188,1,8
32,304,167111,5,0
256,304,168034,1,0
480,304,168957,1,0
480,80,169880,1,8
256,80,170803,5,0
32,80,171726,1,0
32,304,172649,1,0
256,304,173573,1,8
256,80,174495,5,0
368,192,175419,1,0
144,192,176342,1,0
256,304,177265,1,4
