osu file format v8

[General]
AudioFilename: Air - Surfing On A Rocket.mp3
AudioLeadIn: 1000
PreviewTime: 7367
Countdown: 0
SampleSet: Normal
StackLeniency: 0.7
Mode: 0
LetterboxInBreaks: 1

[Editor]
DistanceSpacing: 0.8
BeatDivisor: 4
GridSize: 8

[Metadata]
Title:Surfing on a Rocket
Artist:Air
Creator:IceBeam
Version:Hard
Source:
Tags:armin

[Difficulty]
HPDrainRate:5
CircleSize:4
OverallDifficulty:6
ApproachRate:7
SliderMultiplier:1.5
SliderTickRate:1

[Events]
//Background and Video events
0,0,"BG.jpg"
//Break Periods
2,44539,49138
2,86711,97769
//Storyboard Layer 0 (Background)
//Storyboard Layer 1 (Fail)
//Storyboard Layer 2 (Pass)
//Storyboard Layer 3 (Foreground)
//Storyboard Sound Samples
//Background Colour Transformations
3,100,163,162,255

[TimingPoints]
1408,379.927180623714,4,1,1,30,1,0
7771,-100,4,1,1,25,0,0
7961,-100,4,1,1,30,0,0
135142,-100,4,1,1,35,0,1
141221,-100,4,1,1,30,0,0
147300,-100,4,1,1,35,0,1
153378,-100,4,1,1,30,0,0
156418,-100,4,1,1,10,0,0

[Colours]
Combo1 : 247,247,145
Combo2 : 123,188,253
Combo3 : 220,220,190
Combo4 : 39,121,182

[HitObjects]
256,192,1408,1,4
384,96,1787,1,0
128,96,2167,1,2
256,192,2547,1,0
256,192,2737,1,0
432,264,3117,1,0
360,216,3307,2,0,B|344:184|352:136,1,75
424,112,3687,1,2
352,56,3877,2,0,B|384:24,2,37.5
278,108,4257,1,0
256,192,4447,5,4
432,264,4827,1,0
352,56,5207,1,2
88,56,5587,1,0
88,56,5777,1,0
392,232,6157,2,0,B|304:232,1,75
120,152,6537,2,0,B|200:152,1,75,0|2
256,88,6916,1,0
256,88,7011,1,0
256,88,7106,1,0
312,152,7296,1,0
256,216,7486,6,0,B|232:264|280:296|256:368,2,150,4|0|2
336,80,8626,1,0
256,32,8816,1,0
176,80,9006,1,0
416,192,9386,2,0,B|432:272|416:352,1,150,0|2
93,341,10146,2,0,B|80:272|96:192,1,150
174,139,10716,5,0
256,184,10906,2,0,B|328:224|408:176,2,150,0|2|0
264,96,11855,1,0
352,120,12045,1,0
320,200,12235,1,0
384,248,12425,2,0,B|368:288|376:328,1,75
456,296,12805,1,2
56,192,13185,1,0
456,88,13565,5,4
176,240,13945,1,0
256,280,14135,1,0
328,240,14325,1,2
256,72,14705,1,0
173,50,14895,1,0
173,50,14990,1,0
173,50,15085,1,0
184,128,15275,1,0
120,176,15465,2,0,B|120:256|96:328,2,150,0|2|0
200,200,16415,1,0
168,272,16605,6,0,B|120:224|40:192,2,150,4|0|2
376,104,17744,1,0
304,152,17934,1,0
304,152,18029,1,0
304,152,18124,2,0,B|304:192|280:224,1,75
216,160,18504,2,0,B|216:88|256:16,2,150,0|2|0
408,296,19644,5,0
352,232,19834,2,0,B|360:200|336:152,1,75
272,224,20214,2,0,B|264:248|272:272,2,37.5,0|0|2
224,152,20594,1,0
152,104,20784,2,0,B|136:144|144:184,1,75
360,280,21164,2,0,B|376:240|368:200,1,75
288,96,21544,2,0,B|328:104|360:136,1,75
224,288,21924,2,0,B|184:280|152:248,1,75,2|0
104,184,22303,1,0
152,104,22493,1,0
240,128,22683,6,0,B|232:232|360:240,2,150,4|0|2
328,144,23633,1,0
384,80,23823,1,0
296,64,24013,1,0
296,64,24108,1,0
296,64,24203,1,0
240,128,24393,2,0,B|192:136|160:160,1,75
88,224,24773,2,0,B|120:200|168:200,1,75,0|2
232,240,25153,1,0
192,312,25343,1,0
112,296,25533,1,0
88,224,25723,6,0,B|64:152|80:72,2,150,4|0|2
424,160,27053,1,0
424,160,27243,2,0,B|448:240|432:312,1,150
192,48,28002,1,2
272,64,28192,1,0
288,144,28382,1,0
208,176,28572,1,0
145,118,28762,6,0,B|89:190|129:278,2,150,0|0|2
368,328,30092,1,0
368,328,30282,2,0,B|416:272|392:176,1,150
176,88,31042,2,0,B|160:48|168:8,2,75,2|0|0
112,136,31612,1,0
168,192,31802,6,0,B|176:272|128:344,2,150,4|0|2
378,48,33131,1,0
378,48,33321,2,0,B|336:120|344:200,1,150
152,288,34081,1,2
88,232,34271,1,0
128,160,34461,1,0
208,176,34651,1,0
232,256,34841,6,0,B|288:312|392:280,1,150,4|0
312,208,35411,1,0
400,176,35601,2,0,B|352:104|248:136,1,150,2|0
112,144,36171,2,0,B|176:200|264:152,1,150
184,96,36741,2,0,B|176:256,1,150,0|2
216,312,37311,1,0
296,336,37501,1,0
368,304,37691,1,0
416,240,37881,6,0,B|408:88,2,150,4|0|2
184,56,39210,1,0
184,56,39400,2,0,B|344:56,1,150
240,176,40160,2,0,B|160:128,1,75,2|0
248,184,40540,2,0,B|168:184,1,75,0|0
256,192,40920,6,0,B|280:256|232:304|264:352,2,150,4|0|2
256,48,42060,1,0
368,96,42250,1,0
368,96,42345,1,0
368,96,42440,2,0,B|456:120,1,75
304,144,42820,2,0,B|352:216,1,75
208,144,43199,2,0,B|160:216,1,75,2|0
144,96,43579,2,0,B|56:120,1,75
256,216,43959,5,0
256,216,44339,1,0
256,192,50038,5,4
72,328,50798,1,2
440,328,51368,1,0
440,328,51558,1,0
160,240,51938,2,0,B|144:160|96:104,1,150,0|2
256,48,52698,1,0
319,93,52888,1,0
272,152,53078,6,0,B|288:232|336:288,2,150,0|0|2
96,160,54217,2,0,B|120:88,2,75
56,232,54787,1,0
112,296,54977,1,0
400,88,55357,1,2
192,264,55737,1,0
320,120,56117,5,4
96,72,56497,1,0
56,144,56687,1,0
128,184,56877,2,0,B|152:256|128:336,1,150,2|0
64,272,57447,2,0,B|24:280,2,37.5
144,256,57827,1,0
216,296,58017,2,0,B|288:272|368:296,2,150,0|2|0
64,128,59156,6,0,B|136:160|216:128,1,150,4|0
216,56,59726,1,0
136,64,59916,2,0,B|136:216,1,150,2|0
248,344,60676,1,0
304,288,60866,1,0
376,320,61056,1,0
376,320,61436,2,0,B|376:168,1,150,2|0
96,88,62196,5,0
152,144,62386,2,0,B|144:184|152:224,1,75
232,184,62766,1,0
232,184,62861,1,0
232,184,62956,1,2
312,216,63146,2,0,B|318:181|310:141,1,75
224,96,63526,1,0
296,64,63716,2,0,B|336:64|368:32,1,75
416,224,64095,2,0,B|384:256|368:296,1,75
168,328,64475,2,0,B|128:328|80:296,1,75,2|0
240,248,64855,2,0,B|264:208|264:168,1,75
328,88,65235,6,0,B|256:112|176:88,2,150,0|0|2
112,120,66565,1,0
112,120,66755,2,0,B|136:192|112:272,1,150
392,264,67515,2,0,B|376:288|368:336,2,75,2|0|0
352,192,68085,1,0
424,160,68275,6,0,B|448:88|440:8,2,150,4|0|2
104,280,69414,1,0
176,240,69604,1,0
176,240,69699,1,0
176,240,69794,1,0
120,176,69984,1,0
192,136,70174,1,0
304,272,70554,6,0,B|376:288|456:272,1,150,2|0
462,196,71124,1,0
384,200,71314,2,0,B|384:352,2,150,4|0|2
128,34,72644,1,0
128,34,72834,2,0,B|128:184,1,150
336,248,73594,5,2
304,328,73784,1,0
216,328,73974,1,0
184,248,74164,1,0
256,208,74354,2,0,B|272:136|248:88|256:56,2,150,4|0|2
104,96,75873,5,4
408,288,76633,5,4
200,48,77393,6,0,B|216:120|192:208,1,150
112,192,77963,1,0
112,112,78153,2,0,B|264:112,1,150,2|0
400,272,78913,1,0
400,272,79103,1,0
400,272,79293,2,0,B|248:272,2,150,0|2|0
256,192,80432,5,4
256,192,80812,1,0
176,160,81002,1,0
184,80,81192,1,2
264,64,81382,1,0
312,128,81572,1,0
64,312,81952,2,0,B|144:288|240:320,1,150
392,288,82522,2,0,B|312:312|216:280,1,150
256,192,83092,1,0
256,192,83472,12,4,86511
112,320,98669,5,4
400,320,99429,1,2
256,192,99999,1,0
256,192,100189,1,0
184,72,100568,2,0,B|112:96|16:72,2,150,0|2|0
256,136,101518,1,0
336,192,101708,6,0,B|408:168|504:192,2,150,4|0|2
96,256,102848,1,0
168,216,103038,1,0
168,216,103133,1,0
168,216,103228,2,0,B|160:176|176:136,1,75
248,184,103608,2,0,B|264:256|240:336,2,150,0|2|0
168,216,104558,1,0
185,291,104748,6,0,B|337:291,2,150,4|0|2
96,80,105887,1,0
168,48,106077,1,0
168,48,106172,1,0
168,48,106267,1,0
216,112,106457,1,0
280,64,106647,2,0,B|432:64,1,150,0|2
72,192,107407,1,0
360,312,107787,6,0,B|416:256|424:176,1,150,4|0
328,216,108357,1,0
232,256,108547,2,0,B|240:184|300:122,1,150,2|0
328,216,109117,2,0,B|176:216,1,150
40,192,109687,2,0,B|192:192,2,150,0|2|0
352,80,110827,5,0
400,160,111016,1,0
336,224,111206,1,0
248,184,111396,1,0
248,184,111491,1,0
248,184,111586,1,2
256,96,111776,1,0
336,136,111966,5,0
336,224,112156,1,0
240,240,112346,1,0
184,168,112536,1,0
248,104,112726,1,0
304,176,112916,5,0
240,240,113106,1,2
152,200,113296,1,0
168,112,113486,1,0
256,96,113676,1,0
304,176,113866,6,0,B|304:336,1,150,4|0
212,311,114436,1,0
128,280,114626,2,0,B|128:128,1,150,2|0
56,80,115196,2,0,B|128:32|208:88,1,150
196,80,115766,1,0
312,224,116146,1,2
280,296,116335,1,0
352,336,116525,1,0
416,288,116715,1,0
392,216,116905,5,4
392,216,117285,1,0
312,224,117475,1,0
272,152,117665,1,2
336,104,117855,1,0
408,136,118045,1,0
72,224,118425,1,0
72,224,118615,1,0
72,224,118805,2,0,B|152:240|224:224,2,150,0|2|0
72,144,119755,1,0
152,144,119945,6,0,B|152:296,2,150,4|0|2
440,88,121275,1,0
440,88,121464,2,0,B|352:72|288:88,1,150
88,256,122224,2,0,B|80:216|56:184,1,75,2|0
168,272,122604,2,0,B|152:312|152:344,1,75
248,256,122984,6,0,B|272:184|272:104,2,150,4|0|2
415,323,124314,1,0
415,323,124504,2,0,B|416:240|392:176,1,150
152,40,125264,1,2
72,72,125454,1,0
48,152,125644,1,0
112,208,125834,1,0
200,192,126024,6,0,B|224:120|320:104,1,150,4|0
370,163,126594,1,0
304,208,126783,2,0,B|192:96,1,150,2|0
128,128,127353,1,0
112,208,127543,2,0,B|88:280,2,75
400,176,128303,2,0,B|376:104,2,75,2|0|0
444,247,128873,1,0
368,280,129063,6,0,B|296:264|200:280,2,150,4|0|2
120,192,130203,1,0
192,152,130393,1,0
256,104,130583,1,0
320,152,130773,1,0
392,192,130963,1,0
256,344,131343,1,2
256,264,131533,1,0
256,184,131723,1,0
256,104,131912,1,0
193,59,132102,6,0,B|257:-5|329:67,2,150,4|0|2
480,232,133432,1,0
480,232,133622,2,0,B|408:216|328:232,1,150
160,40,134382,1,2
72,56,134572,1,0
48,136,134762,1,0
104,200,134952,1,0
128,120,135142,6,0,B|280:120,1,150,4|0
456,288,135902,2,0,B|304:288,1,150,2|0
72,272,136662,2,0,B|72:312|48:344,2,75
104,200,137231,1,0
160,256,137421,2,0,B|312:256,1,150,2|0
144,136,138181,5,4
144,136,138561,2,0,B|208:80|320:104,1,150,0|2
256,192,139321,1,0
368,248,139701,2,0,B|304:304|192:280,1,150,0|0
256,192,140461,2,0,B|328:336,1,150,2|0
256,192,141221,5,4
88,64,141981,1,2
424,64,142550,1,0
424,64,142740,2,0,B|392:136|392:216,2,150,0|0|2
88,320,144260,6,0,B|120:248|120:168,1,150,4|0
48,144,144830,1,0
40,224,145020,2,0,B|192:256,1,150,2|0
416,312,145780,2,0,B|264:216,1,150
176,40,146540,2,0,B|224:184,1,150,2|0
223,182,147300,5,4
424,80,147679,1,0
352,40,147869,1,0
312,112,148059,2,0,B|304:176|336:264,2,150,2|0|0
240,72,149009,1,0
176,120,149199,1,0
184,208,149389,1,0
264,240,149579,2,0,B|400:176,1,150,2|0
28,122,150339,6,0,B|100:98|180:122,1,150,4|0
184,208,150909,1,0
104,184,151099,2,0,B|104:32,2,150,2|0|0
408,350,152239,1,0
408,350,152619,2,0,B|408:192,1,150,2|0
256,192,153378,5,4
256,192,154138,1,2
184,96,154708,1,0
184,96,154898,2,0,B|256:72|336:96,2,150,0|0|2
256,192,156418,12,0,159077
