osu file format v14

[General]
AudioFilename: SayoFries.mp3
AudioLeadIn: 0
PreviewTime: 447
Countdown: 0
SampleSet: Soft
StackLeniency: 0.2
Mode: 0
LetterboxInBreaks: 0
WidescreenStoryboard: 0

[Editor]
DistanceSpacing: 1
BeatDivisor: 4
GridSize: 8
TimelineZoom: 2.1

[Metadata]
Title:Picotto! Papitto!! GARUPA*PICO!!! (TV Size)
TitleUnicode:ピコっと!パピっと!!ガルパ☆ピコ!!! (TV Size)
Artist:Aimi, Sakura Ayane, Maeshima Ami, Aiba Aina, Itou Miku
ArtistUnicode:愛美、 佐倉綾音、 前島亜美、 相羽あいな、 伊藤美来
Creator:-Aqua
Version:newton's Insane
Source:BanG Dream! ガルパ☆ピコ
Tags:バンドリ! ガールズバンドパーティ! Bandori! Girls Band Party! ガルパ Garupa insert cover original song Bandori project Girl Party Garupa! Rozeria ロゼリア Kudō Haruka Kudo Kudou Kudoharu Kdhr Fries 工藤晴香 Hikawa Sayo 氷川紗夜 Yonaka- Yonaka Moge-ko Mogeko Moge ko newton- newton Atalanta 香澄×蘭×彩×友希那×こころ Kasumi x Ran x Aya x Yukina x Kokoro 戸山香澄 Toyama 美竹蘭 Mitake Miitake 丸山彩 Maruyama 湊友希那 Minato 弦巻こころ Tsurumaki garupico Poppin’Party Poppin'Party Poppin Party Popipa Afterglow Roselia Pastel*Palettes Pastel*Palettes Pastel Palletes ハロー、ハッピーワールド! Hello, Happy World! Hello World
BeatmapID:1697646
BeatmapSetID:809023

[Difficulty]
HPDrainRate:6
CircleSize:5.5
OverallDifficulty:8
ApproachRate:9
SliderMultiplier:1.6
SliderTickRate:1

[Events]
//Background and Video events
0,0,"SayoCookie.jpg",0,0
//Break Periods
//Storyboard Layer 0 (Background)
//Storyboard Layer 1 (Fail)
//Storyboard Layer 2 (Pass)
//Storyboard Layer 3 (Foreground)
//Storyboard Sound Samples

[TimingPoints]
1000,315.789473684211,4,2,1,60,1,0
1000,-100,4,2,1,60,0,0
1394,-100,4,2,1,5,0,0
1473,-100,4,2,1,60,0,0
1710,-100,4,2,1,5,0,0
1789,-100,4,2,1,60,0,0
1868,-100,4,2,1,5,0,0
1947,-100,4,2,1,60,0,0
2026,-100,4,2,1,5,0,0
2105,-100,4,2,1,60,0,0
3052,-66.6666666666667,4,2,1,60,0,0
3210,-100,4,2,1,60,0,0
5421,-100,4,2,2,60,0,0
5500,-100,4,2,2,5,0,0
5578,-66.6666666666667,4,2,1,60,0,0
5657,-66.6666666666667,4,2,1,5,0,0
5736,-100,4,2,2,60,0,0
5815,-100,4,2,2,5,0,0
5894,-100,4,2,1,60,0,0
5973,-100,4,2,1,5,0,0
6052,-100,4,2,1,60,0,0
8184,-100,4,2,1,5,0,0
8263,-100,4,2,1,60,0,0
8342,-100,4,2,1,5,0,0
8421,-100,4,2,1,60,0,0
8657,-100,4,2,1,5,0,0
8736,-100,4,2,1,60,0,0
8815,-100,4,2,1,5,0,0
8894,-100,4,2,1,60,0,0
8973,-100,4,2,1,5,0,0
9052,-100,4,2,1,60,0,0
9289,-100,4,2,1,5,0,0
9368,-100,4,2,1,60,0,0
9447,-100,4,2,1,5,0,0
9526,-100,4,2,1,60,0,0
9605,-100,4,2,1,5,0,0
9684,-100,4,2,1,60,0,0
9921,-100,4,2,1,5,0,0
10000,-100,4,2,1,60,0,0
10473,-100,4,2,2,60,0,0
10631,-100,4,2,1,60,0,0
10789,-100,4,2,2,60,0,0
10947,-100,4,2,1,60,0,0
11500,-100,4,2,1,5,0,0
11578,-100,4,2,1,60,0,0
11815,-100,4,2,1,5,0,0
11894,-100,4,2,1,60,0,0
11973,-100,4,2,1,5,0,0
12052,-100,4,2,1,60,0,0
12131,-100,4,2,1,5,0,0
12210,-100,4,2,1,60,0,0
13157,-66.6666666666667,4,2,1,60,0,0
13315,-100,4,2,1,60,0,0
15526,-100,4,2,2,60,0,0
15605,-100,4,2,2,5,0,0
15684,-66.6666666666667,4,2,1,60,0,0
15763,-66.6666666666667,4,2,1,5,0,0
15842,-100,4,2,2,60,0,0
15921,-100,4,2,2,5,0,0
16000,-100,4,2,1,60,0,0
16078,-100,4,2,1,5,0,0
16157,-100,4,2,1,60,0,0
18289,-100,4,2,1,5,0,0
18368,-100,4,2,1,60,0,0
18447,-100,4,2,1,5,0,0
18526,-100,4,2,1,60,0,0
18763,-100,4,2,1,5,0,0
18842,-100,4,2,1,60,0,0
18921,-100,4,2,1,5,0,0
19000,-100,4,2,1,60,0,0
19078,-100,4,2,1,5,0,0
19157,-100,4,2,1,60,0,0
19394,-100,4,2,1,5,0,0
19473,-100,4,2,1,60,0,0
19552,-100,4,2,1,5,0,0
19631,-100,4,2,1,60,0,0
19710,-100,4,2,1,5,0,0
19789,-100,4,2,1,60,0,0
20026,-100,4,2,1,5,0,0
20105,-100,4,2,1,60,0,0
20815,-100,4,2,1,5,0,0
20894,-142.857142857143,4,2,1,60,0,0
21131,-142.857142857143,4,2,1,5,0,0
21210,-142.857142857143,4,2,1,60,0,0
21368,-100,4,2,1,60,0,0
24605,-100,4,2,1,5,0,0
24684,-100,4,2,1,60,0,0
24763,-100,4,2,1,5,0,0
24842,-100,4,2,1,60,0,0
25078,-100,4,2,1,5,0,0
25157,-100,4,2,1,60,0,0
26342,-100,4,2,1,30,0,0
29026,-100,4,2,1,5,0,0
29065,315.789473684211,4,2,1,60,1,0
29854,-222.222222222222,4,2,1,60,0,0
29933,-222.222222222222,4,2,1,5,0,0

[Colours]
Combo1 : 235,233,156
Combo2 : 170,240,233
Combo3 : 253,170,244
Combo4 : 226,172,122

[HitObjects]
228,90,526,5,0,0:0:0:0:
162,136,684,1,0,0:0:0:0:
155,56,842,1,0,0:0:0:0:
234,170,1000,6,0,L|242:265,1,80,6|8,0:0|0:0,0:0:0:0:
368,155,1315,2,0,P|337:130|298:123,1,80,2|8,0:0|0:0,0:0:0:0:
162,136,1631,1,2,0:0:0:0:
240,249,1789,1,8,0:0:0:0:
234,170,1947,1,2,0:0:0:0:
114,289,2105,6,0,B|157:281|187:307|187:307|220:337|272:323,1,160,10|2,0:0|0:0,0:0:0:0:
318,267,2578,1,8,0:0:0:0:
234,170,2736,2,0,L|242:265,1,80,0|2,0:0|0:0,0:0:0:0:
340,342,3052,6,0,L|403:336,1,60.0000022888184,2|0,0:0|0:0,0:0:0:0:
397,260,3210,6,0,L|301:268,1,80,8|0,0:0|0:0,0:0:0:0:
263,325,3447,1,0,0:0:0:0:
263,325,3526,6,0,L|167:334,1,80,2|0,0:0|0:0,0:0:0:0:
295,192,3842,2,0,P|314:227|317:266,1,80,8|0,0:0|0:0,0:0:0:0:
240,249,4157,1,2,0:0:0:0:
274,116,4315,2,0,P|313:116|349:133,1,80,2|8,0:0|0:0,0:0:0:0:
477,91,4631,6,0,B|514:63|514:63|395:74,1,160,6|2,0:0|0:0,0:0:0:0:
349,133,5105,1,8,0:0:0:0:
470,170,5263,2,0,L|476:90,1,80,8|2,0:0|0:0,0:0:0:0:
349,133,5578,6,0,L|354:196,1,60.0000022888184,8|0,0:0|0:0,0:0:0:0:
459,289,5736,6,0,L|470:170,1,120,2|0,0:0|0:0,0:0:0:0:
354,192,6052,6,0,L|258:184,1,80,6|0,0:0|0:0,0:0:0:0:
176,88,6368,2,0,P|216:88|250:106,1,80,8|0,0:0|0:0,0:0:0:0:
219,244,6684,1,2,0:0:0:0:
116,172,6842,2,0,L|195:165,1,80,2|8,0:0|0:0,0:0:0:0:
345,284,7157,6,0,B|302:276|272:302|272:302|239:332|187:318,1,160,2|2,0:0|0:0,0:0:0:0:
219,244,7631,1,8,0:0:0:0:
325,360,7789,2,0,P|366:360|401:338,1,80,2|2,0:0|0:0,0:0:0:0:
366,209,8105,1,8,0:0:0:0:
345,284,8263,1,8,0:0:0:0:
386,133,8421,6,0,P|345:133|310:155,1,80,6|0,0:0|0:0,0:0:0:0:
441,188,8736,1,8,0:0:0:0:
462,113,8894,1,8,0:0:0:0:
379,53,9052,2,0,L|386:140,1,80,6|0,0:0|0:0,0:0:0:0:
421,265,9368,1,8,0:0:0:0:
441,188,9526,1,8,0:0:0:0:
345,284,9684,6,0,B|275:290|275:290|258:283|258:283|186:289,1,160,6|8,0:0|0:0,0:0:0:0:
140,225,10157,1,8,0:0:0:0:
107,298,10315,1,8,0:0:0:0:
63,234,10473,1,2,0:0:0:0:
30,307,10631,5,10,0:0:0:0:
63,234,10789,1,2,0:0:0:0:
107,298,10947,1,10,0:0:0:0:
93,159,11105,6,0,L|-2:167,1,80,6|8,0:0|0:0,0:0:0:0:
140,224,11421,2,0,P|164:193|172:154,1,80,2|8,0:0|0:0,0:0:0:0:
130,89,11736,1,2,0:0:0:0:
250,150,11894,1,8,0:0:0:0:
93,159,12052,1,2,0:0:0:0:
209,83,12210,6,0,P|285:81|328:146,1,160,8|2,0:0|0:0,0:0:0:0:
293,213,12684,1,8,0:0:0:0:
407,152,12842,2,0,L|327:145,1,80,0|2,0:0|0:0,0:0:0:0:
298,272,13157,6,0,L|292:208,1,60.0000022888184,2|0,0:0|0:0,0:0:0:0:
334,65,13315,6,0,L|327:144,1,80,8|0,0:0|0:0,0:0:0:0:
293,213,13552,1,0,0:0:0:0:
293,213,13631,6,0,L|286:292,1,80,2|0,0:0|0:0,0:0:0:0:
250,149,13947,2,0,P|288:136|327:144,1,80,8|0,0:0|0:0,0:0:0:0:
216,218,14263,1,2,0:0:0:0:
172,153,14421,2,0,L|178:73,1,80,2|8,0:0|0:0,0:0:0:0:
95,170,14736,6,0,B|58:142|58:142|177:153,1,160,6|2,0:0|0:0,0:0:0:0:
216,218,15210,1,8,0:0:0:0:
327,144,15368,2,0,P|288:136|250:149,1,80,8|2,0:0|0:0,0:0:0:0:
210,277,15684,6,0,L|216:218,1,60.0000022888184,8|2,0:0|0:0,0:0:0:0:
293,213,15842,6,0,L|286:292,1,80,2|8,0:0|0:0,0:0:0:0:
250,149,16157,6,0,P|288:136|327:144,1,80,6|0,0:0|0:0,0:0:0:0:
216,217,16473,2,0,P|177:225|139:212,1,80,8|0,0:0|0:0,0:0:0:0:
250,149,16789,1,2,0:0:0:0:
367,207,16947,2,0,L|447:215,1,80,2|8,0:0|0:0,0:0:0:0:
327,355,17263,6,0,B|257:361|257:361|240:354|240:354|168:360,1,160,2|2,0:0|0:0,0:0:0:0:
96,293,17736,1,8,0:0:0:0:
169,360,17894,2,0,L|176:272,1,80,0|2,0:0|0:0,0:0:0:0:
125,219,18210,1,8,0:0:0:0:
96,293,18368,1,8,0:0:0:0:
39,152,18526,6,0,L|46:239,1,80,6|0,0:0|0:0,0:0:0:0:
176,281,18842,1,8,0:0:0:0:
205,207,19000,1,8,0:0:0:0:
118,139,19157,2,0,L|125:226,1,80,6|0,0:0|0:0,0:0:0:0:
256,269,19473,1,8,0:0:0:0:
285,195,19631,1,8,0:0:0:0:
198,127,19789,6,0,L|205:214,1,80,6|0,0:0|0:0,0:0:0:0:
306,331,20105,1,8,0:0:0:0:
362,183,20263,1,8,0:0:0:0:
204,206,20421,1,2,0:0:0:0:
306,331,20578,1,10,0:0:0:0:
204,206,20894,6,0,P|205:258|249:270,1,83.9999974365235,6|0,0:0|0:0,0:0:0:0:
256,269,21210,1,6,0:0:0:0:
292,115,21368,6,0,L|284:202,1,80,8|8,0:0|0:0,0:0:0:0:
256,269,21684,1,2,0:0:0:0:
211,126,21842,2,0,L|203:205,1,80,2|8,0:0|0:0,0:0:0:0:
240,49,22157,2,0,P|200:44|163:58,1,80,8|2,0:0|0:0,0:0:0:0:
130,134,22473,5,2,0:0:0:0:
81,67,22631,1,8,0:0:0:0:
211,127,22789,1,10,0:0:0:0:
97,210,22947,1,2,0:0:0:0:
163,58,23105,2,0,P|200:44|240:49,1,80,8|8,0:0|0:0,0:0:0:0:
97,210,23421,1,8,0:0:0:0:
211,127,23578,5,6,0:0:0:0:
147,277,23736,1,0,0:0:0:0:
130,134,23894,1,2,0:0:0:0:
263,191,24052,1,8,0:0:0:0:
97,210,24210,1,2,0:0:0:0:
230,268,24368,2,0,P|306:261|345:191,1,160,2|8,0:0|0:0,0:0:0:0:
279,37,24842,6,0,B|253:84|253:84|262:190,1,160,6|8,0:0|0:0,0:0:0:0:
344,193,25315,1,8,0:0:0:0:
425,195,25473,1,8,0:0:0:0:
181,188,25631,1,10,0:0:0:0:
425,195,25947,1,8,0:0:0:0:
181,188,26263,5,6,0:0:0:0:
256,192,26342,12,0,29026,0:0:0:0:
216,105,29065,5,2,0:0:0:0:
216,105,29380,1,8,0:0:0:0:
189,206,29538,1,2,0:0:0:0:
189,206,29617,1,2,0:0:0:0:
189,206,29696,1,2,0:0:0:0:
316,77,29854,6,0,B|359:69|389:95|389:95|422:125|474:111,1,161.999995056153,14|0,0:0|0:0,0:0:0:0:
