osu file format v14

[General]
AudioFilename: SayoFries.mp3
AudioLeadIn: 0
PreviewTime: 447
Countdown: 0
SampleSet: Soft
StackLeniency: 0.2
Mode: 0
LetterboxInBreaks: 0
WidescreenStoryboard: 0

[Editor]
DistanceSpacing: 1.3
BeatDivisor: 4
GridSize: 4
TimelineZoom: 2.1

[Metadata]
Title:Picotto! Papitto!! GARUPA*PICO!!! (TV Size)
TitleUnicode:ピコっと!パピっと!!ガルパ☆ピコ!!! (TV Size)
Artist:Aimi, Sakura Ayane, Maeshima Ami, Aiba Aina, Itou Miku
ArtistUnicode:愛美、 佐倉綾音、 前島亜美、 相羽あいな、 伊藤美来
Creator:-Aqua
Version:Yonaka's Hard
Source:BanG Dream! ガルパ☆ピコ
Tags:バンドリ! ガールズバンドパーティ! Bandori! Girls Band Party! ガルパ Garupa insert cover original song Bandori project Girl Party Garupa! Rozeria ロゼリア Kudō Haruka Kudo Kudou Kudoharu Kdhr Fries 工藤晴香 Hikawa Sayo 氷川紗夜 Yonaka- Yonaka Moge-ko Mogeko Moge ko newton- newton Atalanta 香澄×蘭×彩×友希那×こころ Kasumi x Ran x Aya x Yukina x Kokoro 戸山香澄 Toyama 美竹蘭 Mitake Miitake 丸山彩 Maruyama 湊友希那 Minato 弦巻こころ Tsurumaki garupico Poppin’Party Poppin'Party Poppin Party Popipa Afterglow Roselia Pastel*Palettes Pastel*Palettes Pastel Palletes ハロー、ハッピーワールド! Hello, Happy World! Hello World
BeatmapID:1697648
BeatmapSetID:809023

[Difficulty]
HPDrainRate:5
CircleSize:4
OverallDifficulty:6
ApproachRate:8
SliderMultiplier:1.4
SliderTickRate:1

[Events]
//Background and Video events
0,0,"SayoCookie.jpg",0,0
//Break Periods
//Storyboard Layer 0 (Background)
//Storyboard Layer 1 (Fail)
//Storyboard Layer 2 (Pass)
//Storyboard Layer 3 (Foreground)
//Storyboard Sound Samples

[TimingPoints]
1000,315.789473684211,4,2,1,60,1,0
1000,-100,4,2,1,60,0,0
1394,-100,4,2,1,5,0,0
1473,-100,4,2,1,60,0,0
1710,-100,4,2,1,5,0,0
1789,-100,4,2,1,60,0,0
1868,-100,4,2,1,5,0,0
1947,-100,4,2,1,60,0,0
2026,-100,4,2,1,5,0,0
2105,-100,4,2,1,60,0,0
5421,-100,4,2,2,60,0,0
5500,-100,4,2,2,5,0,0
5578,-100,4,2,1,60,0,0
5657,-100,4,2,1,5,0,0
5736,-100,4,2,2,60,0,0
5815,-100,4,2,2,5,0,0
5894,-100,4,2,1,60,0,0
5973,-100,4,2,1,5,0,0
6052,-100,4,2,1,60,0,0
8184,-100,4,2,1,5,0,0
8263,-100,4,2,1,60,0,0
8342,-100,4,2,1,5,0,0
8421,-100,4,2,1,60,0,0
8657,-100,4,2,1,5,0,0
8736,-100,4,2,1,60,0,0
8815,-100,4,2,1,5,0,0
8894,-100,4,2,1,60,0,0
8973,-100,4,2,1,5,0,0
9052,-100,4,2,1,60,0,0
9289,-100,4,2,1,5,0,0
9368,-100,4,2,1,60,0,0
9447,-100,4,2,1,5,0,0
9526,-100,4,2,1,60,0,0
9605,-100,4,2,1,5,0,0
9684,-100,4,2,1,60,0,0
9921,-100,4,2,1,5,0,0
10000,-100,4,2,1,60,0,0
10473,-100,4,2,2,60,0,0
10631,-100,4,2,1,60,0,0
10789,-100,4,2,2,60,0,0
10947,-100,4,2,1,60,0,0
11500,-100,4,2,1,5,0,0
11578,-100,4,2,1,60,0,0
11815,-100,4,2,1,5,0,0
11894,-100,4,2,1,60,0,0
11973,-100,4,2,1,5,0,0
12052,-100,4,2,1,60,0,0
12131,-100,4,2,1,5,0,0
12210,-100,4,2,1,60,0,0
15526,-100,4,2,2,60,0,0
15605,-100,4,2,2,5,0,0
15684,-100,4,2,1,60,0,0
15763,-100,4,2,1,5,0,0
15842,-100,4,2,2,60,0,0
15921,-100,4,2,2,5,0,0
16000,-100,4,2,1,60,0,0
16078,-100,4,2,1,5,0,0
16157,-100,4,2,1,60,0,0
18289,-100,4,2,1,5,0,0
18368,-100,4,2,1,60,0,0
18447,-100,4,2,1,5,0,0
18526,-100,4,2,1,60,0,0
18763,-100,4,2,1,5,0,0
18842,-100,4,2,1,60,0,0
18921,-100,4,2,1,5,0,0
19000,-100,4,2,1,60,0,0
19078,-100,4,2,1,5,0,0
19157,-100,4,2,1,60,0,0
19394,-100,4,2,1,5,0,0
19473,-100,4,2,1,60,0,0
19552,-100,4,2,1,5,0,0
19631,-100,4,2,1,60,0,0
19710,-100,4,2,1,5,0,0
19789,-100,4,2,1,60,0,0
20026,-100,4,2,1,5,0,0
20105,-100,4,2,1,60,0,0
20815,-100,4,2,1,5,0,0
20894,-100,4,2,1,60,0,0
21131,-100,4,2,1,5,0,0
21210,-100,4,2,1,60,0,0
24605,-100,4,2,1,5,0,0
24684,-100,4,2,1,60,0,0
24763,-100,4,2,1,5,0,0
24842,-100,4,2,1,60,0,0
25078,-100,4,2,1,5,0,0
25157,-100,4,2,1,60,0,0
26263,-200,4,2,1,60,0,0
26342,-200,4,2,1,5,0,0
27526,-200,4,2,1,25,0,0
27842,-192.307692307692,4,2,1,25,0,0
27921,-192.307692307692,4,2,1,5,0,0
29065,315.789473684211,4,2,1,60,1,0
29854,-112.359550561798,4,2,1,60,0,0
29933,-112.359550561798,4,2,1,5,0,0

[Colours]
Combo1 : 235,233,156
Combo2 : 170,240,233
Combo3 : 253,170,244
Combo4 : 226,172,122

[HitObjects]
0,305,526,6,0,P|58:268|97:210,1,140,0|0,0:0|0:0,0:0:0:0:
79,292,1000,6,0,P|98:322|129:342,1,70,6|8,0:0|0:0,0:0:0:0:
209,350,1315,2,0,P|242:339|271:314,1,70,2|8,0:0|0:0,0:0:0:0:
203,263,1631,6,0,L|190:118,1,140,2|2,0:0|0:0,0:0:0:0:
271,148,2105,1,10,0:0:0:0:
268,317,2421,5,2,0:0:0:0:
327,257,2578,1,8,0:0:0:0:
349,338,2736,1,0,0:0:0:0:
477,209,3052,5,2,0:0:0:0:
455,290,3210,1,8,0:0:0:0:
271,148,3526,6,0,P|305:155|341:148,1,70,2|0,0:0|0:0,0:0:0:0:
372,63,3842,2,0,P|302:47|230:62,1,140,8|2,0:0|0:0,0:0:0:0:
183,134,4315,1,2,0:0:0:0:
54,6,4631,2,0,L|65:151,1,140,6|2,0:0|0:0,0:0:0:0:
0,210,5105,1,8,0:0:0:0:
79,303,5263,2,0,L|86:212,1,70,8|2,0:0|0:0,0:0:0:0:
166,274,5578,5,8,0:0:0:0:
253,245,5736,1,2,0:0:0:0:
364,76,6052,6,0,P|345:46|314:26,1,70,6|0,0:0|0:0,0:0:0:0:
258,98,6368,2,0,P|277:128|308:148,1,70,8|0,0:0|0:0,0:0:0:0:
393,170,6684,2,0,L|380:318,1,140,2|8,0:0|0:0,0:0:0:0:
464,251,7157,1,2,0:0:0:0:
321,379,7473,1,2,0:0:0:0:
290,294,7631,1,8,0:0:0:0:
380,309,7789,1,2,0:0:0:0:
198,329,8105,5,8,0:0:0:0:
206,237,8263,1,8,0:0:0:0:
216,146,8421,1,6,0:0:0:0:
87,17,8736,5,8,0:0:0:0:
95,109,8894,1,8,0:0:0:0:
105,200,9052,1,6,0:0:0:0:
290,294,9368,5,8,0:0:0:0:
298,202,9526,1,8,0:0:0:0:
308,111,9684,1,6,0:0:0:0:
220,288,10000,6,0,L|290:294,1,70,8|8,0:0|0:0,0:0:0:0:
354,358,10315,2,0,L|424:351,1,70,8|2,0:0|0:0,0:0:0:0:
488,286,10631,2,0,P|469:236|488:144,1,140,10|10,0:0|0:0,0:0:0:0:
483,60,11105,6,0,P|464:30|433:10,1,70,6|8,0:0|0:0,0:0:0:0:
345,2,11420,2,0,P|312:13|283:38,1,70,0|8,0:0|0:0,0:0:0:0:
220,100,11736,6,0,L|75:87,1,140,2|2,0:0|0:0,0:0:0:0:
15,22,12210,1,8,0:0:0:0:
185,190,12526,5,2,0:0:0:0:
123,256,12683,1,8,0:0:0:0:
104,169,12841,1,0,0:0:0:0:
13,313,13157,5,2,0:0:0:0:
35,232,13315,1,8,0:0:0:0:
211,285,13631,6,0,P|245:278|280:286,1,70,2|0,0:0|0:0,0:0:0:0:
330,354,13947,2,0,P|314:284|329:212,1,140,8|2,0:0|0:0,0:0:0:0:
390,153,14420,1,2,0:0:0:0:
466,358,14736,2,0,L|455:213,1,140,6|2,0:0|0:0,0:0:0:0:
390,153,15210,1,8,0:0:0:0:
459,18,15368,2,0,L|454:88,1,70,8|2,0:0|0:0,0:0:0:0:
372,47,15683,5,8,0:0:0:0:
285,76,15841,1,2,0:0:0:0:
148,306,16157,6,0,B|166:337|166:337|198:356,1,70,6|0,0:0|0:0,0:0:0:0:
281,361,16473,2,0,B|315:351|315:351|343:325,1,70,8|0,0:0|0:0,0:0:0:0:
272,277,16789,2,0,B|252:235|252:235|267:132,1,140,2|8,0:0|0:0,0:0:0:0:
280,52,17262,1,2,0:0:0:0:
170,212,17578,5,2,0:0:0:0:
81,233,17736,1,8,0:0:0:0:
107,145,17894,1,0,0:0:0:0:
465,236,18210,5,8,0:0:0:0:
377,211,18368,1,8,0:0:0:0:
354,123,18526,1,6,0:0:0:0:
278,364,18841,5,8,0:0:0:0:
343,300,18999,1,8,0:0:0:0:
431,325,19157,1,6,0:0:0:0:
260,138,19473,5,8,0:0:0:0:
283,227,19631,1,8,0:0:0:0:
218,291,19789,1,6,0:0:0:0:
307,61,20105,6,0,L|237:55,1,70,8|8,0:0|0:0,0:0:0:0:
173,120,20420,2,0,L|103:127,1,70,2|10,0:0|0:0,0:0:0:0:
232,256,20894,1,6,0:0:0:0:
433,195,21210,6,0,P|363:179|291:194,1,140,6|8,0:0|0:0,0:0:0:0:
232,256,21684,1,2,0:0:0:0:
167,320,21842,2,0,P|98:332|30:316,1,140,2|8,0:0|0:0,0:0:0:0:
1,230,22315,1,2,0:0:0:0:
92,230,22473,6,0,P|109:198|110:161,1,70,2|8,0:0|0:0,0:0:0:0:
77,89,22789,2,0,P|51:65|15:53,1,70,10|2,0:0|0:0,0:0:0:0:
160,95,23105,2,0,L|306:82,1,140,8|8,0:0|0:0,0:0:0:0:
363,146,23578,6,0,P|386:92|354:12,1,140,6|2,0:0|0:0,0:0:0:0:
299,82,24052,2,0,L|228:75,1,70,8|2,0:0|0:0,0:0:0:0:
138,65,24368,2,0,B|134:103|156:132|156:132|148:202,1,140,2|8,0:0|0:0,0:0:0:0:
138,291,24842,1,6,0:0:0:0:
285,192,25157,5,8,0:0:0:0:
223,258,25315,1,8,0:0:0:0:
279,328,25473,1,8,0:0:0:0:
363,295,25631,6,0,B|376:339|360:368|360:368|387:343|420:342,1,140,10|8,0:0|0:0,0:0:0:0:
465,164,26263,6,0,P|429:62|394:164,1,280,6|0,0:0|0:0,0:0:0:0:
307,61,27842,2,0,B|285:96|292:140|292:140|263:89|263:89|235:140|235:140|242:96|214:55,1,282.099998278198,0|2,0:0|0:0,0:0:0:0:
266,215,29380,1,10,0:0:0:0:
63,165,29854,6,0,P|99:62|132:166,1,280.35000021389,14|0,0:0|0:0,0:0:0:0:
