osu file format v12

[General]
AudioFilename: Dansai Bunri no Crime Edge OP.mp3
AudioLeadIn: 0
PreviewTime: -1
Countdown: 0
SampleSet: Soft
StackLeniency: 0.7
Mode: 0
LetterboxInBreaks: 1
EpilepsyWarning: 1
WidescreenStoryboard: 0

[Editor]
DistanceSpacing: 1
BeatDivisor: 8
GridSize: 8

[Metadata]
Title:Unmei no Ori (TV Sice)
TitleUnicode:Unmei no Ori (TV Sice)
Artist:Aimi
ArtistUnicode:Aimi
Creator:usagi-tan
Version:Hard
Source:Dansai Bunri no Crime Edge
Tags:Kami Kiri Iwai
BeatmapID:252373
BeatmapSetID:91937

[Difficulty]
HPDrainRate:6
CircleSize:4
OverallDifficulty:6
ApproachRate:7
SliderMultiplier:1.5
SliderTickRate:1

[Events]
//Background and Video events
Video,0,"Dansai Bunri no Crime Edge OP.avi"
0,0,"Dansai-Bunri-no-Crime-Edge-01-01.jpg",0,0
//Break Periods
2,11283,15920
2,60754,62479
//Storyboard Layer 0 (Background)
//Storyboard Layer 1 (Fail)
//Storyboard Layer 2 (Pass)
//Storyboard Layer 3 (Foreground)
//Storyboard Sound Samples
//Background Colour Transformations
3,100,128,128,255

[TimingPoints]
11085.0568323784,705.882352941176,4,2,0,60,1,0
11185.0568323784,-100,4,2,0,35,0,0
11285.0568323784,-100,4,2,0,60,0,0
67044,-100,4,2,0,60,0,0
68234,-100,4,2,0,60,0,0
68499,-100,4,2,0,60,0,0
71498,-100,4,2,0,60,0,0
86226,-100,4,2,0,70,0,0

[HitObjects]
120,160,4114,2,0,P|136:88|200:80,1,140
320,128,5173,1,0,0:0:0:0:
288,264,5526,1,0,0:0:0:0:
152,240,5881,1,0,0:0:0:0:
168,112,6232,5,0,0:0:0:0:
288,80,6585,2,0,P|328:80|352:112,1,75
368,216,7292,1,0,0:0:0:0:
256,288,7643,1,0,0:0:0:0:
200,288,7820,1,0,0:0:0:0:
152,272,7996,2,0,P|128:248|120:208,1,75
256,192,8702,12,0,11083,0:0:0:0:
112,272,16820,6,0,P|120:304|152:320,1,70
200,328,17349,1,0,0:0:0:0:
256,312,17526,1,0,0:0:0:0:
336,216,17879,2,0,P|344:176|320:152,1,65
240,72,18585,1,0,0:0:0:0:
136,144,18937,6,0,L|120:184,2,35
312,96,19643,2,0,P|336:120|344:168,1,70
352,208,20173,1,0,0:0:0:0:
344,256,20349,2,0,P|320:296|288:304,1,70,0|0,0:0|0:0,0:0:0:0:
216,328,21055,1,0,0:0:0:0:
128,296,21408,6,0,L|88:232,1,70
96,192,21937,1,0,0:0:0:0:
136,168,22114,1,0,0:0:0:0:
184,168,22290,1,0,0:0:0:0:
232,184,22467,1,0,0:0:0:0:
288,280,22820,6,0,P|328:280|352:248,1,75
384,144,23526,2,0,P|376:104|344:88,1,65
240,56,24232,1,0,0:0:0:0:
136,80,24585,6,0,P|104:104|88:136,1,65
72,208,25261,2,0,P|72:264|144:320,1,150
248,288,26349,5,0,0:0:0:0:
248,192,26702,1,0,0:0:0:0:
248,88,27055,2,0,L|248:40,2,35
344,224,27761,6,0,P|360:272|384:288,2,70
248,160,28820,1,0,0:0:0:0:
248,160,28996,1,0,0:0:0:0:
248,160,29173,1,0,0:0:0:0:
144,224,29526,2,0,P|136:264|104:288,2,70
240,104,30555,6,0,L|240:56,2,35
240,240,31290,2,0,P|248:280|280:296,1,65
392,240,31996,1,0,0:0:0:0:
400,120,32349,1,0,0:0:0:0:
264,64,32702,6,0,L|248:16,2,35
152,120,33408,1,0,0:0:0:0:
112,240,33761,5,0,0:0:0:0:
216,312,34114,2,0,L|248:320|280:328,1,65
368,296,34820,1,0,0:0:0:0:
392,256,34996,1,0,0:0:0:0:
408,208,35173,1,0,0:0:0:0:
328,144,35526,6,0,L|256:168,1,65
168,80,36232,2,0,L|136:56,2,32.5
176,200,36908,1,0,0:0:0:0:
264,288,37290,2,0,L|264:328,2,32.5
352,176,37967,1,0,0:0:0:0:
272,64,38349,6,0,P|240:48|200:56,1,65
96,104,39026,1,0,0:0:0:0:
72,240,39379,2,0,P|80:272|136:288,1,75
248,328,40114,2,0,P|304:328|336:296,1,103.125
360,256,40790,1,0,0:0:0:0:
360,120,41143,1,0,0:0:0:0:
240,56,41496,1,0,0:0:0:0:
112,144,41849,6,0,L|64:152,2,37.5
184,232,42555,2,0,P|192:264|224:304,1,75
352,320,43261,1,0,0:0:0:0:
448,232,43614,1,0,0:0:0:0:
408,104,43967,1,0,0:0:0:0:
280,64,44320,1,0,0:0:0:0:
136,128,44673,5,0,0:0:0:0:
120,184,44849,1,0,0:0:0:0:
120,240,45026,2,0,P|136:280|168:296,1,75
304,304,45732,1,0,0:0:0:0:
336,176,46085,1,0,0:0:0:0:
232,80,46437,2,0,P|192:64|160:72,1,75
96,168,47143,2,0,P|96:216|120:240,1,75
256,312,47849,6,0,L|328:280,1,75
248,192,48555,2,0,L|168:168,1,75
256,80,49261,2,0,L|336:64,1,75
368,184,49967,1,0,0:0:0:0:
272,304,50320,5,0,0:0:0:0:
216,304,50496,1,0,0:0:0:0:
160,288,50673,2,0,P|128:264|120:232,1,75
136,104,51379,1,0,0:0:0:0:
280,72,51732,1,0,0:0:0:0:
384,168,52085,2,0,P|400:208|384:240,1,75
272,320,52790,1,0,0:0:0:0:
256,192,53143,5,0,0:0:0:0:
256,128,53320,1,0,0:0:0:0:
224,80,53496,2,0,P|192:56|152:56,1,75
72,184,54202,1,0,0:0:0:0:
160,296,54555,2,0,L|168:336,2,37.5
216,168,55261,1,0,0:0:0:0:
328,96,55614,1,0,0:0:0:0:
392,232,55967,6,0,P|384:272|352:296,1,75
304,312,56496,1,0,0:0:0:0:
248,304,56673,1,0,0:0:0:0:
192,272,56849,1,0,0:0:0:0:
120,144,57379,6,0,P|144:104|176:96,1,75
232,96,57908,1,0,0:0:0:0:
288,104,58085,1,0,0:0:0:0:
336,136,58261,1,0,0:0:0:0:
360,272,58790,6,0,P|328:304|296:304,1,75
168,272,59496,1,0,0:0:0:0:
112,144,59849,1,0,0:0:0:0:
232,56,60202,2,0,P|264:48|296:80,1,75
224,296,63379,6,0,P|176:304|152:280,1,75
120,240,63908,1,0,0:0:0:0:
112,176,64085,1,0,0:0:0:0:
208,72,64437,1,0,0:0:0:0:
344,96,64790,2,0,P|384:120|392:152,1,75
368,280,65496,1,0,0:0:0:0:
240,312,65849,1,0,0:0:0:0:
120,256,66202,6,0,P|96:232|96:192,1,75
168,80,66908,1,0,0:0:0:0:
256,184,67261,1,0,0:0:0:0:
256,184,67437,1,0,0:0:0:0:
256,184,67614,1,0,0:0:0:0:
336,288,67967,2,0,P|336:336|312:344,1,75
168,312,68673,5,0,0:0:0:0:
88,192,69026,2,0,P|88:144|112:120,1,75
224,48,69732,2,0,P|264:40|304:56,1,75
376,168,70437,2,0,P|392:208|376:240,1,75
352,288,70967,1,0,0:0:0:0:
296,304,71143,1,0,0:0:0:0:
152,264,71496,1,0,0:0:0:0:
120,128,71849,6,0,P|144:80|168:72,1,75
216,64,72379,1,0,0:0:0:0:
272,64,72555,2,0,P|304:72|336:104,1,75
352,248,73261,1,0,0:0:0:0:
240,336,73614,2,0,P|192:344|168:320,1,75
96,224,74320,1,0,0:0:0:0:
176,96,74673,6,0,P|208:80|248:80,1,75
224,144,75202,1,0,0:0:0:0:
264,192,75379,2,0,P|240:208|192:200,1,75
48,200,76085,2,0,P|32:224|40:272,1,75
160,336,76790,1,0,0:0:0:0:
304,280,77143,2,0,L|352:272,2,37.5
168,216,77849,1,0,0:0:0:0:
240,88,78202,6,0,P|304:64|376:104,1,150
296,304,79614,1,0,0:0:0:0:
144,272,79967,2,0,P|112:256|104:216,1,75
160,96,80673,1,0,0:0:0:0:
304,80,81026,2,0,P|336:88|352:128,1,75
336,272,81732,2,0,P|312:304|272:312,1,75
216,312,82261,1,0,0:0:0:0:
160,288,82437,1,0,0:0:0:0:
112,160,82790,6,0,P|112:120|144:96,1,75
296,72,83496,1,0,0:0:0:0:
408,176,83849,2,0,P|424:216|408:240,1,75
288,280,84555,2,0,P|248:272|240:240,1,75
264,128,85261,2,0,P|288:104|328:104,1,75
256,192,85967,12,0,88496,0:0:0:0:
