osu file format v12

[General]
AudioFilename: Dansai Bunri no Crime Edge OP.mp3
AudioLeadIn: 0
PreviewTime: -1
Countdown: 0
SampleSet: Soft
StackLeniency: 0.7
Mode: 0
LetterboxInBreaks: 1
EpilepsyWarning: 1

[Editor]
DistanceSpacing: 1
BeatDivisor: 6
GridSize: 8

[Metadata]
Title:Unmei no Ori (TV Sice)
TitleUnicode:Unmei no Ori (TV Sice)
Artist:Aimi
ArtistUnicode:Aimi
Creator:usagi-tan
Version:Easy
Source:Dansai Bunri no Crime Edge
Tags:Kami Kiri Iwai
BeatmapID:249096
BeatmapSetID:91937

[Difficulty]
HPDrainRate:3
CircleSize:4
OverallDifficulty:5
ApproachRate:5
SliderMultiplier:1.4
SliderTickRate:1

[Events]
//Background and Video events
Video,0,"Dansai Bunri no Crime Edge OP.avi"
0,0,"Dansai-Bunri-no-Crime-Edge-01-01.jpg",0,0
//Break Periods
2,9991,15647
//Storyboard Layer 0 (Background)
//Storyboard Layer 1 (Fail)
//Storyboard Layer 2 (Pass)
//Storyboard Layer 3 (Foreground)
//Storyboard Sound Samples
//Background Colour Transformations
3,100,128,128,255

[TimingPoints]
11085.0568323784,705.552878965922,4,2,0,100,1,0
11185.0568323784,-100,4,2,0,35,0,0
11285.0568323784,-100,4,2,0,60,0,0
67044,-100,4,2,0,100,0,0
68234,-100,4,2,0,100,0,0
68499,-100,4,2,0,80,0,0
71498,-100,4,2,0,100,0,0
86226,-100,4,2,0,100,0,0

[HitObjects]
72,248,4029,2,0,P|56:192|112:136,1,140
208,96,5440,1,0,0:0:0:0:
328,104,6146,1,0,0:0:0:0:
360,216,6851,2,0,L|360:296,2,70
256,192,8380,12,0,9791,0:0:0:0:
352,288,16847,5,0,0:0:0:0:
360,184,17523,2,0,P|344:120|280:96,1,140
168,112,18934,1,0,0:0:0:0:
104,208,19669,6,0,P|112:280|176:312,2,140
144,112,21756,1,0,0:0:0:0:
256,80,22462,1,0,0:0:0:0:
352,128,23167,6,0,L|384:272,1,140
256,296,24578,1,0,0:0:0:0:
112,264,25284,2,0,L|152:128,1,140
256,88,26695,1,0,0:0:0:0:
344,176,28018,5,0,0:0:0:0:
280,280,28812,2,0,L|144:320,2,140
336,184,30928,1,0,0:0:0:0:
224,184,31634,1,0,0:0:0:0:
112,184,32339,1,0,0:0:0:0:
152,296,33045,6,0,P|224:328|296:312,1,140
368,240,34456,1,0,0:0:0:0:
368,136,35162,1,0,0:0:0:0:
272,72,35867,2,0,P|192:48|128:72,2,140
336,200,37984,1,0,0:0:0:0:
192,288,39307,6,0,P|112:256|112:184,1,157.5
168,96,40806,1,0,0:0:0:0:
288,80,41512,1,0,0:0:0:0:
384,168,42129,6,0,P|376:256|320:288,1,157.5
208,296,43540,2,0,L|128:296,2,70
384,208,45127,5,0,0:0:0:0:
320,120,45833,2,0,P|264:88|200:96,1,122.5
112,160,47156,1,0,0:0:0:0:
192,264,47862,6,0,P|288:288|312:264,1,140
256,152,49273,2,0,L|256:72,2,70
160,136,50684,5,0,0:0:0:0:
256,72,51389,2,0,P|328:64|368:112,1,140
368,232,52800,1,0,0:0:0:0:
256,296,53506,5,0,0:0:0:0:
144,272,54211,2,0,P|80:232|96:160,1,157.5
176,88,55711,1,0,0:0:0:0:
296,152,56328,6,0,L|360:200,2,70
224,240,57739,2,0,L|248:320,2,70
136,176,59150,5,0,0:0:0:0:
192,80,59856,2,0,P|264:48|328:72,1,140
272,80,63384,5,0,0:0:0:0:
360,152,64089,2,0,P|376:224|344:280,1,140
240,320,65500,1,0,0:0:0:0:
136,280,66206,1,0,0:0:0:0:
80,184,66911,1,0,0:0:0:0:
168,112,67617,6,0,L|248:88,2,70
344,64,69028,1,0,0:0:0:0:
168,152,69734,1,0,0:0:0:0:
344,240,70439,1,0,0:0:0:0:
176,304,71145,1,0,0:0:0:0:
88,216,71880,6,0,P|64:136|104:88,1,140
216,80,73291,1,0,0:0:0:0:
328,128,73996,1,0,0:0:0:0:
344,248,74702,5,0,0:0:0:0:
240,288,75407,2,0,P|152:280|112:232,1,140
104,128,76819,1,0,0:0:0:0:
208,64,77524,1,0,0:0:0:0:
336,112,78230,2,0,L|392:160,2,70
208,128,80317,5,0,0:0:0:0:
192,232,81022,2,0,P|208:296|280:320,1,140
384,296,82463,1,0,0:0:0:0:
400,168,83169,6,0,P|376:96|312:72,1,140
200,72,84580,2,0,P|128:112|120:176,1,140
256,192,86226,12,0,88960,0:0:0:0:
