osu file format v12

[General]
AudioFilename: Dansai Bunri no Crime Edge OP.mp3
AudioLeadIn: 0
PreviewTime: -1
Countdown: 0
SampleSet: Soft
StackLeniency: 0.7
Mode: 0
LetterboxInBreaks: 1
EpilepsyWarning: 1

[Editor]
DistanceSpacing: 1
BeatDivisor: 6
GridSize: 8

[Metadata]
Title:Unmei no Ori (TV Sice)
TitleUnicode:Unmei no Ori (TV Sice)
Artist:Aimi
ArtistUnicode:Aimi
Creator:usagi-tan
Version:Easy+
Source:Dansai Bunri no Crime Edge
Tags:Kami Kiri Iwai
BeatmapID:249105
BeatmapSetID:91937

[Difficulty]
HPDrainRate:6
CircleSize:4
OverallDifficulty:6
ApproachRate:6
SliderMultiplier:1.4
SliderTickRate:1

[Events]
//Background and Video events
Video,0,"Dansai Bunri no Crime Edge OP.avi"
0,0,"Dansai-Bunri-no-Crime-Edge-01-01.jpg",0,0
//Break Periods
2,9785,15797
//Storyboard Layer 0 (Background)
//Storyboard Layer 1 (Fail)
//Storyboard Layer 2 (Pass)
//Storyboard Layer 3 (Foreground)
//Storyboard Sound Samples
//Background Colour Transformations
3,100,128,128,255

[TimingPoints]
11085.0568323784,705.552878965922,4,2,0,100,1,0
11185.0568323784,-100,4,2,0,35,0,0
11285.0568323784,-100,4,2,0,60,0,0
67044,-100,4,2,0,5,0,0
68234,-100,4,2,0,100,0,0
68499,-100,4,2,0,80,0,0
71498,-100,4,2,0,100,0,0
86226,-100,4,2,0,100,0,0

[HitObjects]
192,144,4117,1,0,0:0:0:0:
328,136,4823,2,0,L|392:88,2,70
312,256,6234,1,0,0:0:0:0:
168,248,6939,2,0,L|104:296,2,70
312,128,8351,2,0,L|336:112,14,17.5
152,256,16847,6,0,L|96:208,2,70
256,288,18258,1,0,0:0:0:0:
360,256,18963,2,0,L|424:208,2,70
256,208,20374,1,0,0:0:0:0:
256,160,20727,1,0,0:0:0:0:
256,112,21080,1,0,0:0:0:0:
328,128,22491,5,0,0:0:0:0:
184,128,23197,1,0,0:0:0:0:
192,264,23902,2,0,P|256:288|328:256,1,140
376,184,25313,5,0,0:0:0:0:
296,96,26019,1,0,0:0:0:0:
160,88,26724,2,0,L|104:152,1,70
256,192,28135,5,0,0:0:0:0:
336,272,28841,2,0,L|392:336,2,70
208,256,30252,1,0,0:0:0:0:
152,240,30605,1,0,0:0:0:0:
120,192,30958,1,0,0:0:0:0:
176,88,31663,6,0,P|240:64|304:96,1,140
360,184,33074,1,0,0:0:0:0:
296,288,33780,6,0,P|256:304|216:296,2,70
336,248,34838,1,0,0:0:0:0:
336,184,35191,1,0,0:0:0:0:
288,88,35896,6,0,P|224:48|152:72,1,140
96,160,37308,1,0,0:0:0:0:
168,256,38013,2,0,L|216:320,2,70
248,136,39424,5,0,0:0:0:0:
312,136,39777,2,0,L|384:88,2,70
296,200,40835,1,0,0:0:0:0:
224,288,41541,1,0,0:0:0:0:
104,192,42246,6,0,P|96:136|112:120,2,70
144,232,43305,1,0,0:0:0:0:
208,248,43658,1,0,0:0:0:0:
328,216,44363,1,0,0:0:0:0:
320,112,45069,5,0,0:0:0:0:
264,80,45421,2,0,P|192:72|152:120,1,140
136,184,46480,1,0,0:0:0:0:
248,240,47185,1,0,0:0:0:0:
312,296,47891,6,0,P|240:320|184:288,1,140
200,192,49273,2,0,P|256:152|304:192,1,140
376,184,50772,6,0,P|360:112|312:96,1,122.5
264,88,51742,1,0,0:0:0:0:
208,88,52095,1,0,0:0:0:0:
112,144,52800,1,0,0:0:0:0:
168,280,53535,5,0,0:0:0:0:
224,296,53888,1,0,0:0:0:0:
288,288,54241,2,0,P|344:240|352:184,1,122.5
312,96,55652,1,0,0:0:0:0:
168,152,56328,5,0,0:0:0:0:
136,208,56681,2,0,L|136:240,2,17.5
256,216,57386,1,0,0:0:0:0:
288,256,57739,2,0,L|288:280,4,17.5
256,192,60561,12,0,62678,0:0:0:0:
136,200,63413,5,0,0:0:0:0:
200,272,64119,1,0,0:0:0:0:
320,272,64824,2,0,P|360:264|368:224,2,70
264,248,65882,1,0,0:0:0:0:
240,192,66235,1,0,0:0:0:0:
312,96,66941,5,0,0:0:0:0:
368,184,67411,2,0,L|384:216,5,35
184,264,69057,5,0,0:0:0:0:
328,128,69763,1,0,0:0:0:0:
176,128,70469,1,0,0:0:0:0:
320,248,71174,1,0,0:0:0:0:
144,208,71762,6,0,B|160:104|272:128|272:128,1,157.5
320,224,73291,2,0,P|304:288|224:280,1,157.5
128,224,74673,5,0,0:0:0:0:
128,160,75025,1,0,0:0:0:0:
160,112,75378,2,0,P|232:72|288:104,1,140
376,184,76789,1,0,0:0:0:0:
296,296,77495,6,0,L|224:296,1,70
176,288,78200,1,0,0:0:0:0:
120,264,78553,1,0,0:0:0:0:
80,216,78906,1,0,0:0:0:0:
176,128,80317,6,0,L|232:72,2,70
136,168,81375,1,0,0:0:0:0:
144,224,81728,1,0,0:0:0:0:
240,296,82434,1,0,0:0:0:0:
320,224,83139,6,0,P|328:176|312:152,1,70
256,120,83845,2,0,P|208:120|184:144,1,70
168,208,84550,2,0,P|176:248|216:256,1,70
280,264,85256,1,0,0:0:0:0:
256,192,86050,12,0,88960,0:0:0:0:
