osu file format v9

[General]
AudioFilename: Tenshi no CLOVER.mp3
AudioLeadIn: 1000
PreviewTime: 57607
Countdown: 0
SampleSet: Soft
StackLeniency: 0.5
Mode: 0
LetterboxInBreaks: 1

[Editor]
DistanceSpacing: 1.1
BeatDivisor: 4
GridSize: 8

[Metadata]
Title:Tenshi no CLOVER (TV Size)
Artist:Aimi
Creator:kanpakyin
Version:Hard
Source:Astarotte no Omocha!
Tags:astarotte's toy Joshua Lost OP opening Jojo

[Difficulty]
HPDrainRate:5
CircleSize:4
OverallDifficulty:6
ApproachRate:7
SliderMultiplier:1.4
SliderTickRate:1

[Events]
//Background and Video events
0,0,"BG.jpg"
Video,0,"video.avi"
//Break Periods
//Storyboard Layer 0 (Background)
//Storyboard Layer 1 (Fail)
//Storyboard Layer 2 (Pass)
//Storyboard Layer 3 (Foreground)
//Storyboard Sound Samples
//Background Colour Transformations
3,100,163,162,255

[TimingPoints]
242,375,4,2,1,50,1,0
1742,-133.333333333333,4,2,1,50,0,0
4367,-100,4,1,1,50,0,0
16742,-100,4,2,1,50,0,0
22367,-100,4,1,1,50,0,0
25742,-100,4,2,1,50,0,0
31460,-100,4,1,1,50,0,0
35679,-100,4,1,1,40,0,0
57804,-100,4,2,1,40,0,0
58742,-100,4,1,1,50,0,1
63148,-100,4,2,1,50,0,1
63335,-100,4,1,1,50,0,1
72148,-100,4,2,1,50,0,1
72335,-100,4,1,1,50,0,1
82742,-100,4,2,1,50,0,0

[Colours]
Combo1 : 249,255,0
Combo2 : 40,205,31

[HitObjects]
146,252,1742,2,0,B|35:252,2,104.999996870756,4|2|0
217,218,2679,2,0,B|280:218,2,52.4999984353781,2|0|2
330,108,3429,2,0,B|445:109,1,104.999996870756,2|8
147,141,4554,5,8
147,141,4648,1,8
147,141,4742,2,0,B|95:141|95:141|60:153|60:153|4:155,2,140,4|8|0
126,222,5679,1,2
208,203,5867,2,0,B|361:203,1,140,0|0
411,258,6429,5,0
391,277,6523,1,0
371,296,6617,2,0,B|338:332|312:349,1,70,8|2
244,290,6992,2,0,B|179:296|149:292,1,70
163,210,7367,2,0,B|112:199|80:171,2,70,0|0|4
237,170,7929,6,0,B|404:172,1,140,0|2
445,122,8492,1,0
460,197,8679,1,0
445,122,8867,2,0,B|414:113|386:80|386:80|355:96|290:78,1,140,8|0
239,61,9429,5,0
171,113,9617,1,8
83,90,9804,1,0
83,111,9898,1,0
83,132,9992,1,0
83,152,10085,1,0
83,173,10179,1,0
121,250,10367,2,0,B|166:277|166:277|198:257|270:262,1,140,8|4
334,272,10929,5,0
334,272,11117,2,0,B|384:304|399:342,2,70,8|2|0
306,351,11679,1,0
306,351,11867,2,0,B|306:181,1,140,8|0
228,108,12429,2,0,B|229:249,1,140,2|2
145,259,12992,2,0,B|121:207|73:196,1,70
60,280,13367,2,0,B|31:309|34:357,1,70,8|2
118,338,13742,6,0,B|155:357|205:343,1,70
253,297,14117,1,8
312,239,14304,2,0,B|343:219|425:222|458:248,2,140,2|0|2
167,101,15242,6,0,B|69:77,1,70,4|0
176,278,15617,2,0,B|218:203,1,70,8|8
345,101,15992,2,0,B|443:77,1,70
336,278,16367,2,8,B|294:203,1,70
254,147,16742,5,4
254,147,17117,1,2
254,147,17304,2,0,B|184:160|184:160|88:144,1,140,0|2
45,199,17867,1,0
45,199,18054,2,0,B|67:252|90:269,1,70,0|2
162,242,18429,2,0,B|206:276|244:264,1,70,0|0
304,297,18804,2,0,B|344:261|392:250,1,70,2|0
387,178,19179,1,2
256,70,19554,1,2
179,105,19742,6,0,B|124:103|124:103|91:116|91:116|15:117,2,140,4|0|2
155,185,20679,1,0
236,165,20867,1,2
214,246,21054,2,0,B|380:246,2,140,0|6|2
214,246,22179,1,2
120,106,22554,5,8
120,106,22648,1,8
120,106,22742,2,0,B|156:79|205:90,1,70,0|2
194,170,23117,2,0,B|255:167|285:194,1,70,8|8
238,260,23492,2,0,B|277:287|286:331,1,70,0|2
199,334,23867,2,0,B|364:335,1,140,8|8
368,256,24429,5,2
368,256,24617,2,0,B|427:244|437:208,1,70,0|0
144,256,24992,2,0,B|85:244|75:208,1,70,8|10
257,308,25367,2,0,B|256:140,2,140,8|4|8
174,290,26304,1,2
93,316,26492,1,0
101,232,26679,2,0,B|89:202|89:202|39:175,1,70,2|8
59,78,27054,2,0,B|76:112|76:112|120:135,1,70,0|0
186,106,27429,6,0,B|198:142|198:142|188:179,1,70,0|8
110,202,27804,2,0,B|82:271|82:271|112:335,2,140,2|2|4
194,201,28742,2,0,B|271:202|254:232|335:229,2,140,2|8|0
201,284,29679,1,2
201,284,29773,1,0
201,284,29867,2,0,B|55:283,2,140,8|4|8
275,324,30804,5,2
318,150,31179,1,2
252,96,31367,1,8
173,126,31554,1,8
149,120,31648,1,8
125,124,31742,2,0,B|27:124,2,70,0|0|8
323,258,32304,2,0,B|415:259,2,70
281,124,32867,2,0,B|279:36,2,70,8|0|0
194,232,33429,2,0,B|194:323,2,70,8|0|0
275,209,33992,5,0
275,209,34179,2,0,B|275:281,2,70
274,184,34648,1,0
274,159,34742,2,0,B|289:117|328:101,2,70
183,109,35492,5,8
183,109,35867,2,0,B|164:147|125:152|125:152|134:188|122:230,1,140,0|8
158,293,36429,1,2
236,324,36617,1,0
315,296,36804,1,0
375,236,36992,2,0,B|372:202|382:150,1,70,8|2
290,65,37367,2,0,B|300:118|299:156,2,70,0|0|8
218,108,37929,5,2
204,92,38023,1,0
186,80,38117,2,0,B|148:67|94:78,2,70,0|0|8
147,155,38679,1,2
147,155,38867,2,0,B|89:168|73:205,1,70
149,241,39242,6,0,B|1:242,2,140,12|0|8
232,240,40179,1,2
232,240,40367,2,0,B|283:239|283:239|317:254|317:254|397:257,2,140,0|12|0
248,320,41304,1,2
167,294,41492,2,0,B|82:293,1,70,8|2
115,210,41867,2,0,B|75:184|73:132,1,70
161,146,42242,6,0,B|3:146,2,140,4|0|8
236,108,43179,1,2
236,108,43367,2,0,B|334:77,1,70
328,166,43742,6,0,B|401:136,1,70,8|2
408,222,44117,2,0,B|482:195,2,70,0|2|8
360,280,44679,1,2
367,299,44773,1,0
373,319,44867,1,0
281,238,45054,5,0
281,238,45242,2,0,B|251:210|202:205,1,70,8|2
212,291,45617,2,0,B|144:264|66:290,2,140,8|8|8
202,207,46554,1,2
269,156,46742,6,0,B|267:112|267:112|277:68|277:68|278:17,2,140,4|0|8
342,195,47679,2,0,B|363:233|339:285,1,70,2|0
265,243,48054,2,0,B|247:285|272:331,1,70,0|8
181,332,48429,1,2
181,332,48617,2,0,B|162:300|88:281|35:297,2,140,0|8|0
234,267,49554,5,2
234,267,49648,1,0
234,267,49742,2,0,B|275:289|294:334,1,70,8|0
259,165,50117,2,0,B|236:137|241:87,1,70,8|0
174,201,50492,2,0,B|149:177|59:176|30:202,2,140,8|0|8
207,277,51429,5,2
286,303,51617,1,0
366,281,51804,2,0,B|425:267|457:279,1,70,0|8
429,190,52179,1,2
429,190,52367,2,0,B|470:198|503:230,2,70,0|2|8
320,61,53117,5,0
258,217,53492,1,12
258,217,53867,2,0,B|179:217,1,70,0|2
185,301,54242,2,0,B|147:298|115:288|115:288|83:301|38:302,2,140,8|0|8
269,301,55179,1,2
269,301,55367,2,0,B|292:336|273:370,1,70,0|2
256,192,55742,12,4,57617
258,192,57992,5,2
258,192,58179,1,2
187,133,58367,1,2
187,133,58742,6,0,B|135:134|135:134|102:146|102:146|39:146,2,140,4|8|0
181,56,59679,1,2
257,81,59867,2,0,B|331:77|322:107|402:104,1,140,8|0
477,99,60429,2,0,B|508:69,2,35,0|0|8
428,167,60804,6,0,B|436:214|462:233|462:233|449:264|469:318,1,140,2|2
343,185,61367,2,0,B|313:215|245:233|183:196,1,140,8|4
145,260,61929,1,0
145,260,62117,2,0,B|102:234|90:204,2,70,8|0|2
211,312,62679,2,0,B|218:357|167:384,1,70,0|8
298,290,63054,6,0,B|318:257|356:245,1,70,0|4
389,321,63429,2,0,B|387:162,1,140,2|2
471,183,63992,1,0
431,108,64179,1,2
346,108,64367,1,8
309,183,64554,5,8
309,183,64648,1,8
309,183,64742,2,0,B|162:183,1,140,2|8
131,257,65304,2,0,B|96:273|85:314|110:329|125:307|105:294|73:291|30:304,2,140,2|2|2
215,254,66242,2,0,B|241:293|319:292|359:245,1,140,4|8
353,179,66804,2,0,B|372:147|464:146|495:190,2,140,0|2|2
256,192,67742,12,8,69242
159,123,69617,6,0,B|70:88,1,70,8|2
353,123,69992,2,0,B|442:88,1,70
255,280,70367,2,0,B|255:208,2,70,8|2|4
115,185,71117,6,0,B|115:108,2,70,8|2|0
200,216,71679,1,2
200,216,71867,2,0,B|200:259|200:259|210:300|210:300|209:367,2,140,8|4|8
278,237,72804,2,0,B|278:185|278:185|286:148|286:148|284:79,1,140,2|0
209,59,73367,1,8
130,89,73554,1,2
99,167,73742,2,0,B|13:141,1,70
138,261,74117,2,0,B|44:232,1,70,8|2
198,331,74492,6,0,B|284:305,1,70
229,234,74867,2,0,B|323:205,1,70,8|2
256,192,75242,12,2,76179
150,111,76554,1,8
72,137,76742,2,0,B|70:170|94:197|94:197|68:208|70:273,1,140,8|8
153,259,77304,2,0,B|300:259,1,140,2|2
262,337,77867,5,8
262,337,78054,1,0
456,192,78429,1,2
262,47,78804,1,2
56,192,79179,1,0
135,220,79367,2,0,B|119:255|71:287|8:261,2,140,8|2|8
218,218,80304,5,8
218,218,80492,2,0,B|374:218,1,140,0|8
406,149,81054,1,2
359,79,81242,2,0,B|221:78,1,140,4|8
153,130,81804,2,0,B|78:128|99:160|10:158,2,140,8|0|2
256,192,82742,12,6,84242
