osu file format v9

[General]
AudioFilename: Tenshi no CLOVER (TV Size).mp3
AudioLeadIn: 0
PreviewTime: 57410
Countdown: 0
SampleSet: Soft
StackLeniency: 0.7
Mode: 0
LetterboxInBreaks: 1

[Editor]
Bookmarks: 34565
DistanceSpacing: 1
BeatDivisor: 4
GridSize: 8

[Metadata]
Title:Tenshi no CLOVER (TV Size)
Artist:Aimi
Creator:Vicho-kun
Version:happy no CLOVER
Source:Astarotte no Omocha!
Tags:Astarotte's Toy Lotte Verdisphena KanaRin happy30 Kenezz KenezzEdward

[Difficulty]
HPDrainRate:7
CircleSize:4
OverallDifficulty:8
ApproachRate:8
SliderMultiplier:1.8
SliderTickRate:1

[Events]
//Background and Video events
Video,-192,"video.avi"
0,0,"lotteBG.jpg"
//Break Periods
//Storyboard Layer 0 (Background)
//Storyboard Layer 1 (Fail)
//Storyboard Layer 2 (Pass)
//Storyboard Layer 3 (Foreground)
//Storyboard Sound Samples
//Background Colour Transformations
3,100,163,162,255

[TimingPoints]
1565,375,4,2,1,50,1,0
3440,-200,4,2,1,50,0,0
4565,-100,4,2,1,50,0,0
16565,-133.333333333333,4,2,1,50,0,0
22565,-100,4,2,1,50,0,0
25190,-133.333333333333,4,2,1,50,0,0
25940,-100,4,2,1,50,0,0
57440,-200,4,2,1,50,0,0
58565,-100,4,2,1,50,0,1
82565,-200,4,2,1,50,0,0

[Colours]
Combo1 : 168,237,39
Combo2 : 190,20,139
Combo3 : 185,0,0
Combo4 : 234,222,0

[HitObjects]
256,80,3627,2,0,B|296:160|216:184|256:256,1,180
264,273,4471,1,0
274,293,4565,6,0,B|384:336|448:232,1,180,0|10
376,184,5127,1,0
376,184,5221,1,0
376,184,5315,2,0,B|320:192|288:160,1,90,0|2
208,192,5690,2,0,B|98:149|34:253,1,180,8|0
104,304,6252,6,0,B|160:296|192:328,1,90,2|8
264,272,6627,1,2
328,336,6815,2,0,B|438:379|502:275,1,180,0|10
232,88,7565,6,0,B|122:45|58:149,1,180,0|10
112,208,8127,1,0
112,208,8221,1,0
112,208,8315,2,0,B|168:200|200:232,1,90,0|2
272,184,8690,2,0,B|382:141|446:245,1,180,8|0
392,304,9252,6,0,B|336:296|304:328,1,90,2|8
232,368,9627,1,2
144,344,9815,1,0
88,280,10002,1,0
88,280,10096,1,0
88,280,10190,1,10
104,192,10377,5,10
104,192,10471,1,0
104,192,10565,2,0,B|168:112|200:232|280:112,1,180,0|10
336,184,11127,1,0
336,184,11221,1,0
336,184,11315,2,0,B|376:152|424:144,1,90,0|2
480,304,11690,2,0,B|429:388|319:345,1,180,8|0
232,360,12252,6,0,B|192:328|144:320,1,90,0|10
88,256,12627,1,0
88,256,12721,1,0
88,256,12815,2,0,B|128:224|176:216,1,90,0|0
208,136,13190,2,0,B|168:104|120:96,1,90,10|0
256,272,13565,6,0,B|320:192|352:312|432:192,1,180,4|10
480,88,14127,2,0,B|504:144|496:200,1,90,0|0
488,264,14502,1,2
352,360,14690,2,0,B|328:304|336:248,1,90,8|2
376,192,15065,5,4
328,120,15252,1,2
240,152,15440,1,8
248,240,15627,1,10
248,240,15721,1,0
248,240,15815,1,8
200,320,16002,1,10
112,320,16190,1,8
112,320,16283,1,8
112,320,16377,1,8
112,320,16471,1,8
112,320,16565,6,0,B|56:272|-24:296,2,134.999995976687
176,256,17502,2,0,B|224:264|264:256,1,67.4999979883433,0|2
120,184,17877,2,0,B|72:192|32:184,2,67.4999979883433,0|0|0
184,128,18440,5,2
184,128,18627,2,0,B|264:104|328:168,1,134.999995976687
344,232,19190,1,2
304,312,19377,1,2
304,312,19471,1,0
304,312,19565,2,0,B|360:360|440:336,1,134.999995976687,0|2
496,280,20127,5,0
456,200,20315,1,2
496,280,20502,1,0
296,144,20877,1,4
168,264,21252,1,0
208,192,21440,1,2
176,112,21627,2,0,B|120:64|40:88,1,134.999995976687,0|2
296,336,22377,5,8
296,336,22471,1,0
296,336,22565,2,0,B|392:360|448:312|472:256,1,180,0|8
480,136,23127,2,0,B|384:112|328:160|304:216,1,180,2|2
240,112,23690,2,0,B|144:136|88:88|64:32,1,180,8|8
192,208,24252,6,0,B|216:304|168:360|112:384,1,180,2|2
48,352,24815,1,8
8,272,25002,1,2
64,208,25190,6,0,B|136:200|192:128,1,134.999995976687,8|4
240,80,25752,5,0
312,136,25940,2,0,B|360:160|432:136,2,90,2|0|0
248,200,26502,2,0,B|200:176|128:200,1,90,0|2
304,280,26877,6,0,B|343:295|391:271,2,90,0|0|0
232,336,27440,1,2
152,296,27627,2,0,B|128:192|48:144,1,180
16,232,28190,1,2
176,48,28377,2,0,B|160:96|176:152,1,90,0|4
328,224,28940,5,2
384,160,29127,1,0
384,160,29221,1,0
384,160,29315,2,0,B|432:184|504:160,2,90,0|0|2
312,104,29877,2,0,B|336:56|312:-16,1,90,0|0
160,72,30252,6,0,B|136:120|160:192,1,90,0|2
208,240,30627,1,0
384,240,31002,1,0
424,320,31190,1,10
352,368,31377,5,8
352,368,31471,1,8
352,368,31565,2,0,B|280:312|160:352,1,180,4|8
8,224,32127,2,0,B|80:280|200:240,1,180,2|2
256,192,32690,1,8
472,232,33065,5,8
432,312,33252,2,0,B|360:368|240:328,1,180,2|2
64,144,33815,1,8
72,168,33908,1,8
72,192,34002,1,8
64,216,34096,1,8
48,232,34190,2,8,B|24:280|56:328,1,90,8|2
128,360,34565,5,12
232,312,34752,1,2
152,224,34940,1,0
264,184,35127,1,2
296,96,35315,5,8
296,96,35690,2,0,B|248:64|184:64,1,90,8|2
136,112,36065,1,8
280,224,36440,6,0,B|328:192|392:192,1,90,8|2
440,240,36815,1,8
488,136,37002,1,2
416,40,37190,1,0
304,56,37377,1,2
368,152,37565,5,12
264,200,37752,1,2
344,288,37940,1,0
232,328,38127,1,2
152,280,38315,5,8
152,280,38502,2,0,B|112:304|64:280,2,90,2|8|2
216,216,39065,1,10
216,216,39252,2,0,B|256:240|304:216,1,90,2|8
168,144,39627,2,0,B|128:120|80:144,1,90,2|8
240,352,40002,2,0,B|288:280|336:360|400:248,1,180,2|2
440,192,40565,5,12
488,88,40752,1,2
376,128,40940,1,0
392,16,41127,1,2
296,80,41315,2,0,B|248:168|336:176|272:264,1,180,8|0
224,320,41877,5,2
224,320,42065,1,8
176,240,42252,2,0,B|88:192|-8:256,1,180,2|2
40,336,42815,1,8
208,160,43002,2,0,B|296:112|392:176,1,180,2|2
379,167,43471,1,0
379,167,43565,1,8
424,272,43752,5,2
312,248,43940,1,0
320,368,44127,1,2
224,304,44315,1,8
144,352,44502,2,0,B|96:368|40:344,1,90,2|0
24,264,44877,5,2
24,264,44971,1,0
24,264,45065,1,8
88,200,45252,1,2
224,304,45440,2,0,B|272:320|328:296,1,90,8|2
456,128,45815,2,8,B|403:213|489:225|421:310,1,180,8|8
184,56,46565,5,12
296,96,46752,1,2
192,152,46940,1,0
296,200,47127,1,2
376,232,47315,5,8
376,232,47690,2,0,B|392:288|376:328,1,90,8|2
296,360,48065,1,8
64,216,48440,6,0,B|48:160|64:120,1,90,8|2
144,88,48815,1,8
192,192,49002,1,2
272,112,49190,2,0,B|288:56|264:16,1,90,8|2
456,160,49565,6,0,B|440:216|456:256,1,90,12|2
400,336,49940,1,0
320,296,50127,6,0,B|336:240|320:200,1,90,2|8
112,248,50502,1,2
112,248,50690,2,0,B|96:304|112:344,1,90,0|2
216,224,51065,1,8
176,144,51252,5,2
88,112,51440,2,0,B|40:112|0:152,2,90,0|2|8
176,144,52002,2,0,B|248:224|368:200,1,180,2|2
416,160,52565,5,12
504,232,52752,1,2
400,280,52940,1,0
488,352,53127,1,2
376,384,53315,1,8
304,336,53502,6,0,B|264:304|200:320,1,90,2|8
136,360,53877,1,2
248,216,54065,2,0,B|288:184|352:200,1,90,12|2
192,112,54440,2,0,B|152:80|88:96,1,90,0|2
64,176,54815,1,8
304,120,55002,2,0,B|304:72|280:24,1,90,2|8
284,32,55283,1,0
284,32,55377,1,2
176,152,55565,5,12
176,152,55658,1,0
176,152,55752,1,2
328,208,55940,1,8
328,208,56033,1,0
328,208,56127,1,2
176,256,56315,1,8
176,256,56408,1,0
176,256,56502,1,2
336,312,56690,1,8
336,312,56783,1,0
336,312,56877,1,2
440,208,57065,5,8
400,72,57252,1,8
256,54,57440,6,0,B|305:152|206:182|256:270,1,225,12|8
264,291,58471,1,8
272,312,58565,6,0,B|224:344|152:320,1,90
16,256,58940,2,0,B|72:208|168:248,1,135,14|0
143,239,59315,2,0,B|176:208|176:152,1,90,8|8
136,40,59690,1,10
304,24,59877,6,0,B|271:55|271:111,1,90,0|8
368,256,60252,2,0,B|400:224|400:168,1,90,8|10
488,176,60627,2,0,B|496:288|424:336,1,180,0|8
336,368,61190,1,10
256,320,61377,5,10
256,320,61471,1,8
256,320,61565,2,0,B|200:328|160:320,1,90,4|0
32,248,61940,2,0,B|88:240|128:248,1,90,10|0
121,246,62221,1,0
121,246,62315,1,8
168,168,62502,1,8
232,232,62690,1,10
320,216,62877,1,0
352,128,63065,6,0,B|368:80|344:32,1,90,8|0
208,120,63440,1,10
120,152,63627,2,0,B|104:104|128:56,1,90,0|10
264,200,64002,1,0
184,320,64190,5,10
160,328,64283,1,8
136,336,64377,1,8
112,344,64471,1,8
88,352,64565,2,0,B|0:304|24:184,1,180,12|10
72,128,65127,1,0
136,192,65315,1,8
136,192,65502,2,0,B|192:208|248:200,1,90,8|10
416,48,65877,6,0,B|360:32|304:40,1,90,0|8
264,104,66252,1,8
376,240,66440,6,0,B|392:184|384:128,1,90,10|0
184,248,66815,2,0,B|168:304|176:360,1,90,8|8
16,256,67190,1,10
40,176,67377,6,0,B|88:160|152:168,1,90,0|12
184,248,67752,1,0
272,312,67940,2,0,B|320:328|384:320,1,90,10|0
448,232,68315,1,8
392,120,68502,2,0,B|344:104|280:112,1,90,8|10
216,200,68877,1,0
128,288,69065,5,12
32,200,69252,1,8
128,112,69440,1,10
216,200,69627,1,8
264,320,69815,1,12
376,264,70002,1,10
376,264,70096,1,8
376,264,70190,1,8
328,152,70377,1,10
136,240,70565,6,0,B|112:304|136:344,1,90,12|0
296,192,70940,2,0,B|328:120|304:56,1,135,10|0
306,61,71315,2,0,B|344:24|408:32,1,90,8|8
496,168,71690,2,0,B|458:205|394:197,1,90,10|0
360,272,72065,5,8
208,136,72252,2,0,B|168:104|104:104,1,90,8|10
48,152,72627,1,0
136,232,72815,1,8
24,264,73002,1,8
112,344,73190,2,0,B|155:344|195:312,1,90,10|0
280,336,73565,6,0,B|280:240|360:168,1,180,12|10
440,168,74127,1,0
440,168,74221,1,0
440,168,74315,1,8
440,80,74502,2,0,B|376:8|280:8,1,180,8|0
216,72,75065,5,8
240,160,75252,2,0,B|248:208|216:256,1,90,0|10
16,328,75627,2,0,B|16:232|87:168,1,180,0|8
128,288,76190,5,10
144,304,76283,1,8
160,320,76377,1,8
176,336,76471,1,8
192,352,76565,2,0,B|296:400|376:320,1,180,12|10
240,176,77315,1,8
296,104,77502,2,0,B|344:80|400:88,2,90,8|10|0
240,176,78065,5,8
96,104,78252,2,0,B|48:128|-8:120,2,90,8|10|0
152,176,78815,1,8
104,248,79002,1,8
160,320,79190,2,0,B|208:344|264:320,1,90,10|0
392,224,79565,6,0,B|344:200|288:224,1,90,12|0
208,120,79940,2,0,B|256:144|312:120,1,90,10|0
295,126,80221,1,0
295,126,80315,1,8
360,64,80502,1,8
208,208,80690,6,0,B|184:256|208:312,1,90,10|0
296,368,81065,2,0,B|320:320|296:264,1,90,12|0
128,160,81440,1,10
64,224,81627,1,8
64,224,81721,1,8
64,224,81815,1,10
80,312,82002,1,8
80,312,82096,1,8
80,312,82190,1,10
80,312,82283,1,8
80,312,82377,1,8
168,344,82565,6,0,B|313:421|329:232|468:355,1,315,4|0
256,192,84065,12,4,87815
