osu file format v9

[General]
AudioFilename: Tenshi no CLOVER (TV Size).mp3
AudioLeadIn: 0
PreviewTime: 57410
Countdown: 0
SampleSet: Soft
StackLeniency: 0.7
Mode: 0
LetterboxInBreaks: 1

[Editor]
DistanceSpacing: 1
BeatDivisor: 4
GridSize: 8

[Metadata]
Title:Tenshi no CLOVER (TV Size)
Artist:Aimi
Creator:Vicho-kun
Version:Vicho no CLOVER
Source:Astarotte no Omocha!
Tags:Astarotte's Toy Lotte Verdisphena KanaRin happy30 Kenezz KenezzEdward

[Difficulty]
HPDrainRate:7
CircleSize:4
OverallDifficulty:8
ApproachRate:8
SliderMultiplier:1.8
SliderTickRate:1

[Events]
//Background and Video events
Video,-192,"video.avi"
0,0,"lotteBG.jpg"
//Break Periods
//Storyboard Layer 0 (Background)
//Storyboard Layer 1 (Fail)
//Storyboard Layer 2 (Pass)
//Storyboard Layer 3 (Foreground)
//Storyboard Sound Samples
//Background Colour Transformations
3,100,163,162,255

[TimingPoints]
1565,375,4,2,1,50,1,0
15346,-100,4,1,0,50,0,0
16658,-100,4,2,0,50,0,0
22190,-100,4,2,1,50,0,0
33721,-100,4,1,0,50,0,0
34236,-100,4,1,0,35,0,0
34518,-100,4,2,0,35,0,0
34658,-100,4,2,1,50,0,0
36158,-100,4,2,1,40,0,0
36346,-100,4,2,1,50,0,0
39158,-100,4,2,1,40,0,0
39346,-100,4,2,1,50,0,0
45158,-100,4,2,1,40,0,0
45346,-100,4,2,1,50,0,0
51158,-100,4,2,1,40,0,0
51346,-100,4,2,1,50,0,0
55096,-100,4,1,0,50,0,0
55424,-100,4,2,1,50,0,0
56783,-100,4,1,0,50,0,0
58565,-100,4,1,0,50,0,1
58846,-100,4,2,1,50,0,1
69721,-100,4,1,0,50,0,1
70658,-100,4,2,1,50,0,1
76096,-100,4,1,0,50,0,1
76846,-100,4,2,1,50,0,1
81908,-100,4,1,0,35,0,1
82565,-100,4,1,0,35,0,0
82658,-100,4,2,1,50,0,0
83971,-100,4,1,0,50,0,0
84158,-100,4,2,1,50,0,0

[Colours]
Combo1 : 168,237,39
Combo2 : 190,20,139
Combo3 : 185,0,0
Combo4 : 234,222,0

[HitObjects]
256,192,3627,1,4
152,328,4377,5,0
152,328,4471,1,0
152,328,4565,2,0,B|72:272|88:160,1,180,6|8
32,96,5127,2,0,B|96:160|208:136,1,180,2|0
199,137,5690,1,8
232,56,5877,2,0,B|272:24|328:40,1,90,2|0
368,112,6252,2,0,B|472:112,2,90,2|8|0
312,176,6815,2,0,B|208:208|216:320,1,180,2|8
136,344,7377,1,0
80,272,7565,5,2
128,192,7752,2,0,B|104:152,2,45,0|0|8
216,192,8127,1,2
232,152,8221,1,0
248,112,8315,1,0
352,112,8502,2,0,B|384:80|432:64,2,90,0|8|0
400,192,9065,2,0,B|512:192,2,90,0|2|8
352,272,9627,2,0,B|384:304|432:320,2,90,0|2|0
352,272,10190,1,8
264,304,10377,5,0
264,304,10471,1,0
264,304,10565,2,0,B|200:240|96:248,1,180,6|8
40,312,11127,2,0,B|104:240|48:112,1,180,2|0
40,56,11690,2,0,B|240:56,1,180,8|0
220,56,12252,1,0
256,136,12440,1,8
344,136,12627,1,0
376,56,12815,2,0,B|472:88|464:200,1,180,2|8
496,280,13377,1,0
408,264,13565,5,6
320,280,13752,1,0
280,280,13846,1,0
240,280,13940,1,8
168,336,14127,2,0,B|56:328|32:208,1,180,2|0
80,152,14690,1,8
176,152,14877,5,2
176,152,14971,1,0
176,152,15065,1,0
240,88,15252,1,2
240,88,15440,1,0
304,152,15627,1,0
304,152,15815,1,0
399,152,16002,5,0
407,152,16096,1,0
415,152,16190,1,0
423,152,16283,1,0
431,152,16377,1,0
439,152,16471,1,0
447,152,16565,1,0
480,240,16752,5,0
480,240,16940,1,2
304,240,17315,5,0
288,328,17502,1,0
288,328,17690,1,2
200,344,17877,1,0
200,344,17971,1,0
200,344,18065,2,0,B|160:248|40:224,1,180,0|2
88,112,18627,2,0,B|152:48|264:56,2,180,0|2|0
88,112,19565,1,0
152,184,19752,5,0
152,184,19846,1,0
152,184,19940,2,0,B|176:224|240:232,1,90,2|0
288,296,20315,2,0,B|312:248|376:240,1,90,0|0
424,304,20690,1,2
424,304,20877,2,0,B|488:232|464:120,1,180,0|2
368,144,21440,1,0
368,144,21627,2,0,B|264:136|208:56,1,180,0|0
64,192,22377,5,8
64,192,22471,1,0
64,192,22565,1,0
256,336,22940,1,8
256,336,23127,1,2
456,192,23502,5,2
456,192,23690,1,8
256,48,24065,1,8
256,48,24252,1,2
196,192,24627,1,2
196,192,24815,2,0,B|200:248|254:264|318:252|316:181,1,180,8|8
256,48,25565,5,4
168,72,25752,2,0,B|112:80|104:136,1,90,0|8
105,127,26127,1,0
48,200,26315,1,2
104,272,26502,2,0,B|112:328|168:336,1,90,0|8
216,264,26877,1,0
216,264,27065,2,0,B|400:264,1,180,2|8
456,176,27627,2,0,B|264:176,1,180,2|0
276,176,28190,1,8
224,104,28377,5,0
224,104,28565,2,0,B|104:104,1,90
64,160,28940,1,8
64,160,29127,1,0
64,160,29315,2,0,B|104:248|232:248,1,180,2|8
240,336,29877,2,0,B|208:232|296:160,1,180,2|0
282,171,30440,1,8
352,112,30627,2,0,B|480:112,2,90,2|0|0
352,112,31190,1,8
296,40,31377,5,8
256,40,31471,1,8
216,40,31565,1,4
56,192,31940,5,8
56,192,32127,1,2
256,336,32502,1,2
256,336,32690,1,8
456,192,33065,5,8
456,192,33252,1,2
256,192,33627,1,2
256,104,33815,5,0
248,104,33908,1,0
240,104,34002,1,0
232,104,34096,1,0
224,104,34190,1,0
216,104,34283,1,0
208,104,34377,1,0
200,104,34471,1,0
192,104,34565,1,4
104,72,34752,5,0
104,72,34940,2,0,B|48:76|32:130|44:194|115:192,1,180,2|8
168,256,35502,1,0
168,256,35690,2,0,B|384:256,1,180
348,256,36252,1,8
416,192,36440,2,0,B|472:188|488:134|476:70|405:72,2,180,2|8|0
328,192,37377,6,0,B|284:288,1,90,0|2
176,304,37752,2,0,B|220:208,1,90,0|0
392,272,38127,2,0,B|348:368,1,90,0|8
112,232,38502,2,0,B|156:136,1,90,0|0
149,150,38877,1,0
148,59,39065,6,0,B|36:59,2,90,2|8|0
150,151,39627,2,0,B|254:151,1,90,2|8
272,232,40002,1,2
272,232,40190,1,0
312,312,40377,2,0,B|424:336|480:248,1,180,2|0
400,192,40940,1,0
472,136,41127,1,0
472,136,41315,2,0,B|416:56|304:80,1,180,8|0
313,78,41877,1,0
248,144,42065,6,0,B|144:144,1,90,0|2
96,232,42440,2,0,B|200:232,1,90,0|2
192,56,42815,2,0,B|96:56,1,90,8|0
152,320,43190,2,0,B|240:320,1,90,0|0
242,320,43565,1,2
336,280,43752,1,0
376,184,43940,2,0,B|432:180|448:126|436:62|365:64,2,180,0|8|0
312,120,44877,6,0,B|224:120,1,90,2|0
224,32,45252,2,0,B|112:32,1,90,8|2
104,120,45627,1,0
168,192,45815,2,0,B|56:192|40:312,2,180,8|2|0
352,328,47127,5,0
352,328,47315,2,0,B|464:328|480:208,1,180,8|2
400,176,47877,1,0
352,32,48065,6,0,B|464:32|480:152,1,180,0|2
400,176,48627,1,0
400,176,48815,2,0,B|200:176,1,180,8|2
220,176,49377,1,0
168,248,49565,2,0,B|56:248|40:128,2,180,0|2|8
216,320,50502,5,0
304,320,50690,1,0
352,248,50877,2,0,B|448:248,1,90,0|2
480,160,51252,2,0,B|368:160,1,90,8|2
390,160,51627,1,0
352,80,51815,1,8
352,80,52002,2,0,B|272:24|160:56,1,180,2|0
136,128,52565,2,0,B|24:128,2,90,2|0|0
256,192,53315,1,8
144,248,53690,5,0
144,248,53877,1,0
192,336,54065,1,4
192,336,54252,1,2
256,272,54440,1,0
256,272,54627,1,2
328,336,54815,1,8
328,336,55002,1,0
368,248,55190,1,0
368,248,55283,1,0
368,248,55377,1,0
256,192,55471,12,0,56690
192,104,56877,6,0,B|136:104,2,45
256,40,57252,1,0
320,104,57440,1,0
416,56,58377,5,0
416,56,58471,1,0
416,56,58565,2,0,B|312:80|288:192,1,180,4|8
176,192,59127,1,2
176,192,59221,1,0
176,192,59315,2,0,B|144:160|80:168,2,90,0|2|8
192,312,59877,5,0
192,312,60065,2,0,B|224:344|288:336,2,90,2|0|8
72,320,60627,2,0,B|120:224|72:136,1,180,2|0
78,147,61190,1,8
104,56,61377,1,2
104,56,61471,1,0
104,56,61565,1,0
200,80,61752,5,0
200,80,61940,2,0,B|224:120|288:120,2,90,8|0|2
200,80,62502,1,0
296,280,62690,2,0,B|264:240|208:240,2,90,8|0|2
368,336,63252,1,0
368,336,63440,2,0,B|456:280|432:168,1,180,8|2
360,128,64002,2,0,B|312:120|280:80,1,90,0|8
208,32,64377,1,8
208,32,64471,1,8
208,32,64565,6,0,B|104:56|88:152,1,180,12|8
88,150,65127,1,2
128,240,65315,2,0,B|16:240,1,90,0|2
112,336,65690,2,0,B|216:336,1,90,8|2
202,336,66065,1,0
288,288,66252,1,2
288,288,66440,2,0,B|320:248|376:256,1,90,8|2
367,255,66815,1,0
432,176,67002,1,2
432,176,67096,1,0
432,176,67190,1,8
432,176,67377,6,0,B|320:160|288:48,1,180,2|0
208,72,67940,2,0,B|152:72|136:128,1,90,8|0
72,176,68315,1,2
128,248,68502,2,0,B|184:248|200:192,1,90,0|8
197,201,68877,1,0
248,280,69065,5,8
344,272,69252,1,0
384,256,69346,1,0
408,216,69440,1,8
360,136,69627,1,0
272,136,69815,5,0
248,96,69908,1,0
216,72,70002,1,0
176,64,70096,1,0
136,72,70190,1,0
104,96,70283,1,0
80,136,70377,1,0
136,208,70565,1,4
120,296,70752,5,0
208,328,70940,1,8
296,352,71127,1,0
296,352,71221,1,0
296,352,71315,2,0,B|408:344|424:216,1,180,2|8
419,241,71877,1,2
344,192,72065,6,0,B|224:192,1,90,0|2
232,192,72346,1,0
208,192,72440,1,8
184,280,72627,2,0,B|80:256|64:152,1,180,2|2
72,136,73096,2,0,B|104:96,1,45,0|8
160,40,73377,2,0,B|216:40|240:88,1,90,2|0
235,80,73752,1,0
288,152,73940,5,8
288,240,74127,1,2
288,240,74221,1,0
288,240,74315,2,0,B|392:240,2,90,0|0|8
240,312,74877,1,0
240,312,75065,2,0,B|176:288|176:288|168:208|80:208,1,180,2|8
80,120,75627,1,2
80,120,75721,1,0
80,120,75815,1,0
152,64,76002,5,0
224,120,76190,1,0
224,120,76283,1,0
224,120,76377,1,0
224,120,76471,1,0
224,120,76565,2,0,B|288:144|288:144|296:224|384:224,1,180,4|8
392,304,77127,6,0,B|448:288|448:224,2,90,2|0|0
392,304,77690,1,8
304,304,77877,2,0,B|112:304,1,180,2|0
124,304,78440,1,8
48,168,78627,6,0,B|248:168,1,180,2|0
228,168,79190,1,8
264,88,79377,6,0,B|328:96|328:168,1,90,2|0
368,224,79752,1,0
360,240,79846,1,0
352,256,79940,1,8
240,288,80127,1,2
248,272,80221,1,0
256,256,80315,1,2
229,168,80502,1,0
120,208,80690,1,8
48,120,80877,1,2
144,64,81065,6,0,B|184:88|240:80,1,90,8|2
368,144,81440,2,0,B|328:168|272:160,1,90,8|2
144,232,81815,2,0,B|184:256|240:248,1,90,8|0
256,248,82096,2,0,B|328:232,5,45
376,176,82752,1,0
376,176,82940,1,2
304,112,83127,6,0,B|240:48|128:72,2,180,0|2|0
304,112,84065,1,4
256,192,84252,12,4,87815
