osu file format v9

[General]
AudioFilename: Tenshi no CLOVER (TV Size).mp3
AudioLeadIn: 0
PreviewTime: 57410
Countdown: 0
SampleSet: Soft
StackLeniency: 0.7
Mode: 0
LetterboxInBreaks: 1

[Editor]
DistanceSpacing: 1.3
BeatDivisor: 4
GridSize: 4

[Metadata]
Title:Tenshi no CLOVER (TV Size)
Artist:Aimi
Creator:Vicho-kun
Version:Verdis no CLOVER
Source:Astarotte no Omocha!
Tags:Astarotte's Toy Lotte Verdisphena KanaRin happy30 Kenezz KenezzEdward

[Difficulty]
HPDrainRate:4
CircleSize:4
OverallDifficulty:3
ApproachRate:4
SliderMultiplier:1.1
SliderTickRate:2

[Events]
//Background and Video events
Video,-192,"video.avi"
0,0,"lotteBG.jpg"
//Break Periods
//Storyboard Layer 0 (Background)
//Storyboard Layer 1 (Fail)
//Storyboard Layer 2 (Pass)
//Storyboard Layer 3 (Foreground)
//Storyboard Sound Samples
//Background Colour Transformations
3,100,163,162,255

[TimingPoints]
1565,375,4,2,1,50,1,0
4565,-100,4,2,0,50,0,0
4752,-100,4,2,1,50,0,0
4846,-100,4,2,2,50,0,0
5033,-100,4,2,1,50,0,0
7846,-100,4,2,2,50,0,0
8033,-100,4,2,1,50,0,0
10565,-100,4,2,0,50,0,0
10752,-100,4,2,1,50,0,0
11596,-100,4,2,2,50,0,0
11783,-100,4,2,1,50,0,0
13565,-100,4,2,0,50,0,0
13846,-100,4,2,2,50,0,0
14033,-100,4,2,0,50,0,0
15346,-100,4,1,0,50,0,0
15815,-100,4,2,0,50,0,0
16190,-100,4,1,0,50,0,0
16565,-100,4,2,0,70,0,0
22377,-100,4,2,1,70,0,0
22565,-100,4,2,0,70,0,0
22940,-100,4,2,1,70,0,0
23127,-100,4,2,0,70,0,0
23502,-100,4,2,1,70,0,0
23690,-100,4,2,0,70,0,0
24065,-100,4,2,1,70,0,0
24252,-100,4,2,0,70,0,0
24627,-100,4,2,1,70,0,0
24815,-100,4,2,0,70,0,0
25565,-100,4,2,1,70,0,0
31377,-100,4,2,1,70,0,0
31565,-100,4,2,0,70,0,0
31940,-100,4,2,1,70,0,0
32127,-100,4,2,0,70,0,0
32502,-100,4,2,1,70,0,0
32690,-100,4,2,0,70,0,0
33065,-100,4,2,1,70,0,0
33252,-100,4,2,0,70,0,0
33627,-100,4,2,1,70,0,0
33815,-100,4,2,0,70,0,0
34565,-100,4,2,1,50,0,0
46565,-100,4,2,0,50,0,0
46752,-100,4,2,1,50,0,0
52565,-100,4,2,1,50,0,0
52752,-100,4,2,1,50,0,0
55940,-100,4,2,0,50,0,0
58565,-100,4,2,1,50,0,1
61846,-100,4,2,2,50,0,1
62033,-100,4,2,1,50,0,1
63440,-100,4,2,0,50,0,1
64940,-100,4,2,1,50,0,1
67096,-100,4,2,2,50,0,1
67283,-100,4,2,1,50,0,1
69065,-100,4,1,0,40,0,0
70565,-100,4,2,0,50,0,1
70940,-100,4,2,1,50,0,1
73846,-100,4,2,2,50,0,1
74033,-100,4,2,1,50,0,1
76190,-100,4,2,0,50,0,1
76752,-100,4,2,1,50,0,1
76846,-100,4,2,2,50,0,1
77033,-100,4,2,1,50,0,1
79096,-100,4,2,2,50,0,1
79283,-100,4,2,1,50,0,1
82565,-100,4,2,0,50,0,0
84252,-100,4,2,0,5,0,0
87065,-100,4,2,0,10,0,0
87252,-100,4,2,0,20,0,0
87440,-100,4,2,0,30,0,0
87627,-100,4,2,0,40,0,0

[Colours]
Combo1 : 168,237,39
Combo2 : 190,20,139
Combo3 : 185,0,0
Combo4 : 234,222,0

[HitObjects]
256,384,3627,2,0,B|224:336|280:264|256:224,1,165,4|0
200,176,4377,1,2
136,144,4565,6,0,B|80:120|80:40|128:8,3,165,4|0|8|0
200,32,6440,1,8
256,160,6815,1,0
312,32,7190,1,8
312,32,7377,1,2
384,8,7565,6,0,B|431:39|431:119|375:143,3,165,0|0|8|0
432,192,9440,2,0,B|400:240|336:248,1,110,8|2
200,248,10190,2,0,B|140:240|108:192,1,110,8|4
184,72,10940,5,8
328,72,11315,1,0
312,144,11502,2,2,B|264:144|264:144|256:152|256:152|249:144|249:144|200:144,1,110
104,240,12252,1,0
232,304,12627,2,2,B|288:304,1,55,2|2
416,240,13190,1,8
336,120,13565,6,4,B|272:120|224:152|192:216|256:280|320:216|288:152|240:120|160:120,1,330,4|4
120,256,15065,1,4
176,300,15252,2,0,B|200:348,1,55
252,300,15627,2,0,B|276:348,2,55
324,292,16190,2,0,B|348:236|324:180,1,110,0|4
196,120,16940,6,0,B|148:88|68:104|52:192|100:232,1,220,2|2
236,256,18065,1,0
376,232,18440,2,2,B|420:194|404:106|324:90|276:122,1,220
256,188,19377,2,0,B|256:244,1,55,0|4
124,296,19940,6,2,B|60:192|124:88,1,220
252,152,21065,1,0
380,88,21440,2,2,B|444:192|380:296,1,220
308,296,22377,2,0,B|252:296,1,55,8|4
156,192,22940,6,0,B|124:136,1,55,8|4
252,80,23502,6,0,B|316:80,1,55,8|4
340,216,24065,6,0,B|300:264,1,55,8|4
172,200,24627,6,0,B|140:144,1,55,8|4
164,80,25002,1,0
212,136,25190,2,4,B|284:248,1,110,4|4
412,192,25940,5,8
308,296,26315,2,0,B|196:296,1,110,0|8
92,200,27065,1,0
204,112,27440,2,0,B|252:12|252:12|292:112,1,220,8|8
388,216,28565,6,0,B|332:232|324:296,1,110,0|8
252,176,29315,1,0
116,216,29690,2,0,B|172:232|180:296,1,110,8|0
252,176,30440,2,8,B|200:226|256:282|304:330|256:378,1,220,8|10
196,336,31377,6,0,B|140:296,1,55,0|4
156,160,31940,6,0,B|140:104,1,55,8|4
276,64,32502,6,0,B|292:8,1,55,8|4
388,112,33065,6,0,B|452:96,1,55,8|4
476,240,33627,5,8
476,240,33815,2,0,B|500:312|460:360,1,110,4|4
400,356,34377,2,0,B|344:372,1,55,0|12
204,380,34940,6,0,B|181:325|202:273,1,110,0|8
296,164,35690,1,0
202,272,36065,2,0,B|158:296|77:272|58:203|77:153,2,220,0|8|0
228,132,37940,1,0
272,0,38315,2,8,B|315:-24|396:0|415:68|396:118,1,220,8|0
324,244,39440,6,0,B|292:292,1,55
256,228,39815,1,8
188,248,40002,2,8,B|220:296,2,55,0|0|0
116,232,40565,6,8,B|116:144|212:144|212:40,1,220,0|8
211,41,41690,1,0
212,40,42065,2,0,B|211:142|307:142|307:230,2,220,0|8|0
356,40,43940,2,0,B|388:88|460:72,1,110,0|8
356,176,44690,1,0
356,320,45065,2,0,B|324:272|252:288,2,110
216,348,46190,1,0
216,348,46377,2,0,B|160:368,1,55,0|4
32,112,47315,6,8,B|72:-32|200:64,1,220,8|0
256,192,48440,1,0
308,60,48815,2,8,B|432:-34|472:110,1,220,8|0
392,228,49940,5,0
256,272,50315,1,8
120,228,50690,1,0
256,188,51065,1,0
312,320,51440,2,0,B|328:208,1,110,0|8
184,212,52190,2,0,B|199:320,1,110,0|8
360,84,53315,6,0,B|296:36|240:84|192:132|136:84,1,220,8|6
72,212,54440,1,0
152,328,54815,2,0,B|216:376|272:328|320:280|376:328,1,220,8|6
468,220,55940,6,4,B|456:164|392:140,1,110
256,160,56690,1,4
316,288,57065,1,2
268,340,57252,1,2
196,332,57440,2,4,B|131:252|60:245|60:245|67:173|4:94,1,330,0|4
132,56,58940,6,0,B|196:32|236:88,1,110,8|0
300,208,59690,2,0,B|334:257|398:233,1,110,8|0
412,88,60440,1,8
276,136,60815,2,0,B|220:152|188:208,1,110,0|8
284,312,61565,6,0,B|348:312|348:312|388:264|348:216,2,165,0|0|8
220,272,62877,1,0
156,232,63065,2,0,B|100:208|100:208|76:168|92:144,1,110,0|4
228,136,63815,2,0,B|284:160|284:160|308:200|292:224,1,110,4|4
308,280,64377,1,0
332,352,64565,6,12,B|380:384|444:352,1,110,4|8
468,288,65127,2,8,B|508:208|476:128,1,165,0|8
436,64,65877,1,0
308,128,66252,1,0
180,64,66627,1,0
308,128,67002,2,0,B|340:160|284:192|316:240,1,110
380,208,67565,6,0,B|439:216|455:288,1,110,0|8
380,280,68127,2,0,B|392:340|284:368|264:308,1,165,0|8
128,272,69065,2,2,B|104:208|128:160,1,110
188,200,69627,2,2,B|212:144|276:136,1,110
280,208,70190,2,2,B|344:216,1,55
380,160,70565,5,4
300,40,70940,2,0,B|332:56|332:120|300:136,1,110,8|0
168,88,71690,2,0,B|136:104|136:168|168:184,1,110,8|0
220,136,72252,1,0
260,196,72440,2,0,B|284:252|260:316,2,110,8|0|8
348,80,73565,6,0,B|398:42|484:-2|337:147|527:54|460:125|409:163,1,220
364,296,74690,2,0,B|412:328|468:328,1,110,8|0
428,192,75440,1,8
284,208,75815,2,0,B|220:232|212:288,1,110,0|4
100,192,76565,6,0,B|68:136|68:136|116:112|164:136,1,165,4|0
252,248,77502,1,0
252,248,77690,2,0,B|252:128,1,110,8|0
340,248,78440,2,0,B|388:223|436:247|436:247|404:303,2,165,8|0|0
316,104,79940,6,0,B|276:88|260:48|260:48|284:16,1,110,8|0
188,136,80690,2,0,B|228:152|244:192|244:192|220:224,1,110,8|0
116,312,81440,1,8
252,272,81815,1,8
388,312,82190,1,8
348,176,82565,2,0,B|284:176|236:208|188:240|204:304|236:336|272:336|304:304|336:240|288:208|236:176|156:176,1,440,2|4
256,192,84158,12,0,87815
