osu file format v9

[General]
AudioFilename: Tenshi no CLOVER (TV Size).mp3
AudioLeadIn: 0
PreviewTime: 57410
Countdown: 0
SampleSet: Soft
StackLeniency: 0.7
Mode: 0
LetterboxInBreaks: 1

[Editor]
DistanceSpacing: 1.3
BeatDivisor: 4
GridSize: 8

[Metadata]
Title:Tenshi no CLOVER (TV Size)
Artist:Aimi
Creator:Vicho-kun
Version:Kenezz no CLOVER
Source:Astarotte no Omocha!
Tags:Astarotte's Toy Lotte Verdisphena KanaRin happy30 Kenezz KenezzEdward

[Difficulty]
HPDrainRate:1
CircleSize:3
OverallDifficulty:1
ApproachRate:2
SliderMultiplier:0.6
SliderTickRate:2

[Events]
//Background and Video events
Video,-192,"video.avi"
0,0,"lotteBG.jpg"
//Break Periods
//Storyboard Layer 0 (Background)
//Storyboard Layer 1 (Fail)
//Storyboard Layer 2 (Pass)
//Storyboard Layer 3 (Foreground)
//Storyboard Sound Samples
Sample,25940,0,"soft-hitclap.wav",50
Sample,28940,0,"soft-hitclap.wav",50
Sample,68690,0,"soft-hitclap.wav",50
//Background Colour Transformations
3,100,163,162,255

[TimingPoints]
1565,375,4,2,1,50,1,0
4846,-100,4,2,2,50,0,0
5033,-100,4,2,1,50,0,0
7846,-100,4,2,2,50,0,0
8033,-100,4,2,1,50,0,0
8596,-100,4,2,2,50,0,0
8783,-100,4,2,1,50,0,0
11596,-100,4,2,2,50,0,0
11783,-100,4,2,1,50,0,0
13846,-100,4,2,2,50,0,0
14033,-100,4,2,1,50,0,0
22565,-100,4,2,0,50,0,0
24346,-100,4,2,1,50,0,0
25565,-100,4,2,0,50,0,0
25658,-100,4,2,1,50,0,0
26596,-100,4,2,2,50,0,0
26783,-100,4,2,1,50,0,0
28096,-100,4,2,2,50,0,0
28283,-100,4,2,1,50,0,0
29596,-100,4,2,2,50,0,0
29783,-100,4,2,1,50,0,0
31096,-100,4,2,2,50,0,0
31283,-100,4,2,1,50,0,0
31565,-100,4,2,0,50,0,0
33346,-100,4,2,1,50,0,0
46565,-100,4,2,0,50,0,0
46658,-100,4,2,1,50,0,0
58565,-100,4,2,1,50,0,1
60346,-100,4,2,2,50,0,1
60533,-100,4,2,1,50,0,1
64846,-100,4,2,2,50,0,1
65033,-100,4,2,1,50,0,1
65596,-100,4,2,2,50,0,1
65783,-100,4,2,1,50,0,1
67846,-100,4,2,2,50,0,1
68033,-100,4,2,1,50,0,1
69065,-100,4,2,1,50,0,0
70565,-100,4,2,1,50,0,1
81440,-100,4,2,1,60,0,1
81815,-100,4,2,1,70,0,1
82565,-100,4,2,1,70,0,0
84065,-100,4,2,0,70,0,1
84158,-100,4,2,1,70,0,0
87815,-100,4,2,1,50,0,0

[Colours]
Combo1 : 168,237,39
Combo2 : 190,20,139
Combo3 : 185,0,0
Combo4 : 234,222,0

[HitObjects]
312,136,4565,2,0,B|304:88|256:72|256:72|208:88|200:136,1,180,4|8
312,248,6440,2,0,B|256:288|200:248,1,120,8|8
256,192,7565,6,0,B|216:144|152:128,2,120,4|0|0
256,192,9440,2,0,B|296:144|360:128,1,120,8|8
408,192,10565,5,4
336,232,10940,1,8
312,312,11315,2,0,B|256:352|200:312,1,120
176,232,12440,1,8
104,192,12815,1,0
176,152,13190,1,8
168,72,13565,2,0,B|256:40|344:72,1,180,4|8
256,192,15065,12,0,16565
256,280,17315,6,0,B|256:160,1,120,2|2
312,104,18440,2,0,B|312:48|256:24|200:48|200:104,1,180,0|2
128,240,20315,2,0,B|200:304,1,90,2|0
320,296,21440,2,0,B|387:236,1,90,2|0
296,160,22565,6,0,B|256:120|216:160,3,90,4|4|4|4
256,272,24815,1,8
256,272,25190,1,8
256,272,25565,1,4
326,136,26315,6,0,B|271:143|255:95|255:95|239:143|183:135,2,180,0|8|0
328,288,29315,2,0,B|280:264|256:320|256:320|232:264|184:288,2,180,0|8|4
256,192,32127,6,0,B|240:160|272:136|256:104,2,90,4|4|4
256,312,33815,1,8
256,312,34190,1,8
320,264,34565,6,0,B|384:256|416:200,2,120,2|8|0
256,120,36815,1,8
256,120,37565,1,0
192,264,38315,2,0,B|128:256|96:200,2,120,8|0|8
200,112,40565,6,0,B|256:88|256:88|312:112,1,120,2|8
256,256,42065,1,0
328,120,42815,1,8
184,120,43565,1,0
200,272,44315,6,0,B|255:311|311:271,1,120,8|0
256,128,45815,1,8
256,128,46190,1,0
256,128,46565,1,4
176,264,47315,6,0,B|184:328|256:376|328:328|344:264,1,240,8|8
312,112,49565,1,0
256,256,50315,1,8
200,112,51065,1,0
96,232,51815,6,0,B|176:320,1,120,8|0
336,320,53315,2,0,B|416:231,1,120,8|4
256,192,54815,1,8
216,40,55565,6,2,B|152:40,2,60
296,40,56690,2,2,B|360:40,2,60,2|2|8
216,264,58565,5,4
216,264,58940,1,8
296,264,59315,1,0
296,264,59690,1,8
312,184,60065,2,0,B|304:136|256:120|256:120|208:136|200:184,1,180,0|8
304,296,61940,6,0,B|352:336,2,60,8|0|8
256,360,63065,1,0
208,296,63440,2,0,B|160:336,2,60,8|0|8
192,216,64565,6,0,B|168:160|104:136,2,120,4|0|0
256,168,66440,1,8
256,168,66815,1,0
256,168,67190,1,8
320,216,67565,2,0,B|344:160|408:136,1,120
256,80,69065,5,8
256,160,69440,2,2,B|256:224,2,60,8|8|8
256,80,70565,5,4
256,80,70940,1,8
256,232,71690,2,0,B|264:296|336:320,2,120,8|8|8
256,152,73565,1,0
256,232,73940,2,0,B|248:296|176:320,2,120,8|8|8
256,72,76190,5,8
184,112,76565,1,4
192,192,76940,2,0,B|112:280,2,120,8|8|8
256,240,78815,1,0
320,192,79190,2,0,B|400:280,2,120,8|8|8
256,144,81065,5,0
256,144,81440,1,8
256,144,81815,1,8
168,240,82565,2,0,B|216:296|216:296|256:256|296:296|296:296|344:240,1,240,8|4
256,192,84158,12,8,87815
