osu file format v12

[General]
AudioFilename: LIVE for LIFE~ohkamitachinoyoru~.mp3
AudioLeadIn: 2000
PreviewTime: 56651
Countdown: 0
SampleSet: Normal
StackLeniency: 0.7
Mode: 0
LetterboxInBreaks: 0

[Editor]
DistanceSpacing: 1
BeatDivisor: 4
GridSize: 4

[Metadata]
Title:LIVE for LIFE ~Ookami Tachi no Yoru~ (TV Size)
TitleUnicode:LIVE for LIFE ~狼たちの夜~ (TV Size)
Artist:Aimi
ArtistUnicode:愛美
Creator:thou bad
Version:Insane
Source:Ben-to
Tags:climbb65588 Byakugan249 opening Flower
BeatmapID:184217
BeatmapSetID:61896

[Difficulty]
HPDrainRate:7
CircleSize:4
OverallDifficulty:7
ApproachRate:8
SliderMultiplier:1.6
SliderTickRate:2

[Events]
//Background and Video events
Video,64,"OP.flv"
0,0,"bg.jpg",0,0
//Break Periods
//Storyboard Layer 0 (Background)
//Storyboard Layer 1 (Fail)
//Storyboard Layer 2 (Pass)
//Storyboard Layer 3 (Foreground)
//Storyboard Sound Samples
//Background Colour Transformations
3,100,163,162,255

[TimingPoints]
816,340.909090909091,4,1,1,60,1,0
23827,-100,4,1,1,40,0,0
25191,-100,4,1,1,60,0,0
26554,-100,4,1,1,40,0,0
27918,-100,4,1,1,60,0,0
29281,-100,4,1,1,40,0,0
30645,-100,4,1,1,60,0,0
32009,-100,4,1,1,40,0,0
32861,-100,4,1,1,60,0,0
37634,-100,4,1,1,50,0,0
37975,-100,4,1,1,60,0,0
38827,-100,4,1,1,50,0,0
38997,-100,4,1,1,60,0,0
41554,-100,4,1,1,50,0,0
41725,-100,4,1,1,60,0,0
47009,-100,4,1,1,50,0,0
47179,-100,4,1,1,60,0,0
55361,-100,4,1,1,5,0,0
55531,-100,4,1,1,60,0,0
56725,-100,4,1,1,60,0,1
64736,-100,4,1,1,50,0,1
64906,-100,4,1,1,60,0,1
66952,-100,4,1,1,50,0,1
67122,-100,4,1,1,60,0,1
72918,-100,4,1,1,50,0,1
73088,-100,4,1,1,60,0,1
78372,-100,4,1,1,50,0,1
78543,-100,4,1,1,60,0,1
81270,-100,4,1,1,60,0,0
87066,-100,4,1,1,53,0,0
87406,-100,4,1,1,47,0,0
87747,-100,4,1,1,41,0,0
88088,-100,4,1,1,35,0,0
88429,-100,4,1,1,29,0,0
88770,-100,4,1,1,23,0,0
89111,-100,4,1,1,17,0,0
89452,-100,4,1,1,11,0,0
89793,-100,4,1,1,5,0,0

[Colours]
Combo1 : 0,128,255
Combo2 : 255,255,0
Combo3 : 240,5,5
Combo4 : 182,233,254

[HitObjects]
144,80,816,1,4,0:0:0:0:
140,88,986,1,4,0:0:0:0:
236,72,1156,2,0,B|314:89,1,80,8|0,0:0|0:0,0:0:0:0:
379,43,1497,1,0,0:0:0:0:
443,91,1668,1,0,0:0:0:0:
418,167,1838,1,8,0:0:0:0:
337,166,2009,6,2,B|255:162|178:191,1,160,2|2,0:0|0:0,0:0:0:0:
76,252,2520,2,0,B|117:255|152:276,1,80,8|0,0:0|0:0,0:0:0:0:
368,300,2861,2,0,B|326:303|291:324,1,80,0|0,0:0|0:0,0:0:0:0:
220,356,3202,1,8,0:0:0:0:
220,356,3372,1,0,0:0:0:0:
152,276,3543,5,4,0:0:0:0:
148,284,3713,1,4,0:0:0:0:
60,244,3884,2,0,B|102:176,1,80,8|0,0:0|0:0,0:0:0:0:
268,40,4225,2,0,B|226:108,1,80
184,176,4566,1,8,0:0:0:0:
184,176,4736,6,2,B|261:149|343:156,1,160,2|2,0:0|0:0,0:0:0:0:
420,168,5247,1,8,0:0:0:0:
420,168,5418,1,0,0:0:0:0:
480,244,5588,2,0,B|439:247|404:268,1,80
316,308,5929,5,8,0:0:0:0:
293,274,6014,1,0,0:0:0:0:
265,246,6100,1,0,0:0:0:0:
232,224,6185,1,0,0:0:0:0:
194,210,6270,2,0,B|155:194|114:198,1,80,4|4,0:0|0:0,0:0:0:0:
54,124,6611,6,0,B|123:84,1,80,8|0,0:0|0:0,0:0:0:0:
332,128,6952,2,0,B|263:168,1,80,0|0,0:0|0:0,0:0:0:0:
194,211,7293,1,8,0:0:0:0:
265,246,7463,2,2,B|346:244|422:276,1,160,2|2,0:0|0:0,0:0:0:0:
500,220,7975,2,0,B|460:203|441:165,1,80,8|0,0:0|0:0,0:0:0:0:
320,164,8316,2,0,B|360:147|379:109,2,80,0|0|8,0:0|0:0|0:0,0:0:0:0:
112,212,8997,5,6,0:0:0:0:
256,284,9168,1,6,0:0:0:0:
256,276,9679,5,6,0:0:0:0:
112,204,9850,1,6,0:0:0:0:
112,196,10191,5,2,0:0:0:0:
256,268,10531,1,2,0:0:0:0:
400,196,10872,1,2,0:0:0:0:
400,196,11043,1,2,0:0:0:0:
332,128,11213,1,0,0:0:0:0:
294,141,11298,1,0,0:0:0:0:
256,155,11384,1,0,0:0:0:0:
219,169,11469,1,0,0:0:0:0:
181,182,11554,6,2,B|149:224|149:287|181:331,1,160,6|2,0:0|0:0,0:0:0:0:
256,364,12065,2,0,B|296:380|336:364,1,80,8|0,0:0|0:0,0:0:0:0:
404,328,12406,1,0,0:0:0:0:
454,265,12577,1,0,0:0:0:0:
409,198,12747,1,8,0:0:0:0:
332,218,12918,6,2,B|290:250|227:250|183:218,1,160,6|2,0:0|0:0,0:0:0:0:
130,155,13429,1,8,0:0:0:0:
174,87,13600,1,0,0:0:0:0:
251,106,13770,2,0,B|294:105|324:74,2,80,0|0|8,0:0|0:0|0:0,0:0:0:0:
174,87,14281,6,2,B|131:118|114:179|132:230,1,160,6|2,0:0|0:0,0:0:0:0:
172,300,14793,2,0,B|248:324,1,80,8|0,0:0|0:0,0:0:0:0:
288,256,15134,2,0,B|212:232,2,80,0|0|8,0:0|0:0|0:0,0:0:0:0:
328,324,15645,6,2,B|378:302|412:249|406:196,1,160,6|2,0:0|0:0,0:0:0:0:
384,120,16156,2,0,B|359:84|318:76,1,80,8|0,0:0|0:0,0:0:0:0:
200,50,16497,1,0,0:0:0:0:
142,154,16668,1,0,0:0:0:0:
222,244,16838,1,8,0:0:0:0:
331,195,17009,6,2,B|376:164|400:106|385:55,1,160,6|2,0:0|0:0,0:0:0:0:
464,60,17520,2,0,B|490:136,1,80,8|0,0:0|0:0,0:0:0:0:
440,200,17861,2,0,B|466:276,1,80
416,340,18202,1,8,0:0:0:0:
416,340,18372,6,2,B|374:372|311:372|267:340,1,160,6|2,0:0|0:0,0:0:0:0:
212,280,18884,1,8,0:0:0:0:
212,280,19054,1,0,0:0:0:0:
148,232,19225,2,0,B|106:220|68:242,2,80,0|0|8,0:0|0:0|0:0,0:0:0:0:
216,188,19736,6,2,B|299:159|315:73,1,160,2|2,0:0|0:0,0:0:0:0:
196,73,20247,1,0,0:0:0:0:
196,73,20418,2,2,B|212:159|296:188,1,160,2|2,0:0|0:0,0:0:0:0:
452,220,21100,1,4,0:0:0:0:
328,260,21440,5,4,0:0:0:0:
452,300,21611,1,4,0:0:0:0:
375,195,21781,1,4,0:0:0:0:
375,324,21952,1,4,0:0:0:0:
91,293,22463,5,0,0:0:0:0:
137,181,22634,1,4,0:0:0:0:
111,63,22804,1,4,0:0:0:0:
111,63,23145,5,0,0:0:0:0:
204,141,23315,1,4,0:0:0:0:
324,152,23486,1,4,0:0:0:0:
472,88,23827,5,0,0:0:0:0:
472,88,23997,2,0,B|497:124|484:166,1,80
421,214,24338,2,0,B|394:177|406:138,1,80,8|0,0:0|0:0,0:0:0:0:
503,247,24679,2,0,B|458:322|371:322,1,160,0|8,0:0|0:0,0:0:0:0:
256,280,25190,5,0,0:0:0:0:
336,190,25361,1,4,0:0:0:0:
278,86,25531,1,4,0:0:0:0:
278,86,25872,5,0,0:0:0:0:
162,110,26043,1,4,0:0:0:0:
149,228,26213,1,4,0:0:0:0:
148,228,26554,6,0,B|228:247|286:308,1,160
444,284,27236,1,0,0:0:0:0:
444,284,27406,2,0,B|387:224|307:205,1,160,0|8,0:0|0:0,0:0:0:0:
220,288,27918,5,0,0:0:0:0:
308,204,28088,1,4,0:0:0:0:
328,84,28259,1,4,0:0:0:0:
328,84,28600,5,0,0:0:0:0:
389,188,28770,1,4,0:0:0:0:
375,309,28940,1,4,0:0:0:0:
220,288,29281,5,0,0:0:0:0:
220,288,29452,2,0,B|187:259|144:266,2,80,0|0|8,0:0|0:0|0:0,0:0:0:0:
292,324,29963,1,0,0:0:0:0:
292,324,30134,2,0,B|379:324|424:249,1,160,0|8,0:0|0:0,0:0:0:0:
424,249,30645,5,0,0:0:0:0:
453,132,30815,1,4,0:0:0:0:
376,41,30986,1,4,0:0:0:0:
376,41,31327,5,0,0:0:0:0:
256,52,31497,1,4,0:0:0:0:
256,52,32009,5,0,0:0:0:0:
256,84,32350,1,0,0:0:0:0:
256,116,32690,1,0,0:0:0:0:
256,196,32861,1,0,0:0:0:0:
256,196,33202,5,8,0:0:0:0:
222,217,33287,1,0,0:0:0:0:
183,225,33372,1,0,0:0:0:0:
144,217,33458,1,0,0:0:0:0:
108,200,33543,2,0,B|64:124|108:48,1,160,4|8,0:0|0:0,0:0:0:0:
204,124,34054,1,0,0:0:0:0:
204,124,34225,2,0,B|248:200|204:276,1,160,0|8,0:0|0:0,0:0:0:0:
108,200,34736,1,0,0:0:0:0:
108,200,34906,6,0,B|268:200,1,160,0|8,0:0|0:0,0:0:0:0:
392,96,35588,1,0,0:0:0:0:
268,200,35929,1,8,0:0:0:0:
400,292,36270,2,0,B|358:324|295:324|251:292,1,160,0|8,0:0|0:0,0:0:0:0:
250,291,36781,1,0,0:0:0:0:
118,199,37122,1,0,0:0:0:0:
118,199,37293,6,0,B|160:167|223:167|267:199,1,160,8|0,0:0|0:0,0:0:0:0:
296,228,37719,1,0,0:0:0:0:
296,228,37804,1,0,0:0:0:0:
388,252,37975,2,0,B|398:209|374:173,1,80,8|0,0:0|0:0,0:0:0:0:
384,80,38315,2,0,B|303:86|225:58,1,160,0|8,0:0|0:0,0:0:0:0:
132,48,38827,5,0,0:0:0:0:
132,48,38912,1,0,0:0:0:0:
132,48,38997,2,0,B|95:45|53:84|56:142|85:166,1,160,0|8,0:0|0:0,0:0:0:0:
160,196,39509,2,0,B|240:189|318:217,1,160
344,292,40020,1,8,0:0:0:0:
264,280,40190,2,0,B|234:234|237:171|271:131,1,160,0|0,0:0|0:0,0:0:0:0:
336,80,40702,1,8,0:0:0:0:
336,80,40872,2,0,B|379:109|400:168|384:220,1,160,0|0,0:0|0:0,0:0:0:0:
344,292,41384,1,8,0:0:0:0:
264,280,41554,5,0,0:0:0:0:
264,280,41639,1,0,0:0:0:0:
264,280,41725,2,0,B|183:262|105:279,1,160,0|8,0:0|0:0,0:0:0:0:
60,168,42236,2,0,B|137:185|218:167,1,160
264,56,42747,2,0,B|183:38|105:55,2,160,8|0|8,0:0|0:0|0:0,0:0:0:0:
396,148,43770,5,0,0:0:0:0:
447,256,43940,1,0,0:0:0:0:
361,340,44111,1,8,0:0:0:0:
255,283,44281,2,0,B|175:283,2,80
287,210,44793,2,0,B|207:210,2,80,8|0|0,0:0|0:0|0:0,0:0:0:0:
318,136,45304,2,0,B|238:136,2,80,0|8|0,0:0|0:0|0:0,0:0:0:0:
348,60,45815,5,4,0:0:0:0:
348,60,46156,1,4,0:0:0:0:
348,60,46497,2,0,B|188:60,1,160,4|8,0:0|0:0,0:0:0:0:
96,92,47009,5,0,0:0:0:0:
96,92,47094,1,0,0:0:0:0:
96,92,47179,2,0,B|31:151|57:237,1,160,0|8,0:0|0:0,0:0:0:0:
108,300,47690,1,0,0:0:0:0:
172,252,47861,2,0,B|242:198|322:239,1,160,0|8,0:0|0:0,0:0:0:0:
331,318,48372,1,0,0:0:0:0:
252,304,48543,2,0,P|236:144,3,160,4|12|4|12,0:0|0:0|0:0|0:0,0:0:0:0:
408,56,49906,6,0,B|437:133|431:213,1,160,0|8,0:0|0:0,0:0:0:0:
336,288,50418,1,0,0:0:0:0:
336,288,50588,2,0,B|255:270|178:287,1,160,0|8,0:0|0:0,0:0:0:0:
81,213,51100,1,0,0:0:0:0:
81,213,51270,2,0,B|75:133|104:56,2,160,0|8|0,0:0|0:0|0:0,0:0:0:0:
276,72,52463,5,0,0:0:0:0:
276,72,52634,2,2,B|360:207,1,160,2|8,0:0|0:0,0:0:0:0:
236,312,53145,2,2,B|151:176,1,160,2|0,0:0|0:0,0:0:0:0:
151,176,53656,1,8,0:0:0:0:
256,192,53997,12,0,55361,0:0:0:0:
305,162,55531,5,0,0:0:0:0:
305,162,55702,2,0,P|275:87,1,80
256,248,56043,2,0,P|334:260,1,80
208,162,56384,2,0,P|158:223,1,80,0|0,0:0|0:0,0:0:0:0:
83,319,56725,6,2,B|142:339|200:322,1,120,6|2,0:0|0:0,0:0:0:0:
261,269,57065,2,0,B|287:235|284:192,1,80,8|0,0:0|0:0,0:0:0:0:
204,207,57406,1,0,0:0:0:0:
123,212,57577,1,0,0:0:0:0:
92,138,57747,1,8,0:0:0:0:
154,87,57918,1,0,0:0:0:0:
222,129,58088,6,0,B|296:100,1,80
496,196,58429,2,0,B|422:225,1,80,8|0,0:0|0:0,0:0:0:0:
348,252,58770,1,0,0:0:0:0:
284,204,58940,1,0,0:0:0:0:
236,336,59111,1,8,0:0:0:0:
172,288,59281,1,0,0:0:0:0:
108,336,59452,6,2,B|68:285|66:222,1,120,6|2,0:0|0:0,0:0:0:0:
115,162,59793,2,0,B|157:153|182:118,1,80,8|0,0:0|0:0,0:0:0:0:
132,56,60134,1,0,0:0:0:0:
180,120,60304,1,0,0:0:0:0:
256,140,60475,1,8,0:0:0:0:
332,120,60645,1,0,0:0:0:0:
380,56,60815,6,0,B|450:107|441:194,1,160,0|8,0:0|0:0,0:0:0:0:
396,264,61327,1,0,0:0:0:0:
396,264,61412,1,0,0:0:0:0:
396,264,61497,2,0,P|358:279|325:301,1,80
116,264,61838,2,0,P|153:248|186:226,1,80,8|0,0:0|0:0,0:0:0:0:
71,195,62179,6,2,B|62:107|132:56,1,160,6|10,0:0|0:0,0:0:0:0:
208,84,62690,1,0,0:0:0:0:
276,44,62861,2,0,B|356:56,1,80,0|0,0:0|0:0,0:0:0:0:
496,216,63202,2,0,B|416:204,1,80,8|0,0:0|0:0,0:0:0:0:
320,212,63543,5,0,0:0:0:0:
316,220,63713,1,0,0:0:0:0:
220,220,63884,1,8,0:0:0:0:
216,228,64054,1,0,0:0:0:0:
120,228,64225,2,0,B|57:165|80:81,1,160,0|8,0:0|0:0,0:0:0:0:
176,96,64736,5,0,0:0:0:0:
176,96,64821,1,0,0:0:0:0:
176,96,64906,2,2,B|257:103|328:57,1,160,2|10,0:0|0:0,0:0:0:0:
404,84,65418,2,0,B|421:166|385:239,1,160
385,239,65929,5,8,0:0:0:0:
272,352,66100,1,4,0:0:0:0:
272,352,66440,1,4,0:0:0:0:
272,352,66781,1,4,0:0:0:0:
128,280,66952,1,0,0:0:0:0:
128,280,67037,1,0,0:0:0:0:
128,280,67122,2,0,B|60:223|76:137,1,160
304,44,67634,6,2,B|240:38|186:70,1,120,6|2,0:0|0:0,0:0:0:0:
160,144,67975,2,0,B|236:172,1,80,8|0,0:0|0:0,0:0:0:0:
312,152,68315,1,0,0:0:0:0:
234,171,68486,1,0,0:0:0:0:
229,250,68656,1,8,0:0:0:0:
303,281,68827,1,0,0:0:0:0:
354,220,68997,6,0,B|436:212,1,80
304,44,69338,2,0,B|222:52,1,80,8|0,0:0|0:0,0:0:0:0:
128,59,69679,1,0,0:0:0:0:
58,125,69850,1,0,0:0:0:0:
66,164,69935,1,0,0:0:0:0:
75,203,70020,1,8,0:0:0:0:
28,284,70190,1,0,0:0:0:0:
28,284,70361,6,2,B|86:272|144:299,1,120,6|2,0:0|0:0,0:0:0:0:
212,344,70702,2,0,B|248:366|290:358,1,80,8|0,0:0|0:0,0:0:0:0:
384,336,71043,1,0,0:0:0:0:
392,336,71213,1,0,0:0:0:0:
456,264,71384,1,8,0:0:0:0:
448,264,71554,1,0,0:0:0:0:
384,192,71725,5,4,0:0:0:0:
192,48,72066,1,4,0:0:0:0:
163,285,72406,1,4,0:0:0:0:
384,192,72747,1,4,0:0:0:0:
316,124,72918,5,0,0:0:0:0:
316,124,73003,1,0,0:0:0:0:
316,124,73088,2,2,B|256:188|170:168,1,160,6|10,0:0|0:0,0:0:0:0:
68,100,73600,1,0,0:0:0:0:
68,100,73770,2,0,B|56:180,1,80
84,336,74111,2,0,B|96:256,1,80,8|0,0:0|0:0,0:0:0:0:
180,208,74452,6,0,B|266:188|326:252,1,160,0|8,0:0|0:0,0:0:0:0:
375,334,74963,1,0,0:0:0:0:
375,334,75048,1,0,0:0:0:0:
375,334,75134,2,0,P|406:307|419:271,1,80,0|0,0:0|0:0,0:0:0:0:
424,192,75475,1,8,0:0:0:0:
395,118,75645,1,0,0:0:0:0:
395,118,75816,6,0,B|339:58|255:45,1,160,4|8,0:0|0:0,0:0:0:0:
117,118,76327,2,0,B|172:58|256:45,1,160,4|0,0:0|0:0,0:0:0:0:
255,45,76838,1,8,0:0:0:0:
324,192,77009,5,4,0:0:0:0:
327,199,77350,1,4,0:0:0:0:
331,206,77691,1,4,0:0:0:0:
335,213,78031,1,4,0:0:0:0:
216,320,78372,5,0,0:0:0:0:
216,320,78458,1,0,0:0:0:0:
216,320,78543,2,0,B|163:344|102:307|99:249,1,160,0|8,0:0|0:0,0:0:0:0:
156,192,79054,1,0,0:0:0:0:
99,134,79225,2,0,B|102:76|163:39|216:64,1,160,0|8,0:0|0:0,0:0:0:0:
216,64,79736,5,4,0:0:0:0:
221,68,80077,1,4,0:0:0:0:
228,73,80418,1,4,0:0:0:0:
235,77,80759,1,4,0:0:0:0:
384,168,81270,5,4,0:0:0:0:
384,168,81611,1,12,0:0:0:0:
384,168,81952,5,0,0:0:0:0:
442,222,82122,1,0,0:0:0:0:
408,294,82293,1,8,0:0:0:0:
328,285,82463,1,0,0:0:0:0:
328,285,82804,5,0,0:0:0:0:
328,285,83145,1,0,0:0:0:0:
313,207,83316,1,0,0:0:0:0:
196,96,83656,1,8,0:0:0:0:
196,96,83997,5,4,0:0:0:0:
196,96,84338,1,12,0:0:0:0:
196,96,84679,5,0,0:0:0:0:
81,58,84850,1,0,0:0:0:0:
10,155,85020,1,8,0:0:0:0:
80,252,85191,1,0,0:0:0:0:
80,252,85531,5,0,0:0:0:0:
80,252,85872,1,0,0:0:0:0:
196,216,86043,1,0,0:0:0:0:
352,248,86384,1,8,0:0:0:0:
256,192,86725,12,0,89793,0:0:0:0:
