osu file format v11

[General]
AudioFilename: LIVE for LIFE~ohkamitachinoyoru~.mp3
AudioLeadIn: 2000
PreviewTime: 56651
Countdown: 0
SampleSet: Normal
StackLeniency: 0.7
Mode: 0
LetterboxInBreaks: 0

[Editor]
DistanceSpacing: 1
BeatDivisor: 4
GridSize: 4

[Metadata]
Title:LIVE for LIFE ~Ookami Tachi no Yoru~ (TV Size)
TitleUnicode:LIVE for LIFE ~狼たちの夜~ (TV Size)
Artist:Aimi
ArtistUnicode:愛美
Creator:thou bad
Version:Hard
Source:Ben-to
Tags:climbb65588 Byakugan249 opening Flower
BeatmapID:209588
BeatmapSetID:61896

[Difficulty]
HPDrainRate:5
CircleSize:4
OverallDifficulty:6
ApproachRate:7
SliderMultiplier:1.6
SliderTickRate:2

[Events]
//Background and Video events
Video,64,"OP.flv"
0,0,"bg.jpg"
//Break Periods
//Storyboard Layer 0 (Background)
//Storyboard Layer 1 (Fail)
//Storyboard Layer 2 (Pass)
//Storyboard Layer 3 (Foreground)
//Storyboard Sound Samples
//Background Colour Transformations
3,100,163,162,255

[TimingPoints]
816,340.909090909091,4,1,1,60,1,0
23827,-100,4,1,1,40,0,0
25191,-100,4,1,1,60,0,0
26554,-100,4,1,1,40,0,0
27918,-100,4,1,1,60,0,0
29281,-100,4,1,1,40,0,0
30645,-100,4,1,1,60,0,0
32009,-100,4,1,1,40,0,0
33202,-100,4,1,1,60,0,0
55361,-100,4,1,1,5,0,0
55531,-100,4,1,1,60,0,0
56725,-100,4,1,1,60,0,1
81270,-100,4,1,1,60,0,0
87066,-100,4,1,1,53,0,0
87406,-100,4,1,1,47,0,0
87747,-100,4,1,1,41,0,0
88088,-100,4,1,1,35,0,0
88429,-100,4,1,1,29,0,0
88770,-100,4,1,1,23,0,0
89111,-100,4,1,1,17,0,0
89452,-100,4,1,1,11,0,0
89793,-100,4,1,1,5,0,0

[Colours]
Combo1 : 0,128,255
Combo2 : 255,255,0
Combo3 : 240,5,5
Combo4 : 182,233,254

[HitObjects]
308,88,816,2,0,B|348:98|376:129,1,80,4|0,0:0|0:0,0:0:0
280,200,1156,2,0,B|239:189|211:158,1,80,8|0,0:0|0:0,0:0:0
144,92,1497,2,0,B|138:174|94:244,1,160,0|8,0:0|0:0,0:0:0
100,324,2009,2,2,B|174:287|256:290,1,160,2|2,0:0|0:0,0:0:0
300,224,2520,2,0,B|256:225|224:196,1,80,8|0,0:0|0:0,0:0:0
285,146,2861,2,0,B|325:144|358:173,1,80
428,212,3202,1,8,0:0:0
428,212,3372,1,0,0:0:0
436,133,3543,6,0,B|444:53,2,80,4|4|8,0:0|0:0|0:0,0:0:0
419,292,4225,1,0,0:0:0
388,292,4566,1,8,0:0:0
356,292,4906,2,0,B|276:292,1,80
240,220,5247,2,0,B|180:273,1,80,8|0,0:0|0:0,0:0:0
120,326,5588,1,0,0:0:0
120,326,5759,1,0,0:0:0
24,256,5929,2,0,B|44:220,3,40,8|0|0|0,0:0|0:0|0:0|0:0,0:0:0
44,180,6270,6,0,B|38:137|64:102,2,80,4|4|8,0:0|0:0|0:0,0:0:0
196,128,6952,2,0,B|201:170|175:205,2,80,0|0|8,0:0|0:0|0:0,0:0:0
208,48,7463,2,2,B|288:20|368:48,1,160,2|2,0:0|0:0,0:0:0
432,92,7975,2,0,B|397:113|379:152,1,80,8|0,0:0|0:0,0:0:0
405,226,8316,2,0,B|440:202|457:164,2,80,0|0|8,0:0|0:0|0:0,0:0:0
256,284,8997,6,4,B|268:204,1,80,6|6,0:0|0:0,0:0:0
76,60,9679,2,4,B|64:140,1,80,6|6,0:0|0:0,0:0:0
124,288,10191,1,2,0:0:0
256,88,10531,1,2,0:0:0
388,288,10872,1,2,0:0:0
424,216,11043,2,0,B|385:216,5,40,2|0|0|0|0|0,0:0|0:0|0:0|0:0|0:0|0:0,0:0:0
424,216,11554,6,2,B|464:176|464:112|424:72,1,160,6|2,0:0|0:0,0:0:0
348,44,12065,2,0,B|307:47|271:66,1,80,8|0,0:0|0:0,0:0:0
251,142,12406,2,0,B|291:138|327:119,2,80,0|0|8,0:0|0:0|0:0,0:0:0
192,88,12918,6,2,B|152:128|152:192|192:232,1,160,6|2,0:0|0:0,0:0:0
264,196,13429,2,0,B|305:196|336:225,1,80,8|0,0:0|0:0,0:0:0
416,232,13770,2,0,B|409:273|374:300,2,80,0|0|8,0:0|0:0|0:0,0:0:0
408,152,14281,6,2,B|353:89|273:64,1,160,6|2,0:0|0:0,0:0:0
196,56,14793,1,8,0:0:0
196,56,14963,1,0,0:0:0
156,128,15134,2,0,B|196:144|236:128,2,80,0|0|8,0:0|0:0|0:0,0:0:0
76,128,15645,6,2,B|76:208|120:279,1,160,6|2,0:0|0:0,0:0:0
192,316,16156,1,8,0:0:0
192,316,16327,1,0,0:0:0
256,268,16497,2,0,B|256:188,2,80,0|0|8,0:0|0:0|0:0,0:0:0
320,316,17009,6,2,B|355:327|405:312|429:265|424:228,1,160,6|2,0:0|0:0,0:0:0
412,148,17520,2,0,B|393:108|355:94,1,80,8|0,0:0|0:0,0:0:0
280,116,17861,2,0,B|298:155|336:169,2,80,0|0|8,0:0|0:0|0:0,0:0:0
300,40,18372,6,2,B|262:29|214:46|191:94|199:131,1,160,6|2,0:0|0:0,0:0:0
220,208,18884,1,8,0:0:0
220,208,19054,1,0,0:0:0
156,256,19225,2,0,B|113:247|88:212,2,80,0|0|8,0:0|0:0|0:0,0:0:0
216,308,19736,6,2,B|296:300|376:308,1,160,2|2,0:0|0:0,0:0:0
468,176,20418,2,2,B|388:184|308:176,1,160,2|2,0:0|0:0,0:0:0
206,52,21100,1,4,0:0:0
106,176,21440,2,4,B|146:184|186:176,2,80
106,176,21952,1,4,0:0:0
420,52,22634,6,0,B|412:132,1,80,4|4,0:0|0:0,0:0:0
256,316,23315,2,0,B|264:236,1,80,4|4,0:0|0:0,0:0:0
140,145,23827,2,0,B|137:105|125:66,2,80
84,200,24338,2,0,B|87:240|99:278,1,80,8|0,0:0|0:0,0:0:0
176,300,24679,2,0,B|256:312|336:300,1,160,0|8,0:0|0:0,0:0:0
488,248,25361,6,0,B|451:176,1,80,4|4,0:0|0:0,0:0:0
232,76,26043,2,0,B|268:147,1,80,4|4,0:0|0:0,0:0:0
316,300,26554,2,0,B|308:336|256:368|204:336|196:300,2,160
332,220,27406,2,0,B|256:176|180:220,1,160,0|8,0:0|0:0,0:0:0
68,336,28088,6,0,B|36:309|17:273,1,80,4|4,0:0|0:0,0:0:0
148,72,28770,2,0,B|179:98|198:134,1,80,4|4,0:0|0:0,0:0:0
296,260,29281,2,0,B|257:273|217:270,2,80
376,252,29793,2,0,B|374:292|356:328,2,80,8|0|0,0:0|0:0|0:0,0:0:0
380,92,30475,1,8,0:0:0
220,76,30815,6,0,B|188:148,1,80,4|4,0:0|0:0,0:0:0
187,149,31497,1,4,0:0:0
384,288,32009,1,0,0:0:0
396,258,32350,1,0,0:0:0
409,229,32690,2,0,B|440:155,1,80
292,100,33202,2,0,B|256:84,3,40,8|0|0|0,0:0|0:0|0:0|0:0,0:0:0
216,84,33543,6,0,B|136:96|56:84,1,160,4|8,0:0|0:0,0:0:0
8,148,34054,1,0,0:0:0
72,196,34225,2,0,B|152:184|232:196,1,160,0|8,0:0|0:0,0:0:0
308,220,34736,1,0,0:0:0
372,268,34906,2,0,B|408:288|427:325,2,80,0|0|8,0:0|0:0|0:0,0:0:0
232,196,35588,1,0,0:0:0
72,196,35929,1,8,0:0:0
176,72,36270,6,0,B|256:84|336:72,1,160,0|8,0:0|0:0,0:0:0
335,72,36781,1,0,0:0:0
440,196,37122,2,0,B|400:264,1,80,0|8,0:0|0:0,0:0:0
256,336,37634,2,0,B|213:328|188:293,1,80
195,212,37975,2,0,B|235:219|260:254,2,80,8|0|0,0:0|0:0|0:0,0:0:0
115,214,38486,6,0,P|76:210|39:226,1,80,0|8,0:0|0:0,0:0:0
89,291,38827,2,0,P|129:306|179:295|201:251|195:212,1,160
196,132,39338,1,8,0:0:0
196,132,39509,1,0,0:0:0
343,75,39850,6,0,B|423:75,1,80,0|8,0:0|0:0,0:0:0
400,151,40190,2,0,B|320:151,1,80
295,227,40531,2,0,B|375:227,2,80,0|8|0,0:0|0:0|0:0,0:0:0
140,296,41213,6,0,B|115:261|76:246,1,80,0|8,0:0|0:0,0:0:0
106,172,41554,1,0,0:0:0
106,172,41725,2,0,B|133:95|192:38,1,160,0|8,0:0|0:0,0:0:0
244,100,42236,2,0,B|296:161|316:241,1,160,0|0,0:0|0:0,0:0:0
237,256,42747,2,0,B|157:270|78:247,2,160,8|0|8,0:0|0:0|0:0,0:0:0
395,227,43770,6,0,B|423:303,2,80,0|0|8,0:0|0:0|0:0,0:0:0
396,144,44281,2,0,B|317:119|258:61,1,160,0|0,0:0|0:0,0:0:0
184,36,44793,2,0,B|183:77|160:112,1,80,8|0,0:0|0:0,0:0:0
148,192,45134,2,0,B|227:169|307:186,1,160,0|8,0:0|0:0,0:0:0
456,244,45815,5,4,0:0:0
430,263,46156,1,4,0:0:0
405,283,46497,1,4,0:0:0
256,224,46838,1,8,0:0:0
256,144,47009,1,0,0:0:0
256,144,47179,6,0,B|259:104|229:60|175:58|144:81,1,160,0|8,0:0|0:0,0:0:0
98,148,47690,1,0,0:0:0
145,210,47861,2,0,B|178:182|183:140,2,80,0|0|8,0:0|0:0|0:0,0:0:0
48,340,48543,1,4,0:0:0
256,220,48884,1,4,0:0:0
464,340,49225,1,4,0:0:0
256,220,49565,1,4,0:0:0
176,80,49906,6,0,B|256:96|336:80,1,160,0|8,0:0|0:0,0:0:0
452,192,50588,2,0,B|372:175|292:192,1,160,0|8,0:0|0:0,0:0:0
176,304,51270,2,0,B|256:320|336:304,2,160,0|8|0,0:0|0:0|0:0,0:0:0
128,68,52463,6,2,B|201:99,1,80,2|6,0:0|0:0,0:0:0
422,193,53145,1,4,0:0:0
422,193,53656,1,4,0:0:0
256,192,53997,12,0,55361,0:0:0
297,120,55531,6,0,B|257:108|217:119,2,80
256,192,56043,2,0,B|246:232|216:261,1,80
174,191,56384,2,0,B|143:162|133:121,1,80
65,80,56725,6,2,B|64:161|31:236,1,160,6|10,0:0|0:0,0:0:0
20,316,57236,1,0,0:0:0
96,292,57406,2,0,B|135:273|175:287,1,80
328,332,57747,2,0,B|288:350|248:336,1,80,8|0,0:0|0:0,0:0:0
284,264,58088,2,0,B|339:195|425:209,2,160,0|8|0,0:0|0:0|0:0,0:0:0
432,348,59111,1,8,0:0:0
468,276,59281,1,0,0:0:0
388,280,59452,6,2,B|356:256|338:214|344:169|367:137,1,160,6|10,0:0|0:0,0:0:0
408,68,59963,1,0,0:0:0
367,137,60134,2,0,B|351:173|316:202|271:209|234:195,1,160,0|8,0:0|0:0,0:0:0
180,132,60645,1,0,0:0:0
260,116,60815,2,0,B|316:176|337:255,2,160,0|8|0,0:0|0:0|0:0,0:0:0
26,178,61838,1,8,0:0:0
96,220,62009,1,0,0:0:0
176,236,62179,6,2,B|267:211|259:117,1,160,6|10,0:0|0:0,0:0:0
184,148,62690,1,0,0:0:0
105,163,62861,2,0,B|24:179,1,80
176,236,63202,2,0,B|256:252,1,80,8|0,0:0|0:0,0:0:0
340,336,63543,2,0,B|181:355,2,160,0|8|0,0:0|0:0|0:0,0:0:0
480,140,64736,6,2,B|399:150,1,80,2|2,0:0|0:0,0:0:0
284,260,65247,2,2,B|364:249,1,80,2|2,0:0|0:0,0:0:0
232,48,65929,2,0,B|152:57,1,80,0|4,0:0|0:0,0:0:0
36,168,66440,5,4,0:0:0
68,164,66781,1,4,0:0:0
99,160,67122,1,4,0:0:0
340,140,67634,6,2,B|322:222|257:277,1,160,6|10,0:0|0:0,0:0:0
184,300,68145,1,0,0:0:0
116,257,68315,2,0,B|131:216|114:178,1,80
228,68,68656,2,0,B|212:105|227:146,1,80,8|0,0:0|0:0,0:0:0
200,220,68997,2,0,B|226:238|287:238|313:181|306:148,2,160,0|8|0,0:0|0:0|0:0,0:0:0
309,29,70020,1,8,0:0:0
366,85,70190,1,0,0:0:0
440,56,70361,6,2,B|467:132|463:214,1,160,6|10,0:0|0:0,0:0:0
448,292,70872,2,0,B|409:281|380:250,1,80
384,172,71213,2,0,B|342:172|308:194,1,80,0|8,0:0|0:0,0:0:0
168,268,71725,5,4,0:0:0
197,282,72066,1,4,0:0:0
226,296,72406,1,4,0:0:0
255,310,72747,1,4,0:0:0
416,304,73088,6,0,B|442:271|447:230,1,80,4|0,0:0|0:0,0:0:0
392,124,73429,2,0,B|365:156|360:197,1,80,8|0,0:0|0:0,0:0:0
264,204,73770,2,0,B|178:222|119:157,1,160,0|8,0:0|0:0,0:0:0
116,76,74281,1,0,0:0:0
188,116,74452,2,0,B|202:195|186:275,2,160,0|8|0,0:0|0:0|0:0,0:0:0
416,44,75645,6,0,B|407:85|424:123,1,80,0|0,0:0|0:0,0:0:0
476,272,76156,1,0,0:0:0
476,272,76327,2,0,B|393:269|319:305,1,160
240,316,76838,2,0,B|257:278|248:237,1,80,0|4,0:0|0:0,0:0:0
248,237,77350,1,4,0:0:0
248,237,77691,1,4,0:0:0
248,237,78031,1,4,0:0:0
124,136,78372,6,0,B|117:177|87:206,1,80
248,236,78884,1,0,0:0:0
248,236,79054,2,0,B|289:164|359:120,1,160
424,76,79566,2,0,B|441:114|432:155,1,80,0|4,0:0|0:0,0:0:0
432,155,80077,1,4,0:0:0
432,155,80418,1,4,0:0:0
432,155,80759,1,4,0:0:0
200,212,81270,6,0,B|118:211|42:242,1,160,4|4,0:0|0:0,0:0:0
148,120,81952,2,2,B|186:104|211:70,1,80,2|2,0:0|0:0,0:0:0
210,71,82463,1,4,0:0:0
365,116,82804,1,4,0:0:0
210,71,83145,1,4,0:0:0
288,94,83316,2,2,B|291:173|323:248,1,160,2|2,0:0|0:0,0:0:0
438,137,83997,5,4,0:0:0
288,94,84338,1,4,0:0:0
140,172,84679,2,2,B|140:215|111:246,1,80,2|2,0:0|0:0,0:0:0
112,244,85191,1,4,0:0:0
232,348,85531,1,4,0:0:0
112,244,85872,1,4,0:0:0
124,324,86043,2,2,B|190:272|273:266,1,160,2|2,0:0|0:0,0:0:0
256,192,86725,12,0,89793,0:0:0
